<?xml version="1.0" standalone="no"?>
<!DOCTYPE svg PUBLIC "-//W3C//DTD SVG 1.1//EN" "http://www.w3.org/Graphics/SVG/1.1/DTD/svg11.dtd" >
<svg xmlns="http://www.w3.org/2000/svg">
<metadata>
This is a custom SVG webfont generated by Font Squirrel.
Copyright   : Copyright URW copyright 1999 by URW Design  Development Cyrillic glyphs added by Valek Filippov copyright 20012002 Vietnamese characters were added by Han The Thanh copyright 2006 2008 for TeX Gyre extensions by B Jackowski and JM Nowacki on behalf of TeX users groups This work is released under the GUST Font License   see httptugorgfontslicensesGUSTFONTLICENSEtxt for details
</metadata>
<defs>
<font id="webfontxK8EtNRN" horiz-adv-x="933" >
<font-face units-per-em="2048" ascent="1624" descent="-424" />
<missing-glyph horiz-adv-x="466" />
<glyph unicode="IJ" horiz-adv-x="1218" d="M113 0v1470h161v-1470h-161zM416 328v145h153v-102q0 -123 45 -181.5t140 -58.5q188 0 188 254v1085h164v-1073q0 -209 -91 -322.5t-259 -113.5q-156 0 -248 99.5t-92 267.5z" />
<glyph unicode="ij" horiz-adv-x="745" d="M98 1243v197h176v-197h-176zM113 0v1071h147v-1071h-147zM346 -268h31q70 0 89 23.5t19 107.5v1208h148v-1229q0 -139 -53.5 -205.5t-165.5 -66.5q-31 0 -68 6v156zM471 1243v197h176v-197h-176z" />
<glyph unicode="fk" horiz-adv-x="1310" d="M23 922v149h122v184q0 236 224 236q27 0 71 -4v-162q-49 4 -61 4q-86 0 -86 -125v-133h147v-149h-147v-922h-148v922h-122zM580 0v1470h147v-852l379 453h186l-336 -399l357 -672h-191l-272 541l-123 -135v-406h-147z" />
<glyph unicode="&#xfb00;" horiz-adv-x="897" d="M23 922v149h122v184q0 236 224 236q27 0 71 -4v-162q-49 4 -61 4q-86 0 -86 -125v-133h287v184q0 236 223 236q27 0 71 -4v-162q-49 4 -61 4q-86 0 -86 -125v-133h147v-149h-147v-922h-147v922h-287v-922h-148v922h-122z" />
<glyph unicode="&#xfb01;" horiz-adv-x="839" d="M23 922v149h122v184q0 236 224 236q27 0 71 -4v-162q-49 4 -61 4q-86 0 -86 -125v-133h147v-149h-147v-922h-148v922h-122zM565 1243v197h176v-197h-176zM580 0v1071h147v-1071h-147z" />
<glyph unicode="&#xfb02;" horiz-adv-x="839" d="M23 922v149h122v184q0 236 224 236q27 0 71 -4v-162q-49 4 -61 4q-86 0 -86 -125v-133h147v-149h-147v-922h-148v922h-122zM580 0v1470h147v-1470h-147z" />
<glyph unicode="&#xfb03;" horiz-adv-x="1273" d="M23 922v149h122v184q0 236 224 236q27 0 71 -4v-162q-49 4 -61 4q-86 0 -86 -125v-133h287v184q0 236 223 236q27 0 71 -4v-162q-49 4 -61 4q-86 0 -86 -125v-133h147v-149h-147v-922h-147v922h-287v-922h-148v922h-122zM999 1243v197h177v-197h-177zM1014 0v1071h147 v-1071h-147z" />
<glyph unicode="&#xfb04;" horiz-adv-x="1273" d="M23 922v149h122v184q0 236 224 236q27 0 71 -4v-162q-49 4 -61 4q-86 0 -86 -125v-133h287v184q0 236 223 236q27 0 71 -4v-162q-49 4 -61 4q-86 0 -86 -125v-133h147v-149h-147v-922h-147v922h-287v-922h-148v922h-122zM1014 0v1470h147v-1470h-147z" />
<glyph unicode=" "  horiz-adv-x="466" />
<glyph unicode="&#x09;" horiz-adv-x="466" />
<glyph unicode="&#xa0;" horiz-adv-x="466" />
<glyph unicode="!" horiz-adv-x="466" d="M152 0v209h161v-209h-161zM152 985v485h161v-485l-41 -635h-79z" />
<glyph unicode="&#x22;" horiz-adv-x="595" d="M117 948v522h123v-522h-123zM356 948v522h123v-522h-123z" />
<glyph unicode="#" d="M47 430l14 129h175l30 291h-172l15 129h174l49 430h112l-49 -430h209l47 430h113l-47 -430h172l-15 -129h-174l-32 -291h172l-15 -129h-174l-47 -430h-112l49 430h-209l-49 -430h-111l47 430h-172zM346 559h211l31 291h-209z" />
<glyph unicode="$" d="M53 436h148q10 -170 55 -234.5t170 -90.5v542q-199 61 -273.5 148.5t-74.5 247.5q0 170 92 282.5t256 124.5v131h78v-131q166 -18 248 -112.5t92 -276.5h-142q-12 109 -56 162t-142 78v-490q236 -84 303 -159.5t67 -254.5q0 -197 -95 -314.5t-275 -127.5v-197h-78v197 q-190 14 -280.5 129t-92.5 346zM225 1069q0 -180 201 -231v469q-94 -6 -147.5 -69t-53.5 -169zM504 111q109 6 166 74.5t57 181.5q0 80 -37 143t-96 86l-90 35v-520z" />
<glyph unicode="%" horiz-adv-x="1492" d="M66 1040.5q0 182.5 66.5 282.5t189.5 100q119 0 185 -102t66 -282.5t-67.5 -281t-186.5 -100.5q-121 0 -187 100.5t-66 283zM182 1040.5q0 -274.5 137.5 -274.5t137.5 274.5t-135 274.5q-140 0 -140 -274.5zM369 -39l661 1479h94l-665 -1479h-90zM920 369 q0 184 66.5 283.5t189.5 99.5q119 0 185 -101.5t66 -282t-66.5 -281.5t-187 -101t-187 100.5t-66.5 282.5zM1036 368.5q0 -274.5 137.5 -274.5t137.5 274.5t-135 274.5q-140 0 -140 -274.5z" />
<glyph unicode="&#x26;" horiz-adv-x="1120" d="M74 377q0 143 56 234t216 206q-78 117 -102.5 179.5t-24.5 142.5q0 147 80 239t207 92q121 0 194.5 -83.5t73.5 -221.5q0 -113 -48 -196.5t-169 -186.5l221 -319q29 94 49 229h140q-14 -180 -99 -375l215 -317h-190l-113 168q-82 -111 -160.5 -155t-187.5 -44 q-168 0 -263 109t-95 299zM221 375q0 -106 64.5 -177t160.5 -71q145 0 254 162l-272 405q-123 -98 -165 -161.5t-42 -157.5zM362 1157q0 -109 119 -258q84 72 117 128t33 128t-36 115t-97.5 43t-98.5 -42t-37 -114z" />
<glyph unicode="'" horiz-adv-x="321" d="M98 948v522h123v-522h-123z" />
<glyph unicode="(" horiz-adv-x="559" d="M115 537q0 250 63.5 465t218.5 499h103q-133 -307 -180.5 -508.5t-47.5 -472.5q0 -236 45 -421t185 -523h-99q-168 313 -228 513t-60 448z" />
<glyph unicode=")" horiz-adv-x="559" d="M57 1501h99q170 -315 229 -514t59 -446q0 -250 -63.5 -465t-218.5 -500h-103q135 309 181.5 510t46.5 471q0 236 -45.5 423t-184.5 521z" />
<glyph unicode="*" horiz-adv-x="653" d="M66 1210l32 113l176 -78v225h101v-225l176 78l35 -113l-183 -69l113 -189l-82 -69l-108 192l-111 -192l-82 69l113 189z" />
<glyph unicode="+" horiz-adv-x="980" d="M113 453v118h319v320h119v-320h317v-118h-317v-318h-119v318h-319z" />
<glyph unicode="," horiz-adv-x="466" d="M145 0v219h177v-203q0 -276 -177 -317v94q88 12 91 207h-91z" />
<glyph unicode="-" horiz-adv-x="559" d="M74 475v184h411v-184h-411z" />
<glyph unicode="." horiz-adv-x="466" d="M145 0v219h177v-219h-177z" />
<glyph unicode="/" horiz-adv-x="466" d="M-29 -39l414 1548h111l-412 -1548h-113z" />
<glyph unicode="0" d="M61 702.5q0 354.5 106.5 546t303.5 191.5q190 0 295.5 -194.5t105.5 -547t-106.5 -545t-298.5 -192.5q-195 0 -300.5 193.5t-105.5 548zM219 702q0 -582 248 -581.5t248 581.5q0 281 -63.5 429.5t-182.5 148.5q-250 0 -250 -578z" />
<glyph unicode="1" d="M170 1022v143q164 12 223.5 63.5t93.5 211.5h115v-1440h-158v1022h-274z" />
<glyph unicode="2" d="M43 0q10 203 74.5 339t201.5 232l158 111q143 100 180 161.5t37 168.5q0 121 -63.5 194.5t-169.5 73.5q-240 0 -240 -356h-147q0 258 104.5 387t294.5 129q170 0 274.5 -119t104.5 -313q0 -154 -60.5 -252.5t-254.5 -227.5l-123 -82q-186 -125 -205 -276h643v-170h-809z " />
<glyph unicode="3" d="M57 440h154q8 -176 67.5 -247.5t178 -71.5t190.5 77.5t72 204.5q0 123 -67.5 193t-188.5 70h-21q-20 -2 -65 -2v155q57 -4 74 -4q109 0 168 60.5t59 171.5q0 106 -58.5 169.5t-158.5 63.5q-111 0 -165 -72.5t-65 -238.5h-145q18 471 377 471q168 0 268 -103.5t100 -277.5 q0 -223 -155 -297q109 -49 155 -128t46 -210q0 -211 -115 -337t-303 -126q-182 0 -280.5 107.5t-121.5 371.5z" />
<glyph unicode="4" d="M41 350v178l541 912h123v-932h174v-158h-174v-350h-148v350h-516zM176 508h381v657z" />
<glyph unicode="5" d="M53 358h154q27 -240 242 -239q113 0 184.5 92t71.5 238q0 141 -72 229t-189 88q-125 0 -219 -137l-129 8l90 772h611v-178h-500l-51 -395q104 90 227 90q168 0 278.5 -132t110.5 -331q0 -219 -111.5 -360.5t-312.5 -141.5q-168 0 -263 96t-122 301z" />
<glyph unicode="6" d="M63 659q0 365 116 573t319 208q147 0 237 -99.5t111 -283.5h-146q-20 117 -68 170t-132 53q-123 0 -198 -137t-87 -410q94 184 281 185q166 0 270 -128t104 -333q0 -207 -109.5 -351.5t-285.5 -144.5q-199 0 -305.5 181t-106.5 517zM238 444q0 -143 68.5 -232t176.5 -89 q104 0 169 89t65 234q0 141 -63.5 226.5t-170.5 85.5q-113 0 -179 -84.5t-66 -229.5z" />
<glyph unicode="7" d="M61 1231v178h818v-160q-375 -512 -486 -1249h-164q39 305 165 625.5t319 605.5h-652z" />
<glyph unicode="8" d="M63 399q0 139 45.5 221t155.5 144q-160 86 -160 280q0 176 99.5 286t259.5 110q162 0 262 -104.5t100 -272.5q0 -106 -34.5 -176t-114.5 -121q193 -115 192 -354q0 -201 -108.5 -326t-284.5 -125q-186 0 -299 119.5t-113 318.5zM221 403q0 -131 68.5 -206.5t183.5 -75.5 t176.5 69.5t61.5 200.5q0 133 -65.5 209t-178.5 76q-111 0 -178.5 -75t-67.5 -198zM258 1057q0 -98 58.5 -162t146.5 -64q90 0 149.5 65t59.5 165q0 98 -58.5 158.5t-152.5 60.5t-148.5 -59.5t-54.5 -163.5z" />
<glyph unicode="9" d="M70 946q0 221 105.5 357.5t279.5 136.5q199 0 303 -170t104 -494q0 -375 -113.5 -595t-320.5 -220q-154 0 -244 101.5t-100 283.5h147q20 -236 199 -235q78 0 126 38.5t90 162.5t71 354q-82 -184 -279 -185q-166 0 -267 128t-101 337zM223 946q0 -150 59.5 -227.5 t174.5 -77.5q109 0 170 85t61 239q0 145 -61.5 230t-167.5 85q-111 0 -173.5 -88t-62.5 -246z" />
<glyph unicode=":" horiz-adv-x="466" d="M145 0v219h177v-219h-177zM145 838v219h177v-219h-177z" />
<glyph unicode=";" horiz-adv-x="466" d="M145 0v219h177v-203q0 -276 -177 -317v94q88 12 91 207h-91zM145 838v219h177v-219h-177z" />
<glyph unicode="&#x3c;" horiz-adv-x="980" d="M182 471v82l574 604v-172l-449 -473l449 -473v-172z" />
<glyph unicode="=" horiz-adv-x="980" d="M113 268v119h755v-119h-755zM113 637v119h755v-119h-755z" />
<glyph unicode="&#x3e;" horiz-adv-x="980" d="M182 39l449 473l-449 473v172l574 -604v-82l-574 -604v172z" />
<glyph unicode="?" d="M94 1010q0 133 19.5 203.5t68.5 134.5q109 141 287 141q158 0 257 -111.5t99 -287.5q0 -94 -30.5 -162t-127 -178.5t-121 -174t-24.5 -200.5h-147q0 158 27.5 234.5t129.5 205.5q90 113 113 158t23 114q0 113 -54.5 178.5t-150.5 65.5q-221 0 -221 -321h-148zM371 0v209 h164v-209h-164z" />
<glyph unicode="@" horiz-adv-x="1703" d="M248 737q0 322 185 547t450 225q242 0 408.5 -186t166.5 -455q0 -219 -126 -404t-279 -185q-96 0 -103 131q-109 -131 -211 -131t-171.5 97t-69.5 240q0 225 115.5 390t271.5 165q68 0 112.5 -36.5t81.5 -122.5l33 127h115l-80 -336q-72 -299 -72 -336q0 -55 35 -55 q88 0 164 141t76 307q0 225 -133.5 373.5t-333.5 148.5q-219 0 -365.5 -187t-146.5 -466q0 -272 149.5 -456.5t370.5 -184.5q240 0 409 234h113q-195 -360 -526 -361q-266 0 -452.5 226t-186.5 550zM635 618q0 -82 40 -137t99 -55q88 0 170 129t82 276q0 80 -41 136.5 t-98 56.5q-96 0 -174 -125t-78 -281z" />
<glyph unicode="A" horiz-adv-x="1120" d="M23 0l452 1470h187l436 -1470h-178l-119 428h-484l-127 -428h-167zM367 606h374l-180 651z" />
<glyph unicode="B" horiz-adv-x="1120" d="M125 0v1470h530q154 0 247 -101t93 -269q0 -203 -159 -307q119 -59 168 -139.5t49 -215.5q0 -199 -112 -318.5t-296 -119.5h-520zM289 170h348q119 0 185.5 70.5t66.5 197.5q0 250 -281 250h-319v-518zM289 848h293q127 0 188 57.5t61 175.5q0 113 -60 166t-187 53h-295 v-452z" />
<glyph unicode="C" horiz-adv-x="1212" d="M74 733q0 356 152.5 566t410.5 210q201 0 333 -127t160 -354h-157q-70 303 -332 303q-186 0 -292.5 -160.5t-106.5 -443.5q0 -279 102 -433.5t287 -154.5q137 0 225 95.5t129 306.5h158q-31 -172 -70 -266.5t-108 -165.5q-141 -147 -349 -148q-250 0 -396 209t-146 563z " />
<glyph unicode="D" horiz-adv-x="1212" d="M135 0v1470h490q231 0 369.5 -195.5t138.5 -523t-134.5 -539.5t-380.5 -212h-483zM299 170h315q162 0 256.5 151.5t94.5 413.5q0 272 -93.5 418.5t-267.5 146.5h-305v-1130z" />
<glyph unicode="E" horiz-adv-x="1120" d="M145 0v1470h877v-178h-713v-448h658v-178h-658v-488h725v-178h-889z" />
<glyph unicode="F" horiz-adv-x="1026" d="M145 0v1470h834v-178h-670v-448h590v-178h-590v-666h-164z" />
<glyph unicode="G" horiz-adv-x="1306" d="M80 717q0 354 157.5 573t411.5 219q201 0 340 -129t172 -356h-157q-74 307 -353 307q-186 0 -294.5 -163.5t-108.5 -444.5q0 -289 104.5 -440.5t302.5 -151.5q166 0 269.5 121t103.5 364h-375v170h529v-786h-107l-37 190q-158 -229 -407 -229q-254 0 -402.5 219.5 t-148.5 536.5z" />
<glyph unicode="H" horiz-adv-x="1212" d="M129 0v1470h164v-608h629v608h163v-1470h-163v684h-629v-684h-164z" />
<glyph unicode="I" horiz-adv-x="466" d="M154 0v1470h161v-1470h-161z" />
<glyph unicode="J" horiz-adv-x="839" d="M29 328v145h153v-102q0 -123 45 -181.5t140 -58.5q188 0 188 254v1085h164v-1073q0 -209 -91 -322.5t-259 -113.5q-156 0 -248 99.5t-92 267.5z" />
<glyph unicode="K" horiz-adv-x="1120" d="M127 0v1470h164v-712l586 712h225l-504 -593l516 -877h-211l-422 737l-190 -221v-516h-164z" />
<glyph unicode="L" d="M127 0v1470h164v-1292h610v-178h-774z" />
<glyph unicode="M" horiz-adv-x="1398" d="M123 0v1470h233l346 -1249l345 1249h231v-1470h-154v868v379l-344 -1247h-159l-340 1245v-282v-963h-158z" />
<glyph unicode="N" horiz-adv-x="1212" d="M127 0v1470h192l609 -1194v1194h157v-1470h-182l-618 1194v-1194h-158z" />
<glyph unicode="O" horiz-adv-x="1306" d="M66 733q0 338 157.5 557t438.5 219q254 0 416.5 -216t162.5 -560q0 -213 -65.5 -385t-201.5 -279.5t-320.5 -107.5t-320.5 107.5t-201.5 279.5t-65.5 385zM233 733q0 -266 116 -430t304.5 -164t304 164t115.5 432q0 266 -114.5 431t-299.5 165q-195 0 -310.5 -162 t-115.5 -436z" />
<glyph unicode="P" horiz-adv-x="1120" d="M145 0v1470h541q162 0 260 -114.5t98 -300.5q0 -197 -98 -315.5t-260 -118.5h-377v-621h-164zM309 791h322q246 0 246 258q0 252 -240 251h-328v-509z" />
<glyph unicode="Q" horiz-adv-x="1306" d="M66 735.5q0 329.5 155.5 551.5t431.5 222q184 0 320.5 -107.5t202 -279.5t65.5 -385q0 -336 -174 -577l164 -156l-82 -119l-184 174q-139 -98 -312 -98q-276 0 -431.5 222.5t-155.5 552zM233 735.5q0 -268.5 116 -432.5t304 -164q90 0 178 45l-126 119l83 123l152 -145 q133 182 133 454q0 268 -115.5 432t-304 164t-304.5 -163.5t-116 -432z" />
<glyph unicode="R" horiz-adv-x="1212" d="M147 0v1470h560q193 0 294 -102t101 -295q0 -125 -37 -202.5t-131 -147.5q78 -37 107.5 -93.5t37.5 -183.5l8 -266q2 -68 13.5 -94.5t48.5 -52.5v-33h-201q-27 111 -26 369q0 139 -51.5 200.5t-163.5 61.5h-396v-631h-164zM311 801h377q125 0 185.5 62.5t60.5 193.5 q0 244 -217 243h-406v-499z" />
<glyph unicode="S" horiz-adv-x="1120" d="M82 475h154q0 -170 88 -257t249 -87q145 0 227.5 66.5t82.5 187.5q0 104 -54.5 158.5t-201.5 95.5l-248 70q-256 72 -256 352q0 199 113.5 323.5t316.5 124.5q217 0 336 -115.5t119 -353.5h-154q0 145 -82 222t-219 77q-129 0 -200.5 -66.5t-71.5 -187.5q0 -152 141 -190 l344 -96q274 -78 274 -396q0 -207 -127 -324.5t-348 -117.5t-352 127t-131 387z" />
<glyph unicode="T" horiz-adv-x="1026" d="M23 1292v178h981v-178h-408v-1292h-164v1292h-409z" />
<glyph unicode="U" horiz-adv-x="1212" d="M133 489v981h164v-925q0 -195 80 -300.5t227 -105.5q150 0 232 104.5t82 297.5v929h163v-954q0 -254 -131 -404.5t-352 -150.5q-213 0 -339 143t-126 385z" />
<glyph unicode="V" horiz-adv-x="1120" d="M33 1470h182l346 -1259l342 1259h184l-440 -1470h-174z" />
<glyph unicode="W" horiz-adv-x="1585" d="M27 1470h176l227 -1204l272 1204h179l272 -1204l225 1204h181l-318 -1470h-172l-276 1227l-281 -1227h-172z" />
<glyph unicode="X" horiz-adv-x="1120" d="M33 0l430 754l-404 716h205l305 -563l305 563h195l-403 -716l421 -754h-200l-324 604l-334 -604h-196z" />
<glyph unicode="Y" horiz-adv-x="1120" d="M23 1470h190l346 -706l346 706h191l-455 -878v-592h-164v592z" />
<glyph unicode="Z" horiz-adv-x="1026" d="M39 0v168l739 1124h-684v178h893v-174l-741 -1118h741v-178h-948z" />
<glyph unicode="[" horiz-adv-x="466" d="M106 -401v1880h314v-148h-180v-1585h180v-147h-314z" />
<glyph unicode="\" horiz-adv-x="466" d="M-29 1509h111l414 -1548h-113z" />
<glyph unicode="]" horiz-adv-x="466" d="M47 -254h180v1585h-180v148h313v-1880h-313v147z" />
<glyph unicode="^" horiz-adv-x="788" d="M-23 541l357 868h121l356 -868h-129l-287 704l-286 -704h-132z" />
<glyph unicode="_" d="M0 -154h934v-102h-934v102z" />
<glyph unicode="`" horiz-adv-x="559" d="M4 1485h182l150 -289h-113z" />
<glyph unicode="a" d="M61 283q0 139 70 225t197 106l243 37q78 12 78 123q0 178 -203 178q-207 0 -206 -207h-136q0 356 353 357q158 0 247 -80t89 -219v-617q0 -63 47 -63q10 0 51 8v-131q-59 -20 -86 -20q-76 0 -109.5 37.5t-42.5 125.5q-72 -92 -144.5 -133t-166.5 -41q-127 0 -204 86.5 t-77 227.5zM215 299q0 -86 41 -133t117 -47q111 0 191.5 74.5t80.5 177.5v176q-23 -20 -68 -32.5t-174 -35.5q-100 -16 -144 -58t-44 -122z" />
<glyph unicode="b" d="M98 0v1470h148v-538q57 90 118.5 130t143.5 40q162 0 261 -149.5t99 -391.5q0 -268 -104.5 -430t-278.5 -162q-86 0 -143 39t-104 131v-139h-140zM240 510q0 -182 64.5 -282.5t174.5 -100.5q113 0 174.5 110.5t61.5 311.5q0 393 -234 393q-241 0 -241 -432z" />
<glyph unicode="c" horiz-adv-x="839" d="M51 516q0 268 112.5 427t303.5 159q295 0 334 -391h-144q-18 121 -67 176t-137 55q-115 0 -179.5 -108.5t-64.5 -303t60.5 -299t172.5 -104.5q168 0 215 252h144q-53 -410 -357 -410q-180 0 -286.5 148.5t-106.5 398.5z" />
<glyph unicode="d" d="M59 561q0 244 100.5 392.5t262.5 148.5q90 0 153.5 -45t114.5 -148v561h148v-1470h-140v154q-47 -100 -105 -142.5t-149 -42.5q-174 0 -279.5 162t-105.5 430zM213 551q0 -201 61.5 -312.5t171.5 -111.5q113 0 177.5 100.5t64.5 280.5q0 211 -60.5 322.5t-174.5 111.5 q-240 0 -240 -391z" />
<glyph unicode="e" d="M68 516q0 268 112.5 427t302.5 159q178 0 275.5 -146.5t107.5 -478.5h-641q12 -350 250 -350q90 0 155.5 59.5t76.5 149.5h147q-29 -174 -130 -270.5t-253 -96.5q-186 0 -294.5 146.5t-108.5 400.5zM225 621h488q-23 322 -236 321q-106 0 -176 -89t-76 -232z" />
<glyph unicode="f" horiz-adv-x="466" d="M23 922v149h122v184q0 236 224 236q27 0 71 -4v-162q-49 4 -61 4q-86 0 -86 -125v-133h147v-149h-147v-922h-148v922h-122z" />
<glyph unicode="g" d="M68 561q0 244 100 392.5t262 148.5q88 0 148.5 -42t119.5 -147v158h140v-983q0 -281 -100.5 -410t-305.5 -129q-145 0 -227 74t-111 246h148q20 -90 66 -130t130 -40q133 0 192.5 83t59.5 294v43q-82 -150 -239 -150q-174 0 -278.5 162t-104.5 430zM221 551 q0 -201 61.5 -312.5t172.5 -111.5q113 0 177 101.5t64 277.5q0 211 -60.5 323.5t-174.5 112.5q-240 0 -240 -391z" />
<glyph unicode="h" d="M109 0v1470h147v-546q63 100 123.5 139t148.5 39q139 0 218 -98.5t79 -274.5v-729h-147v700q0 127 -41 184.5t-131 57.5q-119 0 -184.5 -94t-65.5 -264v-584h-147z" />
<glyph unicode="i" horiz-adv-x="372" d="M98 1243v197h176v-197h-176zM113 0v1071h147v-1071h-147z" />
<glyph unicode="j" horiz-adv-x="372" d="M-27 -268h31q70 0 89.5 23.5t19.5 107.5v1208h147v-1229q0 -139 -53 -205.5t-166 -66.5q-31 0 -68 6v156zM98 1243v197h176v-197h-176z" />
<glyph unicode="k" horiz-adv-x="839" d="M109 0v1470h147v-852l379 453h186l-336 -399l357 -672h-191l-272 541l-123 -135v-406h-147z" />
<glyph unicode="l" horiz-adv-x="372" d="M113 0v1470h147v-1470h-147z" />
<glyph unicode="m" horiz-adv-x="1398" d="M109 0v1071h139v-158q57 100 120.5 144.5t151.5 44.5q82 0 136.5 -40t95.5 -134q76 102 130 138t134 36q127 0 201.5 -96.5t74.5 -264.5v-741h-147v692q0 250 -160 250q-88 0 -149.5 -84t-61.5 -205v-653h-147v741q0 94 -36 147.5t-102 53.5q-106 0 -169.5 -98.5 t-63.5 -259.5v-584h-147z" />
<glyph unicode="n" d="M109 0v1071h139v-158q106 188 280 189q139 0 218 -98.5t79 -274.5v-729h-147v659q0 147 -43 215t-137 68q-113 0 -177.5 -95t-64.5 -263v-584h-147z" />
<glyph unicode="o" d="M59 537q0 254 114 409.5t300 155.5q176 0 288.5 -159t112.5 -406q0 -250 -113.5 -408t-293.5 -158t-294 158t-114 408zM213 537q0 -186 69.5 -297t184.5 -111t184.5 110.5t69.5 297.5q0 184 -68.5 295.5t-181.5 111.5q-119 0 -188.5 -109.5t-69.5 -297.5z" />
<glyph unicode="p" d="M98 -424v1495h140v-158q57 104 117.5 146.5t150.5 42.5q162 0 262 -148.5t100 -392.5q0 -268 -104.5 -430t-278.5 -162q-154 0 -239 150v-543h-148zM240 502q0 -174 64.5 -274.5t174.5 -100.5q113 0 174.5 112.5t61.5 315.5q0 188 -59.5 287.5t-174.5 99.5 q-241 0 -241 -440z" />
<glyph unicode="q" d="M59 561q0 244 100.5 392.5t262.5 148.5q88 0 148.5 -42t119.5 -147v158h139v-1495h-147v543q-86 -150 -240 -150q-174 0 -278.5 162t-104.5 430zM213 553q0 -201 61.5 -313.5t171.5 -112.5q113 0 177.5 99.5t64.5 275.5q0 215 -60.5 327.5t-174.5 112.5q-240 0 -240 -389 z" />
<glyph unicode="r" horiz-adv-x="559" d="M129 0v1071h139v-182q59 115 116.5 164t133.5 49q18 0 39 -6v-185h-55q-98 0 -162 -80.5t-64 -205.5v-625h-147z" />
<glyph unicode="s" horiz-adv-x="839" d="M53 344h144q8 -115 61 -166t166 -51q96 0 151.5 45t55.5 123q0 59 -36 91t-138 63l-172 51q-203 61 -203 264q0 154 92 246t244 92q150 0 235.5 -87t96.5 -249h-144q-8 178 -198 178q-84 0 -133.5 -41t-49.5 -110q0 -57 31 -85t127 -57l149 -45q133 -39 189.5 -105.5 t56.5 -178.5q0 -162 -98 -257.5t-266 -95.5q-172 0 -261.5 90t-99.5 285z" />
<glyph unicode="t" horiz-adv-x="466" d="M23 922v149h118v299h148v-299h143v-149h-143v-697q0 -45 20.5 -64.5t69.5 -19.5h51v-141l-57 -7l-33 -4q-8 -1 -14.5 -2t-12.5 -1q-172 0 -172 229v707h-118z" />
<glyph unicode="u" d="M115 301v770h147v-711q0 -233 170 -233q111 0 176.5 96t65.5 258v590h147v-1071h-139v166q-59 -111 -119.5 -154t-159.5 -43q-135 0 -211.5 88t-76.5 244z" />
<glyph unicode="v" horiz-adv-x="839" d="M14 1071h170l230 -878l250 878h161l-333 -1071h-158z" />
<glyph unicode="w" horiz-adv-x="1212" d="M23 1071h161l170 -850l170 850h166l172 -850l180 850h148l-256 -1071h-152l-180 838l-174 -838h-152z" />
<glyph unicode="x" horiz-adv-x="839" d="M18 0l310 551l-295 520h190l203 -377l205 377h180l-297 -520l309 -551h-188l-219 403l-211 -403h-187z" />
<glyph unicode="y" horiz-adv-x="839" d="M18 1071h166l236 -878l237 878h164l-317 -1051q-53 -172 -82 -251.5t-68 -133t-75.5 -63.5t-108.5 -10q-27 0 -59 12l-13 4v164q43 -18 90.5 -18t69 26.5t49.5 110.5l37 110z" />
<glyph unicode="z" horiz-adv-x="839" d="M51 0v141l531 781h-490v149h682v-147l-526 -774h540v-150h-737z" />
<glyph unicode="{" horiz-adv-x="561" d="M70 479v123q135 20 135 260v352q0 113 49 189t123 76h112v-133h-73q-78 0 -78 -168v-349q0 -98 -43 -179t-109 -109q70 -33 111 -113t41 -182v-346q0 -168 78 -168h73v-133h-112q-74 0 -123 75.5t-49 188.5v350q0 109 -33.5 182.5t-101.5 83.5z" />
<glyph unicode="|" horiz-adv-x="436" d="M160 -401v1880h119v-1880h-119z" />
<glyph unicode="}" horiz-adv-x="561" d="M70 -268h73q78 0 78 168v346q0 102 41 182t111 113q-66 29 -109 109.5t-43 178.5v349q0 168 -78 168h-73v133h112q74 0 123 -76t49 -189v-352q0 -240 135 -260v-123q-68 -12 -101.5 -84.5t-33.5 -181.5v-350q0 -113 -49 -188.5t-123 -75.5h-112v133z" />
<glyph unicode="~" horiz-adv-x="980" d="M102 483q80 176 207 176q43 0 88 -17t150 -75q84 -47 127 -47q59 0 121 105l84 -78q-53 -94 -101.5 -135t-109.5 -41q-70 0 -170 67q-109 72 -191 72q-74 0 -125 -100z" />
<glyph unicode="&#xa1;" horiz-adv-x="466" d="M154 86l41 635h79l41 -635v-485h-161v485zM154 862v209h161v-209h-161z" />
<glyph unicode="&#xa2;" d="M86 514q0 274 109.5 431t302.5 157q43 0 73 -12l43 186h66l-41 -205q90 -37 147.5 -132t69.5 -232h-139q-31 166 -113 208l-186 -790q29 -6 57 -6q102 0 157.5 57t86.5 199h143q-29 -201 -126 -307.5t-249 -106.5q-35 0 -106 14l-51 -211h-70l57 234q-121 82 -176 205 t-55 311zM233 516q0 -250 123 -356l183 780q-20 4 -37 4q-127 0 -198 -111.5t-71 -316.5z" />
<glyph unicode="&#xa3;" d="M55 649v129h117q-74 180 -74 279q0 182 113 297.5t291 115.5t275 -121.5t97 -314.5v-30h-147v18q0 129 -64.5 210t-170.5 81q-98 0 -167 -75t-69 -181q0 -88 86 -279h281v-129h-232q14 -72 15 -131q0 -205 -211 -393q127 84 229 84q31 0 147.5 -36t135.5 -36q70 0 129 64 l69 -135q-109 -98 -211 -99q-27 0 -173 46t-177 46q-86 0 -201 -82l-82 142q205 180 205 379q0 55 -30 151h-181z" />
<glyph unicode="&#xa4;" d="M139 289l66 63q-57 82 -58 185q0 100 58 182l-66 63l84 84l66 -63q84 57 182 57t182 -57l66 63l84 -84l-66 -63q57 -82 58 -182q0 -102 -58 -185l66 -63l-84 -84l-66 63q-82 -55 -182 -55t-182 55l-66 -63zM266 537q0 -86 60.5 -145.5t144.5 -59.5t144.5 59.5t60.5 145.5 q0 84 -60.5 144t-144.5 60t-144.5 -60t-60.5 -144z" />
<glyph unicode="&#xa5;" d="M4 1409h168l293 -604l295 604h168l-326 -623h262v-116h-325v-174h325v-117h-325v-379h-148v379h-321v117h321v174h-321v116h258z" />
<glyph unicode="&#xa6;" horiz-adv-x="436" d="M160 350h119v-751h-119v751zM160 727v752h119v-752h-119z" />
<glyph unicode="&#xa7;" d="M72 641q0 106 36.5 176t131.5 139q-45 63 -61.5 105.5t-16.5 99.5q0 154 85 251t220 97q291 0 305 -374h-141q-8 115 -47 166t-117 51q-70 0 -114 -45t-44 -117q0 -100 123 -186l246 -177q96 -70 139 -147.5t43 -179.5q0 -104 -39 -178t-135 -150q88 -119 88 -233 q0 -141 -90 -235.5t-227 -94.5q-303 0 -318 385h148q6 -227 166 -227q80 0 127 45t47 120q0 88 -92 164l-355 287q-108 90 -108 258zM211 676q0 -111 76 -172l317 -250q66 53 91.5 98t25.5 107q0 119 -105 198l-292 220q-113 -78 -113 -201z" />
<glyph unicode="&#xa8;" horiz-adv-x="559" d="M25 1243v197h180v-197h-180zM354 1243v197h181v-197h-181z" />
<glyph unicode="&#xa9;" horiz-adv-x="1236" d="M41 674q0 289 163 500.5t414.5 211.5t414.5 -211.5t163 -500.5t-163 -501t-414.5 -212t-414.5 212t-163 501zM123 674q0 -254 138 -442.5t357.5 -188.5t357.5 188.5t138 442.5t-138 442.5t-357.5 188.5t-357.5 -188.5t-138 -442.5zM299 673.5q0 192.5 91 306.5t245 114 q123 0 203 -72t94 -199h-107q-37 160 -188 160q-106 0 -165.5 -84t-59.5 -229.5t57 -224t162 -78.5q80 0 129 50t71 163h109q-31 -170 -109 -244q-86 -80 -208 -80q-147 0 -235.5 112.5t-88.5 305z" />
<glyph unicode="&#xaa;" horiz-adv-x="620" d="M41 1020q0 86 49 139t139 66l148 20q41 6 41 72q0 86 -127 86q-117 0 -129 -109h-92q8 111 63 163t168 52q102 0 160.5 -48t58.5 -132v-364q0 -39 31 -39q4 0 14 2t17 2v-90l-13 -4q-29 -6 -43 -7q-51 0 -72.5 22.5t-25.5 82.5q-90 -104 -203 -105q-84 0 -134 52.5 t-50 138.5zM59 623v98h498v-98h-498zM147 1034q0 -98 97 -98q76 0 125 43t49 108v80q-16 -20 -154 -41q-63 -10 -90 -30.5t-27 -61.5z" />
<glyph unicode="&#xab;" d="M164 473v189l262 251v-180l-176 -166l176 -166v-180zM508 473v189l262 251v-180l-176 -166l176 -166v-180z" />
<glyph unicode="&#xac;" horiz-adv-x="980" d="M113 637v119h755v-428h-118v309h-637z" />
<glyph unicode="&#xad;" horiz-adv-x="559" d="M74 475v184h411v-184h-411z" />
<glyph unicode="&#xae;" horiz-adv-x="1236" d="M41 674q0 289 163 500.5t414.5 211.5t414.5 -211.5t163 -500.5t-163 -501t-414.5 -212t-414.5 212t-163 501zM123 674q0 -254 138 -442.5t357.5 -188.5t357.5 188.5t138 442.5t-138 442.5t-357.5 188.5t-357.5 -188.5t-138 -442.5zM317 276v797h334q117 0 178.5 -56 t61.5 -163q0 -117 -90 -184q41 -20 57 -52t19 -96l6 -141q0 -35 6 -48.5t29 -27.5v-29h-130q-18 47 -18 203q0 70 -28.5 101.5t-90.5 31.5h-223v-336h-111zM428 717h213q137 0 137 129q0 121 -121 121h-229v-250z" />
<glyph unicode="&#xaf;" horiz-adv-x="559" d="M16 1284v117h527v-117h-527z" />
<glyph unicode="&#xb0;" horiz-adv-x="671" d="M90 1141q0 129 70.5 214t179.5 85q102 0 172 -87t70 -212q0 -127 -71 -213t-175.5 -86t-175 86t-70.5 213zM172 1141q0 -84 50 -147.5t113.5 -63.5t114 63.5t50.5 147.5q0 82 -50.5 146.5t-114 64.5t-113.5 -63.5t-50 -147.5z" />
<glyph unicode="&#xb1;" horiz-adv-x="980" d="M113 0v119h755v-119h-755zM113 571v119h319v320h119v-320h317v-119h-317v-317h-119v317h-319z" />
<glyph unicode="&#xb2;" horiz-adv-x="559" d="M6 573q12 236 174 345l103 67q94 61 117.5 97t25.5 112q0 72 -37 110.5t-104 38.5q-74 0 -110 -50t-42 -163h-102q12 332 262 332q111 0 180.5 -77.5t69.5 -202.5q0 -96 -43 -158.5t-158 -132.5l-76 -47q-88 -53 -133 -144h410v-127h-537z" />
<glyph unicode="&#xb3;" horiz-adv-x="559" d="M8 862h115q6 -104 39 -147t108.5 -43t116.5 44t41 124q0 78 -40 111.5t-132 33.5h-39v107h45q139 0 139 133q0 119 -133 118q-68 0 -100.5 -37.5t-38.5 -125.5h-102q12 283 252 282q109 0 174 -62.5t65 -166.5q0 -135 -104 -178q70 -27 100.5 -74t30.5 -129 q0 -135 -76 -217t-201 -82q-115 0 -181.5 70.5t-78.5 238.5z" />
<glyph unicode="&#xb4;" horiz-adv-x="559" d="M223 1196l150 289h182l-219 -289h-113z" />
<glyph unicode="&#xb5;" d="M115 -424v1495h147v-711q0 -233 170 -233q111 0 176.5 96t65.5 258v590h147v-1071h-139v166q-57 -109 -117.5 -153t-156.5 -44q-94 0 -146 74v-467h-147z" />
<glyph unicode="&#xb6;" horiz-adv-x="901" d="M31 1092q0 182 101 280t288 98h416v-1824h-123v1702h-199v-1702h-123v1059q-174 8 -267 113.5t-93 273.5z" />
<glyph unicode="&#xb7;" horiz-adv-x="466" d="M145 512q0 37 26 62.5t62.5 25.5t62.5 -25.5t26 -62.5t-26 -62.5t-62.5 -25.5t-62.5 25.5t-26 62.5z" />
<glyph unicode="&#xb8;" horiz-adv-x="559" d="M76 -426l28 82q59 -31 107 -31q96 0 96 86q0 37 -23.5 64.5t-58.5 27.5q-20 0 -63 -18l-29 39l107 180h96l-66 -123h25q61 0 100 -47t39 -117q0 -84 -54 -136t-142 -52q-72 0 -162 45z" />
<glyph unicode="&#xb9;" horiz-adv-x="559" d="M72 1182v94q109 8 147.5 39t59.5 125h94v-865h-119v607h-182z" />
<glyph unicode="&#xba;" horiz-adv-x="612" d="M41 1167q0 164 69.5 253t200.5 89q123 0 192.5 -90t69.5 -250q0 -162 -69.5 -251t-196.5 -89q-125 0 -195.5 89t-70.5 249zM57 623v98h498v-98h-498zM154 1169q0 -111 39.5 -172t113.5 -61t114 61.5t40 172t-40 172t-112 61.5q-76 0 -115.5 -60.5t-39.5 -173.5z" />
<glyph unicode="&#xbb;" d="M164 221v180l176 166l-176 166v180l262 -251v-189zM508 221v180l176 166l-176 166v180l262 -251v-189z" />
<glyph unicode="&#xbc;" horiz-adv-x="1400" d="M123 1188v88q109 8 147.5 39t59.5 125h90v-865h-115v613h-182zM258 -51l743 1491h97l-744 -1491h-96zM705 193v122l346 549h106v-553h113v-118h-113v-193h-106v193h-346zM809 311h242v389z" />
<glyph unicode="&#xbd;" horiz-adv-x="1400" d="M72 1182v94q109 8 147.5 39t59.5 125h94v-865h-119v607h-182zM199 -51l741 1491h96l-743 -1491h-94zM762 0q6 123 47 204t129 138l100 68q96 66 120 99.5t24 108.5q0 72 -37 111t-105 39q-72 0 -108.5 -51t-42.5 -162h-101q6 332 261 332q113 0 181 -78t68 -203 q0 -94 -43 -155.5t-157 -133.5l-76 -47q-92 -59 -133 -143h409v-127h-536z" />
<glyph unicode="&#xbe;" horiz-adv-x="1400" d="M76 862h114q6 -104 40 -147t110 -43t117 44t41 124q0 78 -40 111.5t-134 33.5h-39v107h45q139 0 139 133q0 119 -131 118q-70 0 -102.5 -37.5t-38.5 -125.5h-103q12 283 252 282q109 0 174.5 -62.5t65.5 -166.5q0 -135 -105 -178q72 -29 102.5 -76t30.5 -129 q0 -133 -75.5 -215t-200.5 -82q-115 0 -180.5 68.5t-81.5 240.5zM356 -51l744 1491h96l-743 -1491h-97zM795 193v122l346 549h106v-553h113v-118h-113v-193h-106v193h-346zM899 311h242v389z" />
<glyph unicode="&#xbf;" d="M109 -18q0 94 30.5 161.5t126.5 178t121 174t25 200.5h147q0 -158 -27.5 -234.5t-130.5 -205.5q-90 -113 -112.5 -158t-22.5 -114q0 -113 54.5 -178.5t150.5 -65.5q221 0 221 321h148q0 -133 -19.5 -203.5t-68.5 -133.5q-109 -141 -287 -142q-158 0 -257 112t-99 288z M399 862v209h164v-209h-164z" />
<glyph unicode="&#xc0;" horiz-adv-x="1120" d="M23 0l452 1470h187l436 -1470h-178l-119 428h-484l-127 -428h-167zM291 1843h192l150 -248h-123zM367 606h374l-180 651z" />
<glyph unicode="&#xc1;" horiz-adv-x="1120" d="M23 0l452 1470h187l436 -1470h-178l-119 428h-484l-127 -428h-167zM367 606h374l-180 651zM508 1595l149 248h193l-219 -248h-123z" />
<glyph unicode="&#xc2;" horiz-adv-x="1120" d="M23 0l452 1470h187l436 -1470h-178l-119 428h-484l-127 -428h-167zM293 1597l196 248h158l197 -248h-135l-142 150l-141 -150h-133zM367 606h374l-180 651z" />
<glyph unicode="&#xc3;" horiz-adv-x="1120" d="M23 0l452 1470h187l436 -1470h-178l-119 428h-484l-127 -428h-167zM285 1602q29 219 174 219q47 0 114 -31l37 -18q53 -27 84 -27q61 0 78 94h84q-31 -223 -170 -223q-31 0 -96 26l-43 19q-70 31 -105 31q-53 0 -77 -90h-80zM367 606h374l-180 651z" />
<glyph unicode="&#xc4;" horiz-adv-x="1120" d="M23 0l452 1470h187l436 -1470h-178l-119 428h-484l-127 -428h-167zM315 1622v197h181v-197h-181zM367 606h374l-180 651zM645 1622v197h180v-197h-180z" />
<glyph unicode="&#xc5;" horiz-adv-x="1120" d="M23 0l452 1470h187l436 -1470h-178l-119 428h-484l-127 -428h-167zM362 1761q0 72 59.5 120t150 48t148.5 -48t58 -124q0 -72 -59.5 -120t-147.5 -48q-90 0 -149.5 48t-59.5 124zM367 606h374l-180 651zM453 1761q0 -41 34.5 -69.5t83.5 -28.5q47 0 82 27.5t35 66.5 q0 41 -35 69.5t-82 28.5t-82.5 -27.5t-35.5 -66.5z" />
<glyph unicode="&#xc6;" horiz-adv-x="1679" d="M14 0l490 1470h1081v-178h-653v-448h596v-178h-596v-488h665v-178h-829v428h-444l-134 -428h-176zM381 606h387v686h-164z" />
<glyph unicode="&#xc7;" horiz-adv-x="1212" d="M74 733q0 356 152.5 566t410.5 210q201 0 333 -127t160 -354h-157q-70 303 -332 303q-186 0 -292.5 -160.5t-106.5 -443.5q0 -279 102 -433.5t287 -154.5q137 0 225 95.5t129 306.5h158q-31 -172 -70 -266.5t-108 -165.5q-115 -121 -281 -144l-45 -84h25q61 0 100 -47 t39 -117q0 -84 -54.5 -136t-142.5 -52q-72 0 -162 45l29 82q59 -31 107 -31q96 0 96 86q0 37 -23.5 64.5t-58.5 27.5q-20 0 -64 -18l-28 39l82 137q-236 16 -373 223t-137 549z" />
<glyph unicode="&#xc8;" horiz-adv-x="1120" d="M145 0v1470h877v-178h-713v-448h658v-178h-658v-488h725v-178h-889zM305 1843h193l149 -248h-123z" />
<glyph unicode="&#xc9;" horiz-adv-x="1120" d="M145 0v1470h877v-178h-713v-448h658v-178h-658v-488h725v-178h-889zM522 1595l150 248h192l-219 -248h-123z" />
<glyph unicode="&#xca;" horiz-adv-x="1120" d="M145 0v1470h877v-178h-713v-448h658v-178h-658v-488h725v-178h-889zM307 1597l197 248h158l196 -248h-135l-141 150l-142 -150h-133z" />
<glyph unicode="&#xcb;" horiz-adv-x="1120" d="M145 0v1470h877v-178h-713v-448h658v-178h-658v-488h725v-178h-889zM330 1622v197h180v-197h-180zM659 1622v197h181v-197h-181z" />
<glyph unicode="&#xcc;" horiz-adv-x="466" d="M-27 1843h193l149 -248h-122zM154 0v1470h161v-1470h-161z" />
<glyph unicode="&#xcd;" horiz-adv-x="466" d="M154 0v1470h161v-1470h-161zM156 1595l149 248h193l-219 -248h-123z" />
<glyph unicode="&#xce;" horiz-adv-x="466" d="M-41 1597l197 248h157l197 -248h-135l-142 150l-141 -150h-133zM154 0v1470h161v-1470h-161z" />
<glyph unicode="&#xcf;" horiz-adv-x="466" d="M-18 1622v197h180v-197h-180zM154 0v1470h161v-1470h-161zM311 1622v197h181v-197h-181z" />
<glyph unicode="&#xd0;" horiz-adv-x="1212" d="M0 666v178h135v626h492q229 0 367.5 -194.5t138.5 -513.5q0 -346 -137.5 -554t-377.5 -208h-483v666h-135zM299 170h317q162 0 255.5 151.5t93.5 413.5q0 272 -93.5 418.5t-267.5 146.5h-305v-456h324v-178h-324v-496z" />
<glyph unicode="&#xd1;" horiz-adv-x="1212" d="M127 0v1470h192l609 -1194v1194h157v-1470h-182l-618 1194v-1194h-158zM322 1602q29 219 174 219q47 0 114 -31l37 -18q53 -27 84 -27q61 0 78 94h84q-31 -223 -170 -223q-31 0 -96 26l-43 19q-70 31 -105 31q-53 0 -78 -90h-79z" />
<glyph unicode="&#xd2;" horiz-adv-x="1306" d="M66 733q0 338 157.5 557t438.5 219q254 0 416.5 -216t162.5 -560q0 -213 -65.5 -385t-201.5 -279.5t-320.5 -107.5t-320.5 107.5t-201.5 279.5t-65.5 385zM233 733q0 -266 116 -430t304.5 -164t304 164t115.5 432q0 266 -114.5 431t-299.5 165q-195 0 -310.5 -162 t-115.5 -436zM383 1843h192l150 -248h-123z" />
<glyph unicode="&#xd3;" horiz-adv-x="1306" d="M66 733q0 338 157.5 557t438.5 219q254 0 416.5 -216t162.5 -560q0 -213 -65.5 -385t-201.5 -279.5t-320.5 -107.5t-320.5 107.5t-201.5 279.5t-65.5 385zM233 733q0 -266 116 -430t304.5 -164t304 164t115.5 432q0 266 -114.5 431t-299.5 165q-195 0 -310.5 -162 t-115.5 -436zM600 1595l150 248h192l-219 -248h-123z" />
<glyph unicode="&#xd4;" horiz-adv-x="1306" d="M66 733q0 338 157.5 557t438.5 219q254 0 416.5 -216t162.5 -560q0 -213 -65.5 -385t-201.5 -279.5t-320.5 -107.5t-320.5 107.5t-201.5 279.5t-65.5 385zM233 733q0 -266 116 -430t304.5 -164t304 164t115.5 432q0 266 -114.5 431t-299.5 165q-195 0 -310.5 -162 t-115.5 -436zM385 1597l197 248h157l197 -248h-135l-142 150l-141 -150h-133z" />
<glyph unicode="&#xd5;" horiz-adv-x="1306" d="M66 733q0 338 157.5 557t438.5 219q254 0 416.5 -216t162.5 -560q0 -213 -65.5 -385t-201.5 -279.5t-320.5 -107.5t-320.5 107.5t-201.5 279.5t-65.5 385zM233 733q0 -266 116 -430t304.5 -164t304 164t115.5 432q0 266 -114.5 431t-299.5 165q-195 0 -310.5 -162 t-115.5 -436zM377 1602q29 219 174 219q47 0 115 -31l36 -18q53 -27 84 -27q61 0 78 94h84q-31 -223 -170 -223q-31 0 -96 26l-43 19q-70 31 -104 31q-53 0 -78 -90h-80z" />
<glyph unicode="&#xd6;" horiz-adv-x="1306" d="M66 733q0 338 157.5 557t438.5 219q254 0 416.5 -216t162.5 -560q0 -213 -65.5 -385t-201.5 -279.5t-320.5 -107.5t-320.5 107.5t-201.5 279.5t-65.5 385zM233 733q0 -266 116 -430t304.5 -164t304 164t115.5 432q0 266 -114.5 431t-299.5 165q-195 0 -310.5 -162 t-115.5 -436zM408 1622v197h180v-197h-180zM737 1622v197h181v-197h-181z" />
<glyph unicode="&#xd7;" horiz-adv-x="980" d="M182 287l226 227l-226 225l84 84l226 -225l225 223l84 -84l-226 -223l226 -225l-84 -84l-225 223l-226 -225z" />
<glyph unicode="&#xd8;" horiz-adv-x="1306" d="M66 737q0 213 65.5 385t201.5 279.5t322 107.5q125 0 218.5 -43t181.5 -139l137 182l51 -61l-139 -186q137 -242 137 -529q0 -328 -156.5 -550t-433.5 -222q-121 0 -213 42t-180 136l-135 -178l-53 57l139 185q-143 245 -143 534zM233 735q0 -211 86 -385l629 834 q-125 147 -293 147q-190 0 -306 -164t-116 -432zM365 283q123 -143 286 -144q190 0 306 164t116 432q0 213 -82 377z" />
<glyph unicode="&#xd9;" horiz-adv-x="1212" d="M133 489v981h164v-925q0 -195 80 -300.5t227 -105.5q150 0 232 104.5t82 297.5v929h163v-954q0 -254 -131 -404.5t-352 -150.5q-213 0 -339 143t-126 385zM330 1843h192l150 -248h-123z" />
<glyph unicode="&#xda;" horiz-adv-x="1212" d="M133 489v981h164v-925q0 -195 80 -300.5t227 -105.5q150 0 232 104.5t82 297.5v929h163v-954q0 -254 -131 -404.5t-352 -150.5q-213 0 -339 143t-126 385zM547 1595l149 248h193l-219 -248h-123z" />
<glyph unicode="&#xdb;" horiz-adv-x="1212" d="M133 489v981h164v-925q0 -195 80 -300.5t227 -105.5q150 0 232 104.5t82 297.5v929h163v-954q0 -254 -131 -404.5t-352 -150.5q-213 0 -339 143t-126 385zM332 1597l196 248h158l197 -248h-135l-142 150l-141 -150h-133z" />
<glyph unicode="&#xdc;" horiz-adv-x="1212" d="M133 489v981h164v-925q0 -195 80 -300.5t227 -105.5q150 0 232 104.5t82 297.5v929h163v-954q0 -254 -131 -404.5t-352 -150.5q-213 0 -339 143t-126 385zM354 1622v197h181v-197h-181zM684 1622v197h180v-197h-180z" />
<glyph unicode="&#xdd;" horiz-adv-x="1120" d="M23 1470h190l346 -706l346 706h191l-455 -878v-592h-164v592zM498 1595l149 248h193l-219 -248h-123z" />
<glyph unicode="&#xde;" horiz-adv-x="1120" d="M145 0v1470h164v-243h377q162 0 260 -115t98 -301q0 -197 -98 -315.5t-260 -118.5h-377v-377h-164zM309 547h322q246 0 246 258q0 252 -240 252h-328v-510z" />
<glyph unicode="&#xdf;" horiz-adv-x="1026" d="M113 0v1090q0 188 104.5 294.5t288.5 106.5q180 0 287.5 -101.5t107.5 -271.5q0 -190 -137 -299q195 -82 194 -362q0 -209 -110.5 -348.5t-310.5 -139.5q-45 0 -84 13l-7 2v153q41 -8 72 -8q287 0 287 309q0 287 -287 287q-37 0 -63 -8v162q20 -4 47 -5q119 0 185.5 59.5 t66.5 168t-68 170t-186 61.5q-127 0 -183.5 -68.5t-56.5 -220.5v-1044h-147z" />
<glyph unicode="&#xe0;" d="M61 283q0 139 70 225t197 106l243 37q78 12 78 123q0 178 -203 178q-207 0 -206 -207h-136q0 356 353 357q158 0 247 -80t89 -219v-617q0 -63 47 -63q10 0 51 8v-131q-59 -20 -86 -20q-76 0 -109.5 37.5t-42.5 125.5q-72 -92 -144.5 -133t-166.5 -41q-127 0 -204 86.5 t-77 227.5zM182 1485h183l149 -289h-113zM215 299q0 -86 41 -133t117 -47q111 0 191.5 74.5t80.5 177.5v176q-23 -20 -68 -32.5t-174 -35.5q-100 -16 -144 -58t-44 -122z" />
<glyph unicode="&#xe1;" d="M61 283q0 139 70 225t197 106l243 37q78 12 78 123q0 178 -203 178q-207 0 -206 -207h-136q0 356 353 357q158 0 247 -80t89 -219v-617q0 -63 47 -63q10 0 51 8v-131q-59 -20 -86 -20q-76 0 -109.5 37.5t-42.5 125.5q-72 -92 -144.5 -133t-166.5 -41q-127 0 -204 86.5 t-77 227.5zM215 299q0 -86 41 -133t117 -47q111 0 191.5 74.5t80.5 177.5v176q-23 -20 -68 -32.5t-174 -35.5q-100 -16 -144 -58t-44 -122zM399 1196l150 289h182l-219 -289h-113z" />
<glyph unicode="&#xe2;" d="M61 283q0 139 70 225t197 106l243 37q78 12 78 123q0 178 -203 178q-207 0 -206 -207h-136q0 356 353 357q158 0 247 -80t89 -219v-617q0 -63 47 -63q10 0 51 8v-131q-59 -20 -86 -20q-76 0 -109.5 37.5t-42.5 125.5q-72 -92 -144.5 -133t-166.5 -41q-127 0 -204 86.5 t-77 227.5zM211 1198l166 289h158l165 -289h-135l-110 191l-111 -191h-133zM215 299q0 -86 41 -133t117 -47q111 0 191.5 74.5t80.5 177.5v176q-23 -20 -68 -32.5t-174 -35.5q-100 -16 -144 -58t-44 -122z" />
<glyph unicode="&#xe3;" d="M61 283q0 139 70 225t197 106l243 37q78 12 78 123q0 178 -203 178q-207 0 -206 -207h-136q0 356 353 357q158 0 247 -80t89 -219v-617q0 -63 47 -63q10 0 51 8v-131q-59 -20 -86 -20q-76 0 -109.5 37.5t-42.5 125.5q-72 -92 -144.5 -133t-166.5 -41q-127 0 -204 86.5 t-77 227.5zM170 1223q29 219 174 219q47 0 115 -31l37 -18q53 -27 84 -27q61 0 77 94h84q-31 -223 -170 -223q-31 0 -96 27l-43 18q-70 31 -104 31q-53 0 -78 -90h-80zM215 299q0 -86 41 -133t117 -47q111 0 191.5 74.5t80.5 177.5v176q-23 -20 -68 -32.5t-174 -35.5 q-100 -16 -144 -58t-44 -122z" />
<glyph unicode="&#xe4;" d="M61 283q0 139 70 225t197 106l243 37q78 12 78 123q0 178 -203 178q-207 0 -206 -207h-136q0 356 353 357q158 0 247 -80t89 -219v-617q0 -63 47 -63q10 0 51 8v-131q-59 -20 -86 -20q-76 0 -109.5 37.5t-42.5 125.5q-72 -92 -144.5 -133t-166.5 -41q-127 0 -204 86.5 t-77 227.5zM201 1243v197h180v-197h-180zM215 299q0 -86 41 -133t117 -47q111 0 191.5 74.5t80.5 177.5v176q-23 -20 -68 -32.5t-174 -35.5q-100 -16 -144 -58t-44 -122zM530 1243v197h181v-197h-181z" />
<glyph unicode="&#xe5;" d="M61 283q0 139 70 225t197 106l243 37q78 12 78 123q0 178 -203 178q-207 0 -206 -207h-136q0 356 353 357q158 0 247 -80t89 -219v-617q0 -63 47 -63q10 0 51 8v-131q-59 -20 -86 -20q-76 0 -109.5 37.5t-42.5 125.5q-72 -92 -144.5 -133t-166.5 -41q-127 0 -204 86.5 t-77 227.5zM215 299q0 -86 41 -133t117 -47q111 0 191.5 74.5t80.5 177.5v176q-23 -20 -68 -32.5t-174 -35.5q-100 -16 -144 -58t-44 -122zM248 1343q0 72 59.5 120t149.5 48t148.5 -48t58.5 -124q0 -72 -59.5 -120t-147.5 -48q-90 0 -149.5 48t-59.5 124zM338 1343 q0 -41 35 -69.5t84 -28.5q47 0 81.5 27.5t34.5 66.5q0 41 -34.5 70t-81.5 29t-83 -28t-36 -67z" />
<glyph unicode="&#xe6;" horiz-adv-x="1492" d="M61 283q0 139 70 225t197 106l243 37q78 12 78 123q0 178 -203 178q-96 0 -143 -46t-63 -161h-136q10 188 98.5 272.5t264.5 84.5q98 0 157.5 -32t127.5 -120q72 86 134 119t154 33q178 0 273.5 -144.5t109.5 -480.5h-643q12 -350 250 -350q88 0 154.5 59.5t79.5 149.5 h147q-27 -168 -127 -267.5t-260 -99.5q-119 0 -195.5 52.5t-134.5 171.5q-70 -119 -151.5 -171.5t-192.5 -52.5q-133 0 -211 85.5t-78 228.5zM215 299q0 -86 41 -133t117 -47q111 0 191.5 74.5t80.5 177.5v176q-20 -20 -65 -32.5t-177 -35.5q-100 -16 -144 -59t-44 -121z M780 621h490q-25 322 -238 321q-106 0 -175 -88t-77 -233z" />
<glyph unicode="&#xe7;" horiz-adv-x="839" d="M51 516q0 268 112.5 427t303.5 159q295 0 334 -391h-144q-18 121 -67 176t-137 55q-115 0 -179.5 -108.5t-64.5 -303t60.5 -299t172.5 -104.5q168 0 215 252h144q-45 -365 -297 -406l-49 -92h24q61 0 100 -47t39 -117q0 -84 -54 -136t-142 -52q-72 0 -162 45l29 82 q59 -31 106 -31q96 0 97 86q0 37 -24 64.5t-58 27.5q-20 0 -64 -18l-29 39l89 147q-164 16 -259.5 162.5t-95.5 382.5z" />
<glyph unicode="&#xe8;" d="M68 516q0 268 112.5 427t302.5 159q178 0 275.5 -146.5t107.5 -478.5h-641q12 -350 250 -350q90 0 155.5 59.5t76.5 149.5h147q-29 -174 -130 -270.5t-253 -96.5q-186 0 -294.5 146.5t-108.5 400.5zM193 1485h182l149 -289h-112zM225 621h488q-23 322 -236 321 q-106 0 -176 -89t-76 -232z" />
<glyph unicode="&#xe9;" d="M68 516q0 268 112.5 427t302.5 159q178 0 275.5 -146.5t107.5 -478.5h-641q12 -350 250 -350q90 0 155.5 59.5t76.5 149.5h147q-29 -174 -130 -270.5t-253 -96.5q-186 0 -294.5 146.5t-108.5 400.5zM225 621h488q-23 322 -236 321q-106 0 -176 -89t-76 -232zM410 1196 l149 289h182l-219 -289h-112z" />
<glyph unicode="&#xea;" d="M68 516q0 268 112.5 427t302.5 159q178 0 275.5 -146.5t107.5 -478.5h-641q12 -350 250 -350q90 0 155.5 59.5t76.5 149.5h147q-29 -174 -130 -270.5t-253 -96.5q-186 0 -294.5 146.5t-108.5 400.5zM221 1198l166 289h158l166 -289h-136l-110 191l-111 -191h-133z M225 621h488q-23 322 -236 321q-106 0 -176 -89t-76 -232z" />
<glyph unicode="&#xeb;" d="M68 516q0 268 112.5 427t302.5 159q178 0 275.5 -146.5t107.5 -478.5h-641q12 -350 250 -350q90 0 155.5 59.5t76.5 149.5h147q-29 -174 -130 -270.5t-253 -96.5q-186 0 -294.5 146.5t-108.5 400.5zM211 1243v197h180v-197h-180zM225 621h488q-23 322 -236 321 q-106 0 -176 -89t-76 -232zM541 1243v197h180v-197h-180z" />
<glyph unicode="&#xec;" horiz-adv-x="466" d="M-25 1485h183l149 -289h-112zM160 0v1071h147v-1071h-147z" />
<glyph unicode="&#xed;" horiz-adv-x="466" d="M160 0v1071h147v-1071h-147zM160 1196l149 289h183l-220 -289h-112z" />
<glyph unicode="&#xee;" horiz-adv-x="466" d="M-12 1198l166 289h157l166 -289h-135l-111 191l-110 -191h-133zM160 0v1071h147v-1071h-147z" />
<glyph unicode="&#xef;" horiz-adv-x="466" d="M-23 1243v197h181v-197h-181zM160 0v1071h147v-1071h-147zM307 1243v197h180v-197h-180z" />
<glyph unicode="&#xf0;" d="M59 518q0 240 111 396.5t279 156.5q72 0 120.5 -26.5t106.5 -96.5q-61 170 -193 305l-207 -127l-71 86l198 117q-70 63 -149 107l125 73q82 -41 151 -104l179 104l79 -82l-180 -104q145 -180 207 -351t62 -378q0 -287 -110 -456t-296 -169q-180 0 -296 153.5t-116 395.5z M213 520q0 -172 69.5 -282.5t184.5 -110.5t185.5 111.5t70.5 281.5q0 172 -71.5 282.5t-180.5 110.5q-115 0 -186.5 -110.5t-71.5 -282.5z" />
<glyph unicode="&#xf1;" d="M109 0v1071h139v-158q106 188 280 189q139 0 218 -98.5t79 -274.5v-729h-147v659q0 147 -43 215t-137 68q-113 0 -177.5 -95t-64.5 -263v-584h-147zM180 1223q29 219 174 219q47 0 115 -31l37 -18q53 -27 84 -27q61 0 78 94h84q-31 -223 -170 -223q-31 0 -97 27l-43 18 q-70 31 -104 31q-53 0 -78 -90h-80z" />
<glyph unicode="&#xf2;" d="M59 537q0 254 114 409.5t300 155.5q176 0 288.5 -159t112.5 -406q0 -250 -113.5 -408t-293.5 -158t-294 158t-114 408zM193 1485h182l149 -289h-112zM213 537q0 -186 69.5 -297t184.5 -111t184.5 110.5t69.5 297.5q0 184 -68.5 295.5t-181.5 111.5q-119 0 -188.5 -109.5 t-69.5 -297.5z" />
<glyph unicode="&#xf3;" d="M59 537q0 254 114 409.5t300 155.5q176 0 288.5 -159t112.5 -406q0 -250 -113.5 -408t-293.5 -158t-294 158t-114 408zM213 537q0 -186 69.5 -297t184.5 -111t184.5 110.5t69.5 297.5q0 184 -68.5 295.5t-181.5 111.5q-119 0 -188.5 -109.5t-69.5 -297.5zM410 1196 l149 289h182l-219 -289h-112z" />
<glyph unicode="&#xf4;" d="M59 537q0 254 114 409.5t300 155.5q176 0 288.5 -159t112.5 -406q0 -250 -113.5 -408t-293.5 -158t-294 158t-114 408zM213 537q0 -186 69.5 -297t184.5 -111t184.5 110.5t69.5 297.5q0 184 -68.5 295.5t-181.5 111.5q-119 0 -188.5 -109.5t-69.5 -297.5zM221 1198 l166 289h158l166 -289h-136l-110 191l-111 -191h-133z" />
<glyph unicode="&#xf5;" d="M59 537q0 254 114 409.5t300 155.5q176 0 288.5 -159t112.5 -406q0 -250 -113.5 -408t-293.5 -158t-294 158t-114 408zM180 1223q29 219 174 219q47 0 115 -31l37 -18q53 -27 84 -27q61 0 78 94h84q-31 -223 -170 -223q-31 0 -97 27l-43 18q-70 31 -104 31q-53 0 -78 -90 h-80zM213 537q0 -186 69.5 -297t184.5 -111t184.5 110.5t69.5 297.5q0 184 -68.5 295.5t-181.5 111.5q-119 0 -188.5 -109.5t-69.5 -297.5z" />
<glyph unicode="&#xf6;" d="M59 537q0 254 114 409.5t300 155.5q176 0 288.5 -159t112.5 -406q0 -250 -113.5 -408t-293.5 -158t-294 158t-114 408zM211 1243v197h180v-197h-180zM213 537q0 -186 69.5 -297t184.5 -111t184.5 110.5t69.5 297.5q0 184 -68.5 295.5t-181.5 111.5q-119 0 -188.5 -109.5 t-69.5 -297.5zM541 1243v197h180v-197h-180z" />
<glyph unicode="&#xf7;" horiz-adv-x="980" d="M113 453v118h755v-118h-755zM403 145q0 35 26 61.5t63 26.5q35 0 61.5 -26.5t26.5 -61.5q0 -37 -27 -62.5t-61 -25.5q-37 0 -63 25.5t-26 62.5zM403 881q0 35 26 61.5t63 26.5q35 0 61.5 -27t26.5 -61q0 -37 -27 -62.5t-61 -25.5q-37 0 -63 25.5t-26 62.5z" />
<glyph unicode="&#xf8;" d="M47 8l107 148q-94 174 -95 381q0 252 114 408.5t296 156.5q156 0 272 -133l109 147l51 -53l-117 -160q90 -168 90 -368q0 -250 -113.5 -407t-295.5 -157q-150 0 -264 123l-103 -139zM213 537q0 -127 41 -244l395 547q-72 104 -182 104q-115 0 -184.5 -110.5t-69.5 -296.5 zM293 221q68 -92 172 -92q117 0 186.5 110.5t69.5 297.5q0 119 -37 227z" />
<glyph unicode="&#xf9;" d="M115 301v770h147v-711q0 -233 170 -233q111 0 176.5 96t65.5 258v590h147v-1071h-139v166q-59 -111 -119.5 -154t-159.5 -43q-135 0 -211.5 88t-76.5 244zM193 1485h182l149 -289h-112z" />
<glyph unicode="&#xfa;" d="M115 301v770h147v-711q0 -233 170 -233q111 0 176.5 96t65.5 258v590h147v-1071h-139v166q-59 -111 -119.5 -154t-159.5 -43q-135 0 -211.5 88t-76.5 244zM410 1196l149 289h182l-219 -289h-112z" />
<glyph unicode="&#xfb;" d="M115 301v770h147v-711q0 -233 170 -233q111 0 176.5 96t65.5 258v590h147v-1071h-139v166q-59 -111 -119.5 -154t-159.5 -43q-135 0 -211.5 88t-76.5 244zM221 1198l166 289h158l166 -289h-136l-110 191l-111 -191h-133z" />
<glyph unicode="&#xfc;" d="M115 301v770h147v-711q0 -233 170 -233q111 0 176.5 96t65.5 258v590h147v-1071h-139v166q-59 -111 -119.5 -154t-159.5 -43q-135 0 -211.5 88t-76.5 244zM211 1243v197h180v-197h-180zM541 1243v197h180v-197h-180z" />
<glyph unicode="&#xfd;" horiz-adv-x="839" d="M18 1071h166l236 -878l237 878h164l-317 -1051q-53 -172 -82 -251.5t-68 -133t-75.5 -63.5t-108.5 -10q-27 0 -59 12l-13 4v164q43 -18 90.5 -18t69 26.5t49.5 110.5l37 110zM362 1196l150 289h182l-219 -289h-113z" />
<glyph unicode="&#xfe;" d="M98 -424v1894h148v-552q53 100 111.5 142t146.5 42q164 0 264 -148.5t100 -392.5q0 -268 -104.5 -430t-278.5 -162q-154 0 -239 150v-543h-148zM240 500q0 -174 64.5 -273.5t174.5 -99.5q113 0 174.5 112.5t61.5 315.5q0 188 -59.5 287.5t-174.5 99.5q-241 0 -241 -442z " />
<glyph unicode="&#xff;" horiz-adv-x="839" d="M18 1071h166l236 -878l237 878h164l-317 -1051q-53 -172 -82 -251.5t-68 -133t-75.5 -63.5t-108.5 -10q-27 0 -59 12l-13 4v164q43 -18 90.5 -18t69 26.5t49.5 110.5l37 110zM164 1243v197h180v-197h-180zM494 1243v197h180v-197h-180z" />
<glyph unicode="&#x100;" horiz-adv-x="1120" d="M23 0l452 1470h187l436 -1470h-178l-119 428h-484l-127 -428h-167zM307 1663v117h527v-117h-527zM367 606h374l-180 651z" />
<glyph unicode="&#x101;" d="M61 283q0 139 70 225t197 106l243 37q78 12 78 123q0 178 -203 178q-207 0 -206 -207h-136q0 356 353 357q158 0 247 -80t89 -219v-617q0 -63 47 -63q10 0 51 8v-131q-59 -20 -86 -20q-76 0 -109.5 37.5t-42.5 125.5q-72 -92 -144.5 -133t-166.5 -41q-127 0 -204 86.5 t-77 227.5zM193 1284v117h526v-117h-526zM215 299q0 -86 41 -133t117 -47q111 0 191.5 74.5t80.5 177.5v176q-23 -20 -68 -32.5t-174 -35.5q-100 -16 -144 -58t-44 -122z" />
<glyph unicode="&#x102;" horiz-adv-x="1120" d="M23 0l452 1470h187l436 -1470h-178l-119 428h-484l-127 -428h-167zM291 1839h82l4 -14q82 -106 196 -107q72 0 111 29t64 92h100q-35 -119 -102.5 -178t-182.5 -59q-209 -1 -272 237zM367 606h374l-180 651z" />
<glyph unicode="&#x103;" d="M61 283q0 139 70 225t197 106l243 37q78 12 78 123q0 178 -203 178q-207 0 -206 -207h-136q0 356 353 357q158 0 247 -80t89 -219v-617q0 -63 47 -63q10 0 51 8v-131q-59 -20 -86 -20q-76 0 -109.5 37.5t-42.5 125.5q-72 -92 -144.5 -133t-166.5 -41q-127 0 -204 86.5 t-77 227.5zM199 1481h82l4 -15q39 -147 176 -147q76 0 113.5 36t60.5 126h80q-18 -145 -82 -212t-182 -67q-115 0 -176.5 68t-75.5 211zM215 299q0 -86 41 -133t117 -47q111 0 191.5 74.5t80.5 177.5v176q-23 -20 -68 -32.5t-174 -35.5q-100 -16 -144 -58t-44 -122z" />
<glyph unicode="&#x104;" horiz-adv-x="1120" d="M23 0l452 1470h187l436 -1470q-100 -20 -144 -115q-25 -57 -24 -121q0 -49 24.5 -67.5t79.5 -18.5h64v-149h-64q-102 0 -177 55.5t-75 143.5q0 80 33 137t111 135l-125 428h-484l-127 -428h-167zM367 606h374l-180 651z" />
<glyph unicode="&#x105;" d="M61 283q0 139 70 225t197 106l243 37q78 12 78 123q0 178 -203 178q-207 0 -206 -207h-136q0 356 353 357q158 0 247 -80t89 -219v-617q0 -63 47 -63q10 0 51 8v-131q-100 -20 -143 -115q-25 -57 -25 -121q0 -49 24.5 -67.5t79.5 -18.5h64v-149h-64q-102 0 -177 55.5 t-75 143.5q0 80 33 137t111 135q-55 31 -66 143q-72 -92 -144.5 -133t-166.5 -41q-127 0 -204 86.5t-77 227.5zM215 299q0 -86 41 -133t117 -47q111 0 191.5 74.5t80.5 177.5v176q-23 -20 -68 -32.5t-174 -35.5q-100 -16 -144 -58t-44 -122z" />
<glyph unicode="&#x106;" horiz-adv-x="1212" d="M74 733q0 356 152.5 566t410.5 210q201 0 333 -127t160 -354h-157q-70 303 -332 303q-186 0 -292.5 -160.5t-106.5 -443.5q0 -279 102 -433.5t287 -154.5q137 0 225 95.5t129 306.5h158q-31 -172 -70 -266.5t-108 -165.5q-141 -147 -349 -148q-250 0 -396 209t-146 563z M575 1595l150 248h193l-220 -248h-123z" />
<glyph unicode="&#x107;" horiz-adv-x="839" d="M51 516q0 268 112.5 427t303.5 159q295 0 334 -391h-144q-18 121 -67 176t-137 55q-115 0 -179.5 -108.5t-64.5 -303t60.5 -299t172.5 -104.5q168 0 215 252h144q-53 -410 -357 -410q-180 0 -286.5 148.5t-106.5 398.5zM362 1196l150 289h182l-219 -289h-113z" />
<glyph unicode="&#x108;" horiz-adv-x="1212" d="M74 733q0 356 152.5 566t410.5 210q201 0 333 -127t160 -354h-157q-70 303 -332 303q-186 0 -292.5 -160.5t-106.5 -443.5q0 -279 102 -433.5t287 -154.5q137 0 225 95.5t129 306.5h158q-31 -172 -70 -266.5t-108 -165.5q-141 -147 -349 -148q-250 0 -396 209t-146 563z M360 1597l197 248h158l196 -248h-135l-141 150l-141 -150h-134z" />
<glyph unicode="&#x109;" horiz-adv-x="839" d="M51 516q0 268 112.5 427t303.5 159q295 0 334 -391h-144q-18 121 -67 176t-137 55q-115 0 -179.5 -108.5t-64.5 -303t60.5 -299t172.5 -104.5q168 0 215 252h144q-53 -410 -357 -410q-180 0 -286.5 148.5t-106.5 398.5zM174 1198l166 289h158l166 -289h-136l-110 191 l-111 -191h-133z" />
<glyph unicode="&#x10a;" horiz-adv-x="1212" d="M74 733q0 356 152.5 566t410.5 210q201 0 333 -127t160 -354h-157q-70 303 -332 303q-186 0 -292.5 -160.5t-106.5 -443.5q0 -279 102 -433.5t287 -154.5q137 0 225 95.5t129 306.5h158q-31 -172 -70 -266.5t-108 -165.5q-141 -147 -349 -148q-250 0 -396 209t-146 563z M551 1622v197h176v-197h-176z" />
<glyph unicode="&#x10b;" horiz-adv-x="839" d="M51 516q0 268 112.5 427t303.5 159q295 0 334 -391h-144q-18 121 -67 176t-137 55q-115 0 -179.5 -108.5t-64.5 -303t60.5 -299t172.5 -104.5q168 0 215 252h144q-53 -410 -357 -410q-180 0 -286.5 148.5t-106.5 398.5zM332 1243v197h176v-197h-176z" />
<glyph unicode="&#x10c;" horiz-adv-x="1212" d="M74 733q0 356 152.5 566t410.5 210q201 0 333 -127t160 -354h-157q-70 303 -332 303q-186 0 -292.5 -160.5t-106.5 -443.5q0 -279 102 -433.5t287 -154.5q137 0 225 95.5t129 306.5h158q-31 -172 -70 -266.5t-108 -165.5q-141 -147 -349 -148q-250 0 -396 209t-146 563z M362 1845h136l141 -149l141 149h133l-196 -248h-158z" />
<glyph unicode="&#x10d;" horiz-adv-x="839" d="M51 516q0 268 112.5 427t303.5 159q295 0 334 -391h-144q-18 121 -67 176t-137 55q-115 0 -179.5 -108.5t-64.5 -303t60.5 -299t172.5 -104.5q168 0 215 252h144q-53 -410 -357 -410q-180 0 -286.5 148.5t-106.5 398.5zM174 1487h135l111 -191l110 191h134l-166 -289 h-158z" />
<glyph unicode="&#x10e;" horiz-adv-x="1212" d="M135 0v1470h490q231 0 369.5 -195.5t138.5 -523t-134.5 -539.5t-380.5 -212h-483zM299 170h315q162 0 256.5 151.5t94.5 413.5q0 272 -93.5 418.5t-267.5 146.5h-305v-1130zM330 1845h135l141 -149l142 149h133l-197 -248h-158z" />
<glyph unicode="&#x10f;" d="M59 561q0 244 100.5 392.5t262.5 148.5q90 0 153.5 -45t114.5 -148v561h148v-1470h-140v154q-47 -100 -105 -142.5t-149 -42.5q-174 0 -279.5 162t-105.5 430zM213 551q0 -201 61.5 -312.5t171.5 -111.5q113 0 177.5 100.5t64.5 280.5q0 211 -60.5 322.5t-174.5 111.5 q-240 0 -240 -391zM950 1272v198h170v-190q0 -264 -168 -264v74q92 0 92 161v21h-94z" />
<glyph unicode="&#x110;" horiz-adv-x="1212" d="M0 666v178h135v626h492q229 0 367.5 -194.5t138.5 -513.5q0 -346 -137.5 -554t-377.5 -208h-483v666h-135zM299 170h317q162 0 255.5 151.5t93.5 413.5q0 272 -93.5 418.5t-267.5 146.5h-305v-456h324v-178h-324v-496z" />
<glyph unicode="&#x111;" horiz-adv-x="985" d="M59 561q0 244 100.5 392.5t262.5 148.5q90 0 153.5 -45t114.5 -148v303h-231v117h231v141h148v-141h147v-117h-147v-1212h-140v154q-47 -100 -105 -142.5t-149 -42.5q-174 0 -279.5 162t-105.5 430zM213 551q0 -201 61.5 -312.5t171.5 -111.5q113 0 177.5 100.5 t64.5 280.5q0 211 -60.5 322.5t-174.5 111.5q-240 0 -240 -391z" />
<glyph unicode="&#x112;" horiz-adv-x="1120" d="M145 0v1470h877v-178h-713v-448h658v-178h-658v-488h725v-178h-889zM322 1663v117h526v-117h-526z" />
<glyph unicode="&#x113;" d="M68 516q0 268 112.5 427t302.5 159q178 0 275.5 -146.5t107.5 -478.5h-641q12 -350 250 -350q90 0 155.5 59.5t76.5 149.5h147q-29 -174 -130 -270.5t-253 -96.5q-186 0 -294.5 146.5t-108.5 400.5zM203 1284v117h526v-117h-526zM225 621h488q-23 322 -236 321 q-106 0 -176 -89t-76 -232z" />
<glyph unicode="&#x114;" horiz-adv-x="1120" d="M145 0v1470h877v-178h-713v-448h658v-178h-658v-488h725v-178h-889zM305 1839h82l4 -14q82 -106 197 -107q72 0 110.5 29t63.5 92h100q-35 -119 -102.5 -178t-181.5 -59q-210 -1 -273 237z" />
<glyph unicode="&#x115;" d="M68 516q0 268 112.5 427t302.5 159q178 0 275.5 -146.5t107.5 -478.5h-641q12 -350 250 -350q90 0 155.5 59.5t76.5 149.5h147q-29 -174 -130 -270.5t-253 -96.5q-186 0 -294.5 146.5t-108.5 400.5zM209 1481h82l4 -15q39 -147 176 -147q76 0 114 36t60 126h80 q-18 -145 -81.5 -212t-182.5 -67q-115 0 -176.5 68t-75.5 211zM225 621h488q-23 322 -236 321q-106 0 -176 -89t-76 -232z" />
<glyph unicode="&#x116;" horiz-adv-x="1120" d="M145 0v1470h877v-178h-713v-448h658v-178h-658v-488h725v-178h-889zM498 1622v197h176v-197h-176z" />
<glyph unicode="&#x117;" d="M68 516q0 268 112.5 427t302.5 159q178 0 275.5 -146.5t107.5 -478.5h-641q12 -350 250 -350q90 0 155.5 59.5t76.5 149.5h147q-29 -174 -130 -270.5t-253 -96.5q-186 0 -294.5 146.5t-108.5 400.5zM225 621h488q-23 322 -236 321q-106 0 -176 -89t-76 -232zM379 1243 v197h176v-197h-176z" />
<glyph unicode="&#x118;" horiz-adv-x="1120" d="M145 0v1470h877v-178h-713v-448h658v-178h-658v-488h725v-178q-100 -20 -143 -115q-25 -57 -25 -121q0 -49 24.5 -67.5t80.5 -18.5h63v-149h-63q-102 0 -177 55.5t-75 143.5q0 80 32.5 137t110.5 135h-717z" />
<glyph unicode="&#x119;" d="M68 516q0 268 112.5 427t302.5 159q178 0 275.5 -146.5t107.5 -478.5h-641q12 -350 250 -350q90 0 155.5 59.5t76.5 149.5h147q-33 -209 -172 -305q-156 -106 -156 -267q0 -49 24.5 -67.5t80.5 -18.5h63v-149h-63q-102 0 -177 55.5t-75 143.5q0 72 26.5 126t88.5 115h-23 q-186 0 -294.5 146.5t-108.5 400.5zM225 621h488q-23 322 -236 321q-106 0 -176 -89t-76 -232z" />
<glyph unicode="&#x11a;" horiz-adv-x="1120" d="M145 0v1470h877v-178h-713v-448h658v-178h-658v-488h725v-178h-889zM309 1845h135l142 -149l141 149h133l-196 -248h-158z" />
<glyph unicode="&#x11b;" d="M68 516q0 268 112.5 427t302.5 159q178 0 275.5 -146.5t107.5 -478.5h-641q12 -350 250 -350q90 0 155.5 59.5t76.5 149.5h147q-29 -174 -130 -270.5t-253 -96.5q-186 0 -294.5 146.5t-108.5 400.5zM221 1487h135l111 -191l111 191h133l-166 -289h-158zM225 621h488 q-23 322 -236 321q-106 0 -176 -89t-76 -232z" />
<glyph unicode="&#x11c;" horiz-adv-x="1306" d="M80 717q0 354 157.5 573t411.5 219q201 0 340 -129t172 -356h-157q-74 307 -353 307q-186 0 -294.5 -163.5t-108.5 -444.5q0 -289 104.5 -440.5t302.5 -151.5q166 0 269.5 121t103.5 364h-375v170h529v-786h-107l-37 190q-158 -229 -407 -229q-254 0 -402.5 219.5 t-148.5 536.5zM373 1597l196 248h158l197 -248h-136l-141 150l-141 -150h-133z" />
<glyph unicode="&#x11d;" d="M68 561q0 244 100 392.5t262 148.5q88 0 148.5 -42t119.5 -147v158h140v-983q0 -281 -100.5 -410t-305.5 -129q-145 0 -227 74t-111 246h148q20 -90 66 -130t130 -40q133 0 192.5 83t59.5 294v43q-82 -150 -239 -150q-174 0 -278.5 162t-104.5 430zM221 551 q0 -201 61.5 -312.5t172.5 -111.5q113 0 177 101.5t64 277.5q0 211 -60.5 323.5t-174.5 112.5q-240 0 -240 -391zM221 1198l166 289h158l166 -289h-136l-110 191l-111 -191h-133z" />
<glyph unicode="&#x11e;" horiz-adv-x="1306" d="M80 717q0 354 157.5 573t411.5 219q201 0 340 -129t172 -356h-157q-74 307 -353 307q-186 0 -294.5 -163.5t-108.5 -444.5q0 -289 104.5 -440.5t302.5 -151.5q166 0 269.5 121t103.5 364h-375v170h529v-786h-107l-37 190q-158 -229 -407 -229q-254 0 -402.5 219.5 t-148.5 536.5zM371 1839h82l4 -14q82 -106 196 -107q72 0 111 29t63 92h101q-35 -119 -102.5 -178t-182.5 -59q-209 -1 -272 237z" />
<glyph unicode="&#x11f;" d="M68 561q0 244 100 392.5t262 148.5q88 0 148.5 -42t119.5 -147v158h140v-983q0 -281 -100.5 -410t-305.5 -129q-145 0 -227 74t-111 246h148q20 -90 66 -130t130 -40q133 0 192.5 83t59.5 294v43q-82 -150 -239 -150q-174 0 -278.5 162t-104.5 430zM209 1481h82l4 -15 q39 -147 176 -147q76 0 114 36t60 126h80q-18 -145 -81.5 -212t-182.5 -67q-115 0 -176.5 68t-75.5 211zM221 551q0 -201 61.5 -312.5t172.5 -111.5q113 0 177 101.5t64 277.5q0 211 -60.5 323.5t-174.5 112.5q-240 0 -240 -391z" />
<glyph unicode="&#x120;" horiz-adv-x="1306" d="M80 717q0 354 157.5 573t411.5 219q201 0 340 -129t172 -356h-157q-74 307 -353 307q-186 0 -294.5 -163.5t-108.5 -444.5q0 -289 104.5 -440.5t302.5 -151.5q166 0 269.5 121t103.5 364h-375v170h529v-786h-107l-37 190q-158 -229 -407 -229q-254 0 -402.5 219.5 t-148.5 536.5zM563 1622v197h176v-197h-176z" />
<glyph unicode="&#x121;" d="M68 561q0 244 100 392.5t262 148.5q88 0 148.5 -42t119.5 -147v158h140v-983q0 -281 -100.5 -410t-305.5 -129q-145 0 -227 74t-111 246h148q20 -90 66 -130t130 -40q133 0 192.5 83t59.5 294v43q-82 -150 -239 -150q-174 0 -278.5 162t-104.5 430zM221 551 q0 -201 61.5 -312.5t172.5 -111.5q113 0 177 101.5t64 277.5q0 211 -60.5 323.5t-174.5 112.5q-240 0 -240 -391zM379 1243v197h176v-197h-176z" />
<glyph unicode="&#x122;" horiz-adv-x="1306" d="M80 717q0 354 157.5 573t411.5 219q201 0 340 -129t172 -356h-157q-74 307 -353 307q-186 0 -294.5 -163.5t-108.5 -444.5q0 -289 104.5 -440.5t302.5 -151.5q166 0 269.5 121t103.5 364h-375v170h529v-786h-107l-37 190q-158 -229 -407 -229q-254 0 -402.5 219.5 t-148.5 536.5zM563 -123h170v-190q0 -264 -168 -265v74q92 0 92 162v20h-94v199z" />
<glyph unicode="&#x123;" d="M68 561q0 244 100 392.5t262 148.5q88 0 148.5 -42t119.5 -147v158h140v-983q0 -281 -100.5 -410t-305.5 -129q-145 0 -227 74t-111 246h148q20 -90 66 -130t130 -40q133 0 192.5 83t59.5 294v43q-82 -150 -239 -150q-174 0 -278.5 162t-104.5 430zM221 551 q0 -201 61.5 -312.5t172.5 -111.5q113 0 177 101.5t64 277.5q0 211 -60.5 323.5t-174.5 112.5q-240 0 -240 -391zM383 1171v191q0 264 168 264v-74q-92 0 -92 -161v-21h94v-199h-170z" />
<glyph unicode="&#x124;" horiz-adv-x="1212" d="M129 0v1470h164v-608h629v608h163v-1470h-163v684h-629v-684h-164zM332 1597l196 248h158l197 -248h-135l-142 150l-141 -150h-133z" />
<glyph unicode="&#x125;" d="M109 0v1470h147v-546q63 100 123.5 139t148.5 39q139 0 218 -98.5t79 -274.5v-729h-147v700q0 127 -41 184.5t-131 57.5q-119 0 -184.5 -94t-65.5 -264v-584h-147zM190 1597l197 248h158l196 -248h-135l-141 150l-141 -150h-134z" />
<glyph unicode="&#x126;" horiz-adv-x="1212" d="M47 1130v93h82v247h164v-247h629v247h163v-247h82v-93h-82v-1130h-163v684h-629v-684h-164v1130h-82zM293 862h629v268h-629v-268z" />
<glyph unicode="&#x127;" horiz-adv-x="1015" d="M113 1020v102l73 35v313h148v-245l211 98v-104l-211 -97v-198q63 100 123.5 139t148.5 39q139 0 218 -98.5t79 -274.5v-729h-147v700q0 127 -41 184.5t-131 57.5q-119 0 -184.5 -94t-65.5 -264v-584h-148v1055z" />
<glyph unicode="&#x128;" horiz-adv-x="466" d="M-49 1602q29 219 174 219q47 0 115 -31l36 -18q53 -27 84 -27q61 0 78 94h84q-31 -223 -170 -223q-31 0 -96 26l-43 19q-70 31 -104 31q-53 0 -78 -90h-80zM154 0v1470h161v-1470h-161z" />
<glyph unicode="&#x129;" horiz-adv-x="466" d="M-53 1223q29 219 174 219q47 0 115 -31l36 -18q53 -27 84 -27q61 0 78 94h84q-31 -223 -170 -223q-31 0 -96 27l-43 18q-70 31 -105 31q-53 0 -77 -90h-80zM160 0v1071h147v-1071h-147z" />
<glyph unicode="&#x12a;" horiz-adv-x="466" d="M-27 1663v117h527v-117h-527zM154 0v1470h161v-1470h-161z" />
<glyph unicode="&#x12b;" horiz-adv-x="466" d="M-31 1284v117h527v-117h-527zM160 0v1071h147v-1071h-147z" />
<glyph unicode="&#x12c;" horiz-adv-x="466" d="M-43 1839h82l4 -14q82 -106 197 -107q72 0 110.5 29t63.5 92h100q-35 -119 -102.5 -178t-182.5 -59q-209 -1 -272 237zM154 0v1470h161v-1470h-161z" />
<glyph unicode="&#x12d;" horiz-adv-x="466" d="M-25 1481h82l4 -15q39 -147 177 -147q76 0 113.5 36t60.5 126h80q-18 -145 -82 -212t-183 -67q-115 0 -176.5 68t-75.5 211zM160 0v1071h147v-1071h-147z" />
<glyph unicode="&#x12e;" horiz-adv-x="466" d="M41 -272q0 80 32.5 137t110.5 135h-30v1470h161v-1470q-66 -39 -102 -115q-25 -57 -25 -121q0 -49 25 -67.5t80 -18.5h63v-149h-63q-102 0 -177 55.5t-75 143.5z" />
<glyph unicode="&#x12f;" horiz-adv-x="466" d="M53 -272q0 80 33 137t111 135h-37v1071h147v-1071q-49 -47 -82 -115q-25 -57 -24 -121q0 -49 24.5 -67.5t79.5 -18.5h64v-149h-64q-102 0 -177 55.5t-75 143.5zM145 1243v197h177v-197h-177z" />
<glyph unicode="&#x130;" horiz-adv-x="466" d="M150 1622v197h176v-197h-176zM154 0v1470h161v-1470h-161z" />
<glyph unicode="&#x131;" horiz-adv-x="372" d="M113 0v1071h147v-1071h-147z" />
<glyph unicode="&#x134;" horiz-adv-x="839" d="M29 328v145h153v-102q0 -123 45 -181.5t140 -58.5q188 0 188 254v1085h164v-1073q0 -209 -91 -322.5t-259 -113.5q-156 0 -248 99.5t-92 267.5zM360 1597l197 248h158l196 -248h-135l-141 150l-141 -150h-134z" />
<glyph unicode="&#x135;" horiz-adv-x="372" d="M-59 1198l165 289h158l166 -289h-135l-111 191l-110 -191h-133zM-27 -268h31q70 0 89.5 23.5t19.5 107.5v1208h147v-1229q0 -139 -53 -205.5t-166 -66.5q-31 0 -68 6v156z" />
<glyph unicode="&#x136;" horiz-adv-x="1120" d="M127 0v1470h164v-712l586 712h225l-504 -593l516 -877h-211l-422 737l-190 -221v-516h-164zM455 -123h170v-190q0 -264 -168 -265v74q92 0 92 162v20h-94v199z" />
<glyph unicode="&#x137;" horiz-adv-x="839" d="M109 0v1470h147v-852l379 453h186l-336 -399l357 -672h-191l-272 541l-123 -135v-406h-147zM334 -123h170v-190q0 -264 -168 -265v74q92 0 92 162v20h-94v199z" />
<glyph unicode="&#x139;" d="M127 0v1470h164v-1292h610v-178h-774zM129 1595l150 248h192l-219 -248h-123z" />
<glyph unicode="&#x13a;" horiz-adv-x="372" d="M113 0v1470h147v-1470h-147zM115 1595l149 248h193l-219 -248h-123z" />
<glyph unicode="&#x13b;" d="M127 0v1470h164v-1292h610v-178h-774zM428 -123h170v-190q0 -264 -168 -265v74q92 0 92 162v20h-94v199z" />
<glyph unicode="&#x13c;" horiz-adv-x="372" d="M100 -123h170v-190q0 -264 -168 -265v74q92 0 93 162v20h-95v199zM113 0v1470h147v-1470h-147z" />
<glyph unicode="&#x13d;" d="M127 0v1470h164v-1292h610v-178h-774zM403 1272v198h170v-190q0 -264 -167 -264v74q92 0 92 161v21h-95z" />
<glyph unicode="&#x13e;" horiz-adv-x="372" d="M113 0v1470h147v-1470h-147zM373 1272v198h170v-190q0 -264 -168 -264v74q92 0 92 161v21h-94z" />
<glyph unicode="&#x13f;" d="M127 0v1470h164v-1292h610v-178h-774zM588 676v196h176v-196h-176z" />
<glyph unicode="&#x140;" horiz-adv-x="548" d="M113 0v1470h147v-1470h-147zM373 676v196h176v-196h-176z" />
<glyph unicode="&#x141;" horiz-adv-x="1130" d="M145 375v182l117 133v780h164v-614l307 352v-180l-307 -352v-498h610v-178h-774v508z" />
<glyph unicode="&#x142;" horiz-adv-x="643" d="M109 662v161l139 131v516h147v-399l140 131v-164l-140 -129v-909h-147v793z" />
<glyph unicode="&#x143;" horiz-adv-x="1212" d="M127 0v1470h192l609 -1194v1194h157v-1470h-182l-618 1194v-1194h-158zM545 1595l149 248h193l-219 -248h-123z" />
<glyph unicode="&#x144;" d="M109 0v1071h139v-158q106 188 280 189q139 0 218 -98.5t79 -274.5v-729h-147v659q0 147 -43 215t-137 68q-113 0 -177.5 -95t-64.5 -263v-584h-147zM410 1196l149 289h182l-219 -289h-112z" />
<glyph unicode="&#x145;" horiz-adv-x="1212" d="M127 0v1470h192l609 -1194v1194h157v-1470h-182l-618 1194v-1194h-158zM520 -123h170v-190q0 -264 -168 -265v74q92 0 92 162v20h-94v199z" />
<glyph unicode="&#x146;" d="M109 0v1071h139v-158q106 188 280 189q139 0 218 -98.5t79 -274.5v-729h-147v659q0 147 -43 215t-137 68q-113 0 -177.5 -95t-64.5 -263v-584h-147zM381 -123h170v-190q0 -264 -168 -265v74q92 0 92 162v20h-94v199z" />
<glyph unicode="&#x147;" horiz-adv-x="1212" d="M127 0v1470h192l609 -1194v1194h157v-1470h-182l-618 1194v-1194h-158zM332 1845h135l141 -149l142 149h133l-197 -248h-158z" />
<glyph unicode="&#x148;" d="M109 0v1071h139v-158q106 188 280 189q139 0 218 -98.5t79 -274.5v-729h-147v659q0 147 -43 215t-137 68q-113 0 -177.5 -95t-64.5 -263v-584h-147zM221 1487h135l111 -191l111 191h133l-166 -289h-158z" />
<glyph unicode="&#x14a;" horiz-adv-x="1212" d="M127 0v1470h192l609 -1194v1194h157v-1546q0 -209 -91 -322.5t-259 -113.5q-156 0 -248 99.5t-92 267.5l154 43q0 -123 45 -181.5t139 -58.5q92 0 143.5 87t51.5 208l-643 1241v-1194h-158z" />
<glyph unicode="&#x14b;" d="M109 0v1071h139v-158q106 188 280 189q139 0 218 -98.5t79 -274.5v-887q0 -139 -53 -205.5t-166 -66.5q-31 0 -67 6v156h30q70 0 89.5 23.5t19.5 107.5v796q0 147 -43 215t-137 68q-113 0 -177.5 -95t-64.5 -263v-584h-147z" />
<glyph unicode="&#x14c;" horiz-adv-x="1306" d="M66 733q0 338 157.5 557t438.5 219q254 0 416.5 -216t162.5 -560q0 -213 -65.5 -385t-201.5 -279.5t-320.5 -107.5t-320.5 107.5t-201.5 279.5t-65.5 385zM233 733q0 -266 116 -430t304.5 -164t304 164t115.5 432q0 266 -114.5 431t-299.5 165q-195 0 -310.5 -162 t-115.5 -436zM399 1663v117h527v-117h-527z" />
<glyph unicode="&#x14d;" d="M59 537q0 254 114 409.5t300 155.5q176 0 288.5 -159t112.5 -406q0 -250 -113.5 -408t-293.5 -158t-294 158t-114 408zM203 1284v117h526v-117h-526zM213 537q0 -186 69.5 -297t184.5 -111t184.5 110.5t69.5 297.5q0 184 -68.5 295.5t-181.5 111.5q-119 0 -188.5 -109.5 t-69.5 -297.5z" />
<glyph unicode="&#x14e;" horiz-adv-x="1306" d="M66 733q0 338 157.5 557t438.5 219q254 0 416.5 -216t162.5 -560q0 -213 -65.5 -385t-201.5 -279.5t-320.5 -107.5t-320.5 107.5t-201.5 279.5t-65.5 385zM233 733q0 -266 116 -430t304.5 -164t304 164t115.5 432q0 266 -114.5 431t-299.5 165q-195 0 -310.5 -162 t-115.5 -436zM383 1839h82l4 -14q82 -106 197 -107q72 0 110.5 29t63.5 92h100q-35 -119 -102.5 -178t-182.5 -59q-209 -1 -272 237z" />
<glyph unicode="&#x14f;" d="M59 537q0 254 114 409.5t300 155.5q176 0 288.5 -159t112.5 -406q0 -250 -113.5 -408t-293.5 -158t-294 158t-114 408zM209 1481h82l4 -15q39 -147 176 -147q76 0 114 36t60 126h80q-18 -145 -81.5 -212t-182.5 -67q-115 0 -176.5 68t-75.5 211zM213 537 q0 -186 69.5 -297t184.5 -111t184.5 110.5t69.5 297.5q0 184 -68.5 295.5t-181.5 111.5q-119 0 -188.5 -109.5t-69.5 -297.5z" />
<glyph unicode="&#x150;" horiz-adv-x="1306" d="M66 733q0 338 157.5 557t438.5 219q254 0 416.5 -216t162.5 -560q0 -213 -65.5 -385t-201.5 -279.5t-320.5 -107.5t-320.5 107.5t-201.5 279.5t-65.5 385zM233 733q0 -266 116 -430t304.5 -164t304 164t115.5 432q0 266 -114.5 431t-299.5 165q-195 0 -310.5 -162 t-115.5 -436zM453 1597l149 289h182l-219 -289h-112zM756 1597l149 289h182l-219 -289h-112z" />
<glyph unicode="&#x151;" d="M59 537q0 254 114 409.5t300 155.5q176 0 288.5 -159t112.5 -406q0 -250 -113.5 -408t-293.5 -158t-294 158t-114 408zM213 537q0 -186 69.5 -297t184.5 -111t184.5 110.5t69.5 297.5q0 184 -68.5 295.5t-181.5 111.5q-119 0 -188.5 -109.5t-69.5 -297.5zM258 1198 l150 289h182l-219 -289h-113zM561 1198l150 289h182l-219 -289h-113z" />
<glyph unicode="&#x152;" horiz-adv-x="1679" d="M61 719q0 354 139.5 572t370.5 218q111 0 179.5 -44t130.5 -152v157h735v-178h-584v-448h557v-178h-557v-488h588v-178h-741v160q-76 -115 -143.5 -157t-176.5 -42q-227 0 -362.5 206t-135.5 552zM229 702q0 -279 90.5 -425t260.5 -146q131 0 209.5 93t78.5 247v537 q0 150 -79.5 240.5t-210.5 90.5q-168 0 -258.5 -164t-90.5 -473z" />
<glyph unicode="&#x153;" horiz-adv-x="1585" d="M59 537q0 250 114 407.5t294 157.5q211 0 330 -217q70 119 145.5 168t187.5 49q180 0 277.5 -145.5t108.5 -479.5h-644q12 -350 252 -350q88 0 153.5 59.5t78.5 149.5h147q-29 -174 -130 -270.5t-255 -96.5q-113 0 -188.5 47t-147.5 160q-94 -205 -309 -205 q-186 0 -300 156t-114 410zM213 536.5q0 -186.5 69.5 -297t184.5 -110.5q117 0 186.5 110.5t69.5 297.5q0 184 -68.5 295.5t-183.5 111.5q-119 0 -188.5 -110.5t-69.5 -297zM872 621h490q-23 322 -236 321q-109 0 -178.5 -89t-75.5 -232z" />
<glyph unicode="&#x154;" horiz-adv-x="1212" d="M147 0v1470h560q193 0 294 -102t101 -295q0 -125 -37 -202.5t-131 -147.5q78 -37 107.5 -93.5t37.5 -183.5l8 -266q2 -68 13.5 -94.5t48.5 -52.5v-33h-201q-27 111 -26 369q0 139 -51.5 200.5t-163.5 61.5h-396v-631h-164zM311 801h377q125 0 185.5 62.5t60.5 193.5 q0 244 -217 243h-406v-499zM516 1595l150 248h192l-219 -248h-123z" />
<glyph unicode="&#x155;" horiz-adv-x="559" d="M129 0v1071h139v-182q59 115 116.5 164t133.5 49q18 0 39 -6v-185h-55q-98 0 -162 -80.5t-64 -205.5v-625h-147zM219 1196l150 289h182l-219 -289h-113z" />
<glyph unicode="&#x156;" horiz-adv-x="1212" d="M147 0v1470h560q193 0 294 -102t101 -295q0 -125 -37 -202.5t-131 -147.5q78 -37 107.5 -93.5t37.5 -183.5l8 -266q2 -68 13.5 -94.5t48.5 -52.5v-33h-201q-27 111 -26 369q0 139 -51.5 200.5t-163.5 61.5h-396v-631h-164zM311 801h377q125 0 185.5 62.5t60.5 193.5 q0 244 -217 243h-406v-499zM492 -123h170v-190q0 -264 -168 -265v74q92 0 92 162v20h-94v199z" />
<glyph unicode="&#x157;" horiz-adv-x="559" d="M117 -123h170v-190q0 -264 -168 -265v74q92 0 92 162v20h-94v199zM129 0v1071h139v-182q59 115 116.5 164t133.5 49q18 0 39 -6v-185h-55q-98 0 -162 -80.5t-64 -205.5v-625h-147z" />
<glyph unicode="&#x158;" horiz-adv-x="1212" d="M147 0v1470h560q193 0 294 -102t101 -295q0 -125 -37 -202.5t-131 -147.5q78 -37 107.5 -93.5t37.5 -183.5l8 -266q2 -68 13.5 -94.5t48.5 -52.5v-33h-201q-27 111 -26 369q0 139 -51.5 200.5t-163.5 61.5h-396v-631h-164zM303 1845h135l142 -149l141 149h133l-197 -248 h-157zM311 801h377q125 0 185.5 62.5t60.5 193.5q0 244 -217 243h-406v-499z" />
<glyph unicode="&#x159;" horiz-adv-x="559" d="M31 1487h135l110 -191l111 191h133l-166 -289h-157zM129 0v1071h139v-182q59 115 116.5 164t133.5 49q18 0 39 -6v-185h-55q-98 0 -162 -80.5t-64 -205.5v-625h-147z" />
<glyph unicode="&#x15a;" horiz-adv-x="1120" d="M82 475h154q0 -170 88 -257t249 -87q145 0 227.5 66.5t82.5 187.5q0 104 -54.5 158.5t-201.5 95.5l-248 70q-256 72 -256 352q0 199 113.5 323.5t316.5 124.5q217 0 336 -115.5t119 -353.5h-154q0 145 -82 222t-219 77q-129 0 -200.5 -66.5t-71.5 -187.5q0 -152 141 -190 l344 -96q274 -78 274 -396q0 -207 -127 -324.5t-348 -117.5t-352 127t-131 387zM498 1595l149 248h193l-219 -248h-123z" />
<glyph unicode="&#x15b;" horiz-adv-x="839" d="M53 344h144q8 -115 61 -166t166 -51q96 0 151.5 45t55.5 123q0 59 -36 91t-138 63l-172 51q-203 61 -203 264q0 154 92 246t244 92q150 0 235.5 -87t96.5 -249h-144q-8 178 -198 178q-84 0 -133.5 -41t-49.5 -110q0 -57 31 -85t127 -57l149 -45q133 -39 189.5 -105.5 t56.5 -178.5q0 -162 -98 -257.5t-266 -95.5q-172 0 -261.5 90t-99.5 285zM358 1196l150 289h182l-219 -289h-113z" />
<glyph unicode="&#x15c;" horiz-adv-x="1120" d="M82 475h154q0 -170 88 -257t249 -87q145 0 227.5 66.5t82.5 187.5q0 104 -54.5 158.5t-201.5 95.5l-248 70q-256 72 -256 352q0 199 113.5 323.5t316.5 124.5q217 0 336 -115.5t119 -353.5h-154q0 145 -82 222t-219 77q-129 0 -200.5 -66.5t-71.5 -187.5q0 -152 141 -190 l344 -96q274 -78 274 -396q0 -207 -127 -324.5t-348 -117.5t-352 127t-131 387zM283 1597l196 248h158l197 -248h-136l-141 150l-141 -150h-133z" />
<glyph unicode="&#x15d;" horiz-adv-x="839" d="M53 344h144q8 -115 61 -166t166 -51q96 0 151.5 45t55.5 123q0 59 -36 91t-138 63l-172 51q-203 61 -203 264q0 154 92 246t244 92q150 0 235.5 -87t96.5 -249h-144q-8 178 -198 178q-84 0 -133.5 -41t-49.5 -110q0 -57 31 -85t127 -57l149 -45q133 -39 189.5 -105.5 t56.5 -178.5q0 -162 -98 -257.5t-266 -95.5q-172 0 -261.5 90t-99.5 285zM170 1198l166 289h158l165 -289h-135l-110 191l-111 -191h-133z" />
<glyph unicode="&#x15e;" horiz-adv-x="1120" d="M82 475h154q0 -170 88 -257t249 -87q145 0 227.5 66.5t82.5 187.5q0 104 -54.5 158.5t-201.5 95.5l-248 70q-256 72 -256 352q0 199 113.5 323.5t316.5 124.5q217 0 336 -115.5t119 -353.5h-154q0 145 -82 222t-219 77q-129 0 -200.5 -66.5t-71.5 -187.5q0 -152 141 -190 l344 -96q274 -78 274 -396q0 -193 -111.5 -308t-307.5 -132l-43 -82h24q61 0 100 -47t39 -117q0 -84 -54 -136t-142 -52q-72 0 -162 45l29 82q59 -31 106 -31q96 0 96 86q0 37 -23.5 64.5t-58.5 27.5q-20 0 -63 -18l-29 39l82 139q-203 12 -321.5 138t-118.5 374z" />
<glyph unicode="&#x15f;" horiz-adv-x="839" d="M53 344h144q8 -115 61 -166t166 -51q96 0 151.5 45t55.5 123q0 59 -36 91t-138 63l-172 51q-203 61 -203 264q0 154 92 246t244 92q150 0 235.5 -87t96.5 -249h-144q-8 178 -198 178q-84 0 -133.5 -41t-49.5 -110q0 -57 31 -85t127 -57l149 -45q133 -39 189.5 -105.5 t56.5 -178.5q0 -143 -78.5 -235.5t-216.5 -113.5l-49 -92h25q61 0 100 -47t39 -117q0 -84 -54.5 -136t-142.5 -52q-72 0 -161 45l28 82q59 -31 107 -31q96 0 96 86q0 37 -23.5 64.5t-58.5 27.5q-20 0 -63 -18l-29 39l86 145q-156 8 -238 98.5t-92 276.5z" />
<glyph unicode="&#x160;" horiz-adv-x="1120" d="M82 475h154q0 -170 88 -257t249 -87q145 0 227.5 66.5t82.5 187.5q0 104 -54.5 158.5t-201.5 95.5l-248 70q-256 72 -256 352q0 199 113.5 323.5t316.5 124.5q217 0 336 -115.5t119 -353.5h-154q0 145 -82 222t-219 77q-129 0 -200.5 -66.5t-71.5 -187.5q0 -152 141 -190 l344 -96q274 -78 274 -396q0 -207 -127 -324.5t-348 -117.5t-352 127t-131 387zM285 1845h135l141 -149l141 149h134l-197 -248h-158z" />
<glyph unicode="&#x161;" horiz-adv-x="839" d="M53 344h144q8 -115 61 -166t166 -51q96 0 151.5 45t55.5 123q0 59 -36 91t-138 63l-172 51q-203 61 -203 264q0 154 92 246t244 92q150 0 235.5 -87t96.5 -249h-144q-8 178 -198 178q-84 0 -133.5 -41t-49.5 -110q0 -57 31 -85t127 -57l149 -45q133 -39 189.5 -105.5 t56.5 -178.5q0 -162 -98 -257.5t-266 -95.5q-172 0 -261.5 90t-99.5 285zM170 1487h135l111 -191l110 191h133l-165 -289h-158z" />
<glyph unicode="&#x162;" horiz-adv-x="1026" d="M23 1292v178h981v-178h-408v-1292h-37l-63 -119h24q61 0 100 -47t39 -117q0 -84 -54 -136t-142 -52q-72 0 -162 45l29 82q59 -31 106 -31q96 0 96 86q0 37 -23.5 64.5t-57.5 27.5q-20 0 -64 -18l-29 39l105 176h-31v1292h-409z" />
<glyph unicode="&#x163;" horiz-adv-x="466" d="M23 922v149h118v299h148v-299h143v-149h-143v-697q0 -45 20.5 -64.5t69.5 -19.5h51v-141q-55 -6 -104 -14l-56 -105h25q61 0 100 -47t39 -117q0 -84 -54 -136t-142 -52q-72 0 -162 45l28 82q59 -31 107 -31q96 0 96 86q0 37 -23.5 64.5t-58.5 27.5q-20 0 -63 -18l-29 39 l105 176q-96 43 -97 215v707h-118z" />
<glyph unicode="&#x164;" horiz-adv-x="1026" d="M23 1292v178h981v-178h-408v-1292h-164v1292h-409zM240 1845h135l141 -149l141 149h134l-197 -248h-158z" />
<glyph unicode="&#x165;" horiz-adv-x="466" d="M23 922v149h118v299h148v-299h143v-149h-143v-697q0 -45 20.5 -64.5t69.5 -19.5h51v-141l-57 -7l-33 -4q-8 -1 -14.5 -2t-12.5 -1q-172 0 -172 229v707h-118zM346 1384v199h170v-190q0 -264 -168 -265v74q92 0 92 162v20h-94z" />
<glyph unicode="&#x168;" horiz-adv-x="1212" d="M133 489v981h164v-925q0 -195 80 -300.5t227 -105.5q150 0 232 104.5t82 297.5v929h163v-954q0 -254 -131 -404.5t-352 -150.5q-213 0 -339 143t-126 385zM324 1602q29 219 174 219q47 0 114 -31l37 -18q53 -27 84 -27q61 0 78 94h84q-31 -223 -170 -223q-31 0 -96 26 l-43 19q-70 31 -105 31q-53 0 -78 -90h-79z" />
<glyph unicode="&#x169;" d="M115 301v770h147v-711q0 -233 170 -233q111 0 176.5 96t65.5 258v590h147v-1071h-139v166q-59 -111 -119.5 -154t-159.5 -43q-135 0 -211.5 88t-76.5 244zM180 1223q29 219 174 219q47 0 115 -31l37 -18q53 -27 84 -27q61 0 78 94h84q-31 -223 -170 -223q-31 0 -97 27 l-43 18q-70 31 -104 31q-53 0 -78 -90h-80z" />
<glyph unicode="&#x16a;" horiz-adv-x="1212" d="M133 489v981h164v-925q0 -195 80 -300.5t227 -105.5q150 0 232 104.5t82 297.5v929h163v-954q0 -254 -131 -404.5t-352 -150.5q-213 0 -339 143t-126 385zM346 1663v117h526v-117h-526z" />
<glyph unicode="&#x16b;" d="M115 301v770h147v-711q0 -233 170 -233q111 0 176.5 96t65.5 258v590h147v-1071h-139v166q-59 -111 -119.5 -154t-159.5 -43q-135 0 -211.5 88t-76.5 244zM203 1284v117h526v-117h-526z" />
<glyph unicode="&#x16c;" horiz-adv-x="1212" d="M133 489v981h164v-925q0 -195 80 -300.5t227 -105.5q150 0 232 104.5t82 297.5v929h163v-954q0 -254 -131 -404.5t-352 -150.5q-213 0 -339 143t-126 385zM330 1839h82l4 -14q82 -106 196 -107q72 0 111 29t63 92h101q-35 -119 -102.5 -178t-182.5 -59q-209 -1 -272 237z " />
<glyph unicode="&#x16d;" d="M115 301v770h147v-711q0 -233 170 -233q111 0 176.5 96t65.5 258v590h147v-1071h-139v166q-59 -111 -119.5 -154t-159.5 -43q-135 0 -211.5 88t-76.5 244zM209 1481h82l4 -15q39 -147 176 -147q76 0 114 36t60 126h80q-18 -145 -81.5 -212t-182.5 -67q-115 0 -176.5 68 t-75.5 211z" />
<glyph unicode="&#x16e;" horiz-adv-x="1212" d="M133 489v981h164v-925q0 -195 80 -300.5t227 -105.5q150 0 232 104.5t82 297.5v929h163v-954q0 -254 -131 -404.5t-352 -150.5q-213 0 -339 143t-126 385zM401 1761q0 72 59.5 120t149.5 48t148.5 -48t58.5 -124q0 -72 -59.5 -120t-147.5 -48q-90 0 -149.5 48t-59.5 124z M492 1761q0 -41 34.5 -69.5t83.5 -28.5q47 0 82 27.5t35 66.5q0 41 -35 69.5t-82 28.5t-82.5 -27.5t-35.5 -66.5z" />
<glyph unicode="&#x16f;" d="M115 301v770h147v-711q0 -233 170 -233q111 0 176.5 96t65.5 258v590h147v-1071h-139v166q-59 -111 -119.5 -154t-159.5 -43q-135 0 -211.5 88t-76.5 244zM258 1343q0 72 59.5 120t149.5 48t148.5 -48t58.5 -124q0 -72 -59.5 -120t-147.5 -48q-90 0 -149.5 48t-59.5 124z M348 1343q0 -41 35 -69.5t84 -28.5q47 0 82 27.5t35 66.5q0 41 -35 70t-82 29t-83 -28t-36 -67z" />
<glyph unicode="&#x170;" horiz-adv-x="1212" d="M133 489v981h164v-925q0 -195 80 -300.5t227 -105.5q150 0 232 104.5t82 297.5v929h163v-954q0 -254 -131 -404.5t-352 -150.5q-213 0 -339 143t-126 385zM399 1597l150 289h182l-219 -289h-113zM702 1597l150 289h182l-219 -289h-113z" />
<glyph unicode="&#x171;" d="M115 301v770h147v-711q0 -233 170 -233q111 0 176.5 96t65.5 258v590h147v-1071h-139v166q-59 -111 -119.5 -154t-159.5 -43q-135 0 -211.5 88t-76.5 244zM258 1198l150 289h182l-219 -289h-113zM561 1198l150 289h182l-219 -289h-113z" />
<glyph unicode="&#x172;" horiz-adv-x="1212" d="M133 489v981h164v-925q0 -195 80 -300.5t227 -105.5q150 0 232 104.5t82 297.5v929h163v-954q0 -197 -80.5 -334t-224.5 -190q-68 -25 -105.5 -88.5t-37.5 -139.5q0 -49 24.5 -67.5t79.5 -18.5h64v-149h-64q-102 0 -177 55.5t-75 143.5q0 68 26 120t81 113 q-211 4 -335 145t-124 383z" />
<glyph unicode="&#x173;" d="M115 301v770h147v-711q0 -233 170 -233q111 0 176.5 96t65.5 258v590h147v-1071q-84 -31 -123 -115q-25 -57 -24 -121q0 -49 24.5 -67.5t79.5 -18.5h64v-149h-64q-102 0 -177 55.5t-75 143.5q0 84 42 156.5t114 115.5v166q-59 -111 -119.5 -154t-159.5 -43 q-135 0 -211.5 88t-76.5 244z" />
<glyph unicode="&#x174;" horiz-adv-x="1585" d="M27 1470h176l227 -1204l272 1204h179l272 -1204l225 1204h181l-318 -1470h-172l-276 1227l-281 -1227h-172zM516 1597l197 248h157l197 -248h-135l-141 150l-142 -150h-133z" />
<glyph unicode="&#x175;" horiz-adv-x="1212" d="M23 1071h161l170 -850l170 850h166l172 -850l180 850h148l-256 -1071h-152l-180 838l-174 -838h-152zM360 1198l166 289h158l166 -289h-135l-111 191l-110 -191h-134z" />
<glyph unicode="&#x176;" horiz-adv-x="1120" d="M23 1470h190l346 -706l346 706h191l-455 -878v-592h-164v592zM283 1597l196 248h158l197 -248h-136l-141 150l-141 -150h-133z" />
<glyph unicode="&#x177;" horiz-adv-x="839" d="M18 1071h166l236 -878l237 878h164l-317 -1051q-53 -172 -82 -251.5t-68 -133t-75.5 -63.5t-108.5 -10q-27 0 -59 12l-13 4v164q43 -18 90.5 -18t69 26.5t49.5 110.5l37 110zM174 1198l166 289h158l166 -289h-136l-110 191l-111 -191h-133z" />
<glyph unicode="&#x178;" horiz-adv-x="1120" d="M23 1470h190l346 -706l346 706h191l-455 -878v-592h-164v592zM305 1622v197h180v-197h-180zM635 1622v197h180v-197h-180z" />
<glyph unicode="&#x179;" horiz-adv-x="1026" d="M39 0v168l739 1124h-684v178h893v-174l-741 -1118h741v-178h-948zM479 1595l150 248h192l-219 -248h-123z" />
<glyph unicode="&#x17a;" horiz-adv-x="839" d="M51 0v141l531 781h-490v149h682v-147l-526 -774h540v-150h-737zM362 1196l150 289h182l-219 -289h-113z" />
<glyph unicode="&#x17b;" horiz-adv-x="1026" d="M39 0v168l739 1124h-684v178h893v-174l-741 -1118h741v-178h-948zM455 1622v197h176v-197h-176z" />
<glyph unicode="&#x17c;" horiz-adv-x="839" d="M51 0v141l531 781h-490v149h682v-147l-526 -774h540v-150h-737zM332 1243v197h176v-197h-176z" />
<glyph unicode="&#x17d;" horiz-adv-x="1026" d="M39 0v168l739 1124h-684v178h893v-174l-741 -1118h741v-178h-948zM266 1845h135l142 -149l141 149h133l-196 -248h-158z" />
<glyph unicode="&#x17e;" horiz-adv-x="839" d="M51 0v141l531 781h-490v149h682v-147l-526 -774h540v-150h-737zM174 1487h135l111 -191l110 191h134l-166 -289h-158z" />
<glyph unicode="&#x17f;" horiz-adv-x="466" d="M145 0v1255q0 236 224 236q27 0 71 -4v-162q-49 4 -61 4q-86 0 -86 -125v-1204h-148z" />
<glyph unicode="&#x18e;" horiz-adv-x="1120" d="M145 0v178h725v488h-657v178h657v448h-712v178h876v-1470h-889z" />
<glyph unicode="&#x192;" d="M-18 -399l26 166q45 -31 86 -31q68 0 106 76.5t68 281.5l107 707h-182v143h206l47 254q27 139 101 225t170 86q57 0 125 -30l-25 -160l-14 6q-51 27 -82 27q-102 0 -135 -197l-35 -211h192v-143h-213l-100 -670q-43 -287 -127 -421t-221 -134q-57 0 -100 25z" />
<glyph unicode="&#x1a0;" horiz-adv-x="1306" d="M66 733q0 338 157.5 557t438.5 219q248 0 407 -204q86 39 86 168h-88v196h176v-196q0 -78 -32.5 -142.5t-90.5 -97.5q121 -209 121 -500q0 -213 -65.5 -385t-201.5 -279.5t-320.5 -107.5t-320.5 107.5t-201.5 279.5t-65.5 385zM233 733q0 -266 116 -430t304.5 -164 t304 164t115.5 432q0 266 -114.5 431t-299.5 165q-195 0 -310.5 -162t-115.5 -436z" />
<glyph unicode="&#x1a1;" horiz-adv-x="952" d="M59 537q0 254 114 409.5t300 155.5q184 0 299 -174q53 49 53 145h-88v197h176v-197q0 -147 -98 -223q59 -135 59 -313q0 -250 -113.5 -408t-293.5 -158t-294 158t-114 408zM213 537q0 -186 69.5 -297t184.5 -111t184.5 110.5t69.5 297.5q0 184 -68.5 295.5t-181.5 111.5 q-119 0 -188.5 -109.5t-69.5 -297.5z" />
<glyph unicode="&#x1af;" horiz-adv-x="1335" d="M133 489v981h164v-925q0 -195 80 -300.5t227 -105.5q150 0 232 104.5t82 297.5v929h163v-174q57 0 92 52.5t35 124.5h-88v196h176v-196q0 -106 -60 -185.5t-155 -79.5v-692q0 -254 -131 -404.5t-352 -150.5q-213 0 -339 143t-126 385z" />
<glyph unicode="&#x1b0;" horiz-adv-x="1075" d="M115 301v770h147v-711q0 -233 170 -233q111 0 176.5 96t65.5 258v590h147v-174q57 0 92 52t35 124h-88v197h176v-197q0 -106 -60.5 -185t-154.5 -79v-809h-139v166q-59 -111 -119.5 -154t-159.5 -43q-135 0 -211.5 88t-76.5 244z" />
<glyph unicode="&#x1dd;" d="M68 594h641q-12 350 -250 350q-90 0 -155.5 -59.5t-76.5 -149.5h-147q29 174 130 270.5t253 96.5q186 0 294.5 -146.5t108.5 -400.5q0 -268 -112.5 -427t-302.5 -159q-178 0 -275.5 146.5t-107.5 478.5zM221 451q23 -322 236 -322q106 0 175.5 89t76.5 233h-488z" />
<glyph unicode="&#x1e6;" horiz-adv-x="1306" d="M80 717q0 354 157.5 573t411.5 219q201 0 340 -129t172 -356h-157q-74 307 -353 307q-186 0 -294.5 -163.5t-108.5 -444.5q0 -289 104.5 -440.5t302.5 -151.5q166 0 269.5 121t103.5 364h-375v170h529v-786h-107l-37 190q-158 -229 -407 -229q-254 0 -402.5 219.5 t-148.5 536.5zM375 1845h135l141 -149l142 149h133l-197 -248h-158z" />
<glyph unicode="&#x1e7;" d="M68 561q0 244 100 392.5t262 148.5q88 0 148.5 -42t119.5 -147v158h140v-983q0 -281 -100.5 -410t-305.5 -129q-145 0 -227 74t-111 246h148q20 -90 66 -130t130 -40q133 0 192.5 83t59.5 294v43q-82 -150 -239 -150q-174 0 -278.5 162t-104.5 430zM221 551 q0 -201 61.5 -312.5t172.5 -111.5q113 0 177 101.5t64 277.5q0 211 -60.5 323.5t-174.5 112.5q-240 0 -240 -391zM221 1487h135l111 -191l111 191h133l-166 -289h-158z" />
<glyph unicode="&#x1ea;" horiz-adv-x="1306" d="M66 733q0 338 157.5 557t438.5 219q254 0 416.5 -216t162.5 -560q0 -256 -99.5 -455.5t-279.5 -275.5q-76 -31 -123 -95.5t-47 -142.5q0 -49 24.5 -67.5t80.5 -18.5h63v-149h-63q-102 0 -177 55.5t-75 143.5q0 68 25.5 120t80.5 113q-274 2 -429.5 223t-155.5 549z M233 733q0 -266 116 -430t304.5 -164t304 164t115.5 432q0 266 -114.5 431t-299.5 165q-195 0 -310.5 -162t-115.5 -436z" />
<glyph unicode="&#x1eb;" d="M59 537q0 254 114 409.5t300 155.5q176 0 288.5 -159t112.5 -406q0 -184 -64.5 -323.5t-176.5 -201.5q-68 -37 -106 -103.5t-38 -144.5q0 -49 25 -67.5t80 -18.5h63v-149h-63q-102 0 -177 55.5t-75 143.5q0 72 26.5 126t88.5 117q-176 4 -287 162t-111 404zM213 537 q0 -186 69.5 -297t184.5 -111t184.5 110.5t69.5 297.5q0 184 -68.5 295.5t-181.5 111.5q-119 0 -188.5 -109.5t-69.5 -297.5z" />
<glyph unicode="&#x1f4;" horiz-adv-x="1306" d="M80 717q0 354 157.5 573t411.5 219q201 0 340 -129t172 -356h-157q-74 307 -353 307q-186 0 -294.5 -163.5t-108.5 -444.5q0 -289 104.5 -440.5t302.5 -151.5q166 0 269.5 121t103.5 364h-375v170h529v-786h-107l-37 190q-158 -229 -407 -229q-254 0 -402.5 219.5 t-148.5 536.5zM588 1595l149 248h193l-219 -248h-123z" />
<glyph unicode="&#x1f5;" d="M68 561q0 244 100 392.5t262 148.5q88 0 148.5 -42t119.5 -147v158h140v-983q0 -281 -100.5 -410t-305.5 -129q-145 0 -227 74t-111 246h148q20 -90 66 -130t130 -40q133 0 192.5 83t59.5 294v43q-82 -150 -239 -150q-174 0 -278.5 162t-104.5 430zM221 551 q0 -201 61.5 -312.5t172.5 -111.5q113 0 177 101.5t64 277.5q0 211 -60.5 323.5t-174.5 112.5q-240 0 -240 -391zM410 1196l149 289h182l-219 -289h-112z" />
<glyph unicode="&#x1fa;" horiz-adv-x="1120" d="M23 0l452 1470h187l436 -1470h-178l-119 428h-484l-127 -428h-167zM362 1761q0 72 59.5 120t150 48t148.5 -48t58 -124q0 -72 -59.5 -120t-147.5 -48q-90 0 -149.5 48t-59.5 124zM367 606h374l-180 651zM453 1761q0 -41 34.5 -69.5t83.5 -28.5q47 0 82 27.5t35 66.5 q0 41 -35 69.5t-82 28.5t-82.5 -27.5t-35.5 -66.5zM508 1970l149 248h193l-219 -248h-123z" />
<glyph unicode="&#x1fb;" d="M61 283q0 139 70 225t197 106l243 37q78 12 78 123q0 178 -203 178q-207 0 -206 -207h-136q0 356 353 357q158 0 247 -80t89 -219v-617q0 -63 47 -63q10 0 51 8v-131q-59 -20 -86 -20q-76 0 -109.5 37.5t-42.5 125.5q-72 -92 -144.5 -133t-166.5 -41q-127 0 -204 86.5 t-77 227.5zM215 299q0 -86 41 -133t117 -47q111 0 191.5 74.5t80.5 177.5v176q-23 -20 -68 -32.5t-174 -35.5q-100 -16 -144 -58t-44 -122zM250 1362q0 72 59.5 120t149.5 48t148.5 -48t58.5 -124q0 -72 -59.5 -120t-147.5 -48q-90 0 -149.5 48t-59.5 124zM340 1362 q0 -41 35 -69.5t84 -28.5q47 0 81.5 27.5t34.5 66.5q0 41 -34.5 69.5t-81.5 28.5t-83 -27.5t-36 -66.5zM395 1571l150 248h192l-219 -248h-123z" />
<glyph unicode="&#x1fc;" horiz-adv-x="1679" d="M14 0l490 1470h1081v-178h-653v-448h596v-178h-596v-488h665v-178h-829v428h-444l-134 -428h-176zM381 606h387v686h-164zM788 1595l150 248h192l-219 -248h-123z" />
<glyph unicode="&#x1fd;" horiz-adv-x="1492" d="M61 283q0 139 70 225t197 106l243 37q78 12 78 123q0 178 -203 178q-96 0 -143 -46t-63 -161h-136q10 188 98.5 272.5t264.5 84.5q98 0 157.5 -32t127.5 -120q72 86 134 119t154 33q178 0 273.5 -144.5t109.5 -480.5h-643q12 -350 250 -350q88 0 154.5 59.5t79.5 149.5 h147q-27 -168 -127 -267.5t-260 -99.5q-119 0 -195.5 52.5t-134.5 171.5q-70 -119 -151.5 -171.5t-192.5 -52.5q-133 0 -211 85.5t-78 228.5zM215 299q0 -86 41 -133t117 -47q111 0 191.5 74.5t80.5 177.5v176q-20 -20 -65 -32.5t-177 -35.5q-100 -16 -144 -59t-44 -121z M690 1196l150 289h182l-219 -289h-113zM780 621h490q-25 322 -238 321q-106 0 -175 -88t-77 -233z" />
<glyph unicode="&#x1fe;" horiz-adv-x="1306" d="M66 737q0 213 65.5 385t201.5 279.5t322 107.5q125 0 218.5 -43t181.5 -139l137 182l51 -61l-139 -186q137 -242 137 -529q0 -328 -156.5 -550t-433.5 -222q-121 0 -213 42t-180 136l-135 -178l-53 57l139 185q-143 245 -143 534zM233 735q0 -211 86 -385l629 834 q-125 147 -293 147q-190 0 -306 -164t-116 -432zM365 283q123 -143 286 -144q190 0 306 164t116 432q0 213 -82 377zM592 1595l149 248h193l-219 -248h-123z" />
<glyph unicode="&#x1ff;" d="M47 8l107 148q-94 174 -95 381q0 252 114 408.5t296 156.5q156 0 272 -133l109 147l51 -53l-117 -160q90 -168 90 -368q0 -250 -113.5 -407t-295.5 -157q-150 0 -264 123l-103 -139zM213 537q0 -127 41 -244l395 547q-72 104 -182 104q-115 0 -184.5 -110.5t-69.5 -296.5 zM293 221q68 -92 172 -92q117 0 186.5 110.5t69.5 297.5q0 119 -37 227zM457 1196l149 289h182l-219 -289h-112z" />
<glyph unicode="&#x200;" horiz-adv-x="1120" d="M23 0l452 1470h187l436 -1470h-178l-119 428h-484l-127 -428h-167zM143 1886h183l149 -289h-113zM367 606h374l-180 651zM446 1886h183l149 -289h-112z" />
<glyph unicode="&#x201;" d="M31 1487h182l149 -289h-112zM61 283q0 139 70 225t197 106l243 37q78 12 78 123q0 178 -203 178q-207 0 -206 -207h-136q0 356 353 357q158 0 247 -80t89 -219v-617q0 -63 47 -63q10 0 51 8v-131q-59 -20 -86 -20q-76 0 -109.5 37.5t-42.5 125.5q-72 -92 -144.5 -133 t-166.5 -41q-127 0 -204 86.5t-77 227.5zM215 299q0 -86 41 -133t117 -47q111 0 191.5 74.5t80.5 177.5v176q-23 -20 -68 -32.5t-174 -35.5q-100 -16 -144 -58t-44 -122zM334 1487h182l150 -289h-113z" />
<glyph unicode="&#x204;" horiz-adv-x="1120" d="M145 0v1470h877v-178h-713v-448h658v-178h-658v-488h725v-178h-889zM158 1886h182l149 -289h-112zM461 1886h182l150 -289h-113z" />
<glyph unicode="&#x205;" d="M41 1487h182l150 -289h-113zM68 516q0 268 112.5 427t302.5 159q178 0 275.5 -146.5t107.5 -478.5h-641q12 -350 250 -350q90 0 155.5 59.5t76.5 149.5h147q-29 -174 -130 -270.5t-253 -96.5q-186 0 -294.5 146.5t-108.5 400.5zM225 621h488q-23 322 -236 321 q-106 0 -176 -89t-76 -232zM344 1487h182l150 -289h-113z" />
<glyph unicode="&#x208;" horiz-adv-x="466" d="M-190 1886h182l149 -289h-112zM113 1886h182l149 -289h-112zM154 0v1470h161v-1470h-161z" />
<glyph unicode="&#x209;" horiz-adv-x="466" d="M-193 1487h183l149 -289h-112zM111 1487h182l149 -289h-112zM160 0v1071h147v-1071h-147z" />
<glyph unicode="&#x20c;" horiz-adv-x="1306" d="M66 733q0 338 157.5 557t438.5 219q254 0 416.5 -216t162.5 -560q0 -213 -65.5 -385t-201.5 -279.5t-320.5 -107.5t-320.5 107.5t-201.5 279.5t-65.5 385zM233 733q0 -266 116 -430t304.5 -164t304 164t115.5 432q0 266 -114.5 431t-299.5 165q-195 0 -310.5 -162 t-115.5 -436zM236 1886h182l149 -289h-112zM539 1886h182l149 -289h-112z" />
<glyph unicode="&#x20d;" d="M41 1487h182l150 -289h-113zM59 537q0 254 114 409.5t300 155.5q176 0 288.5 -159t112.5 -406q0 -250 -113.5 -408t-293.5 -158t-294 158t-114 408zM213 537q0 -186 69.5 -297t184.5 -111t184.5 110.5t69.5 297.5q0 184 -68.5 295.5t-181.5 111.5q-119 0 -188.5 -109.5 t-69.5 -297.5zM344 1487h182l150 -289h-113z" />
<glyph unicode="&#x210;" horiz-adv-x="1212" d="M147 0v1470h560q193 0 294 -102t101 -295q0 -125 -37 -202.5t-131 -147.5q78 -37 107.5 -93.5t37.5 -183.5l8 -266q2 -68 13.5 -94.5t48.5 -52.5v-33h-201q-27 111 -26 369q0 139 -51.5 200.5t-163.5 61.5h-396v-631h-164zM152 1886h182l149 -289h-112zM311 801h377 q125 0 185.5 62.5t60.5 193.5q0 244 -217 243h-406v-499zM455 1886h182l149 -289h-112z" />
<glyph unicode="&#x211;" horiz-adv-x="559" d="M-150 1487h183l149 -289h-112zM129 0v1071h139v-182q59 115 116.5 164t133.5 49q18 0 39 -6v-185h-55q-98 0 -162 -80.5t-64 -205.5v-625h-147zM154 1487h182l149 -289h-112z" />
<glyph unicode="&#x214;" horiz-adv-x="1212" d="M133 489v981h164v-925q0 -195 80 -300.5t227 -105.5q150 0 232 104.5t82 297.5v929h163v-954q0 -254 -131 -404.5t-352 -150.5q-213 0 -339 143t-126 385zM182 1886h183l149 -289h-113zM485 1886h183l149 -289h-112z" />
<glyph unicode="&#x215;" d="M41 1487h182l150 -289h-113zM115 301v770h147v-711q0 -233 170 -233q111 0 176.5 96t65.5 258v590h147v-1071h-139v166q-59 -111 -119.5 -154t-159.5 -43q-135 0 -211.5 88t-76.5 244zM344 1487h182l150 -289h-113z" />
<glyph unicode="&#x218;" horiz-adv-x="1120" d="M82 475h154q0 -170 88 -257t249 -87q145 0 227.5 66.5t82.5 187.5q0 104 -54.5 158.5t-201.5 95.5l-248 70q-256 72 -256 352q0 199 113.5 323.5t316.5 124.5q217 0 336 -115.5t119 -353.5h-154q0 145 -82 222t-219 77q-129 0 -200.5 -66.5t-71.5 -187.5q0 -152 141 -190 l344 -96q274 -78 274 -396q0 -207 -127 -324.5t-348 -117.5t-352 127t-131 387zM473 -123h170v-190q0 -264 -168 -265v74q92 0 92 162v20h-94v199z" />
<glyph unicode="&#x219;" horiz-adv-x="839" d="M53 344h144q8 -115 61 -166t166 -51q96 0 151.5 45t55.5 123q0 59 -36 91t-138 63l-172 51q-203 61 -203 264q0 154 92 246t244 92q150 0 235.5 -87t96.5 -249h-144q-8 178 -198 178q-84 0 -133.5 -41t-49.5 -110q0 -57 31 -85t127 -57l149 -45q133 -39 189.5 -105.5 t56.5 -178.5q0 -162 -98 -257.5t-266 -95.5q-172 0 -261.5 90t-99.5 285zM330 -123h170v-190q0 -264 -168 -265v74q92 0 92 162v20h-94v199z" />
<glyph unicode="&#x21a;" horiz-adv-x="1026" d="M23 1292v178h981v-178h-408v-1292h-164v1292h-409zM428 -123h170v-190q0 -264 -168 -265v74q92 0 92 162v20h-94v199z" />
<glyph unicode="&#x21b;" horiz-adv-x="466" d="M23 922v149h118v299h148v-299h143v-149h-143v-697q0 -45 20.5 -64.5t69.5 -19.5h51v-141l-57 -7l-33 -4q-8 -1 -14.5 -2t-12.5 -1q-172 0 -172 229v707h-118zM203 -123h170v-190q0 -264 -168 -265v74q92 0 92 162v20h-94v199z" />
<glyph unicode="&#x258;" d="M68 477q10 332 107 478.5t276 146.5q190 0 302.5 -159t112.5 -427q0 -254 -108.5 -400.5t-294.5 -146.5q-152 0 -253 96.5t-130 270.5h147q10 -90 76 -149.5t156 -59.5q238 0 250 350h-641zM221 621h488q-6 143 -76 232t-176 89q-213 1 -236 -321z" />
<glyph unicode="&#x259;" d="M68 594h641q-12 350 -250 350q-90 0 -155.5 -59.5t-76.5 -149.5h-147q29 174 130 270.5t253 96.5q186 0 294.5 -146.5t108.5 -400.5q0 -268 -112.5 -427t-302.5 -159q-178 0 -275.5 146.5t-107.5 478.5zM221 451q23 -322 236 -322q106 0 175.5 89t76.5 233h-488z" />
<glyph unicode="&#x2be;" horiz-adv-x="757" d="M113 920q0 18 16 18h96q12 0 17 -14q20 -139 118 -140q72 0 110 68t38 190q0 252 -139 252q-98 0 -127 -155q-4 -12 -17 -13h-96q-20 0 -16 19q37 287 254 287q127 0 202.5 -103.5t75.5 -277.5q0 -186 -80 -297t-213 -111q-212 1 -239 277z" />
<glyph unicode="&#x2bf;" horiz-adv-x="757" d="M113 1024q0 186 79.5 297t213.5 111q213 0 239 -277q0 -18 -16 -18h-97q-12 0 -16 14q-20 139 -119 139q-72 0 -109.5 -67.5t-37.5 -190.5q0 -252 139 -252q98 0 127 156q4 12 16 12h97q20 0 16 -18q-37 -287 -254 -287q-127 0 -202.5 103.5t-75.5 277.5z" />
<glyph unicode="&#x2c6;" horiz-adv-x="559" d="M35 1198l166 289h157l166 -289h-135l-110 191l-111 -191h-133z" />
<glyph unicode="&#x2c7;" horiz-adv-x="559" d="M35 1487h135l111 -191l110 191h133l-166 -289h-157z" />
<glyph unicode="&#x2d8;" horiz-adv-x="559" d="M23 1481h81l5 -15q39 -147 176 -147q76 0 113.5 36t60.5 126h80q-18 -145 -82 -212t-183 -67q-115 0 -176 68t-75 211z" />
<glyph unicode="&#x2d9;" horiz-adv-x="559" d="M193 1243v197h176v-197h-176z" />
<glyph unicode="&#x2da;" horiz-adv-x="559" d="M72 1343q0 72 59 120t149.5 48t148.5 -48t58 -124q0 -72 -59 -120t-147 -48q-90 0 -149.5 48t-59.5 124zM162 1343q0 -41 34.5 -69.5t84.5 -28.5q47 0 81.5 27.5t34.5 66.5q0 41 -34.5 70t-82 29t-83 -28t-35.5 -67z" />
<glyph unicode="&#x2db;" horiz-adv-x="559" d="M102 -272q0 80 33 137t111 135h119q-115 -96 -115 -236q0 -49 24.5 -67.5t79.5 -18.5h64v-149h-64q-102 0 -177 55.5t-75 143.5z" />
<glyph unicode="&#x2dc;" horiz-adv-x="559" d="M-6 1223q29 219 174 219q47 0 115 -31l36 -18q53 -27 84 -27q61 0 78 94h84q-31 -223 -170 -223q-31 0 -96 27l-43 18q-70 31 -104 31q-53 0 -78 -90h-80z" />
<glyph unicode="&#x2dd;" horiz-adv-x="559" d="M72 1198l149 289h182l-219 -289h-112zM375 1198l149 289h183l-220 -289h-112z" />
<glyph unicode="&#x300;" horiz-adv-x="0" d="M-741 1485h182l149 -289h-112z" />
<glyph unicode="&#x301;" horiz-adv-x="0" d="M-522 1196l149 289h183l-220 -289h-112z" />
<glyph unicode="&#x302;" horiz-adv-x="0" d="M-711 1198l166 289h158l166 -289h-135l-111 191l-111 -191h-133z" />
<glyph unicode="&#x303;" horiz-adv-x="0" d="M-752 1223q29 219 174 219q47 0 115 -31l37 -18q53 -27 84 -27q61 0 78 94h84q-31 -223 -170 -223q-31 0 -96 27l-43 18q-70 31 -105 31q-53 0 -78 -90h-80z" />
<glyph unicode="&#x304;" horiz-adv-x="0" d="M-729 1284v117h526v-117h-526z" />
<glyph unicode="&#x306;" horiz-adv-x="0" d="M-723 1481h82l4 -15q39 -147 176 -147q76 0 114 36t60 126h80q-18 -145 -81.5 -212t-182.5 -67q-115 0 -176.5 68t-75.5 211z" />
<glyph unicode="&#x307;" horiz-adv-x="0" d="M-553 1243v197h176v-197h-176z" />
<glyph unicode="&#x308;" horiz-adv-x="0" d="M-721 1243v197h180v-197h-180zM-391 1243v197h180v-197h-180z" />
<glyph unicode="&#x309;" horiz-adv-x="0" d="M-670 1337q0 188 213 189q94 0 148.5 -38t54.5 -104q0 -41 -19.5 -67.5t-72.5 -59.5q-41 -29 -52.5 -40t-11.5 -25v-49h-114v55q0 37 20.5 60.5t77.5 58.5q59 39 59 67q0 23 -25.5 37.5t-68.5 14.5q-61 0 -84 -29q-12 -14 -12 -70h-113z" />
<glyph unicode="&#x30a;" horiz-adv-x="0" d="M-674 1343q0 72 59.5 120t149.5 48t148.5 -48t58.5 -124q0 -72 -59.5 -120t-147.5 -48q-90 0 -149.5 48t-59.5 124zM-584 1343q0 -41 35 -69.5t84 -28.5q47 0 82 27.5t35 66.5q0 41 -35 70t-82 29t-83 -28t-36 -67z" />
<glyph unicode="&#x30b;" horiz-adv-x="0" d="M-674 1198l150 289h182l-219 -289h-113zM-371 1198l150 289h182l-219 -289h-113z" />
<glyph unicode="&#x30c;" horiz-adv-x="0" d="M-711 1487h136l110 -191l111 191h133l-166 -289h-158z" />
<glyph unicode="&#x30f;" horiz-adv-x="0" d="M-893 1487h182l150 -289h-113zM-590 1487h182l150 -289h-113z" />
<glyph unicode="&#x311;" horiz-adv-x="0" d="M-723 1202q18 145 81.5 212t182.5 67q115 0 176.5 -67.5t75.5 -211.5h-82l-4 15q-39 147 -176 147q-76 0 -114 -36t-60 -126h-80z" />
<glyph unicode="&#x323;" horiz-adv-x="0" d="M-553 -172h176v-197h-176v197z" />
<glyph unicode="&#x326;" horiz-adv-x="0" d="M-551 -123h170v-190q0 -264 -168 -265v74q92 0 92 162v20h-94v199z" />
<glyph unicode="&#x32e;" horiz-adv-x="0" d="M-743 -152h81l5 -14q82 -106 196 -106q72 0 111 28.5t63 91.5h101q-35 -119 -102.5 -178t-182.5 -59q-209 -1 -272 237z" />
<glyph unicode="&#x32f;" horiz-adv-x="0" d="M-743 -389q35 119 102.5 178t181.5 59q209 0 273 -237h-82l-4 14q-82 106 -197 107q-72 0 -110.5 -29t-63.5 -92h-100z" />
<glyph unicode="&#x330;" horiz-adv-x="0" d="M-752 -389q29 219 174 219q47 0 115 -31l37 -18q53 -27 84 -27q61 0 78 94h84q-31 -223 -170 -223q-31 0 -96 27l-43 18q-70 31 -105 31q-53 0 -78 -90h-80z" />
<glyph unicode="&#x331;" horiz-adv-x="0" d="M-729 -211h526v-117h-526v117z" />
<glyph unicode="&#x332;" horiz-adv-x="0" d="M-729 -211h526v-117h-526v117z" />
<glyph unicode="&#x391;" horiz-adv-x="1120" d="M23 0l452 1470h187l436 -1470h-178l-119 428h-484l-127 -428h-167zM367 606h374l-180 651z" />
<glyph unicode="&#x392;" horiz-adv-x="1120" d="M125 0v1470h530q154 0 247 -101t93 -269q0 -203 -159 -307q119 -59 168 -139.5t49 -215.5q0 -199 -112 -318.5t-296 -119.5h-520zM289 170h348q119 0 185.5 70.5t66.5 197.5q0 250 -281 250h-319v-518zM289 848h293q127 0 188 57.5t61 175.5q0 113 -60 166t-187 53h-295 v-452z" />
<glyph unicode="&#x393;" horiz-adv-x="1026" d="M145 0v1470h834v-178h-670v-1292h-164z" />
<glyph unicode="&#x394;" horiz-adv-x="1028" d="M10 0l434 1438h140l434 -1438h-1008zM209 147h610l-305 1014z" />
<glyph unicode="&#x395;" horiz-adv-x="1120" d="M145 0v1470h877v-178h-713v-448h658v-178h-658v-488h725v-178h-889z" />
<glyph unicode="&#x396;" horiz-adv-x="1026" d="M39 0v168l739 1124h-684v178h893v-174l-741 -1118h741v-178h-948z" />
<glyph unicode="&#x397;" horiz-adv-x="1212" d="M129 0v1470h164v-608h629v608h163v-1470h-163v684h-629v-684h-164z" />
<glyph unicode="&#x398;" horiz-adv-x="1306" d="M66 733q0 338 157.5 557t438.5 219q254 0 416.5 -216t162.5 -560q0 -213 -65.5 -385t-201.5 -279.5t-320.5 -107.5t-320.5 107.5t-201.5 279.5t-65.5 385zM233 733q0 -266 116 -430t304.5 -164t304 164t115.5 432q0 266 -114.5 431t-299.5 165q-195 0 -310.5 -162 t-115.5 -436zM436 662v147h434v-147h-434z" />
<glyph unicode="&#x399;" horiz-adv-x="466" d="M154 0v1470h161v-1470h-161z" />
<glyph unicode="&#x39a;" horiz-adv-x="1120" d="M127 0v1470h164v-712l586 712h225l-504 -593l516 -877h-211l-422 737l-190 -221v-516h-164z" />
<glyph unicode="&#x39b;" horiz-adv-x="1120" d="M23 0l452 1470h187l436 -1470h-178l-359 1257l-371 -1257h-167z" />
<glyph unicode="&#x39c;" horiz-adv-x="1398" d="M123 0v1470h233l346 -1249l345 1249h231v-1470h-154v868v379l-344 -1247h-159l-340 1245v-282v-963h-158z" />
<glyph unicode="&#x39d;" horiz-adv-x="1212" d="M127 0v1470h192l609 -1194v1194h157v-1470h-182l-618 1194v-1194h-158z" />
<glyph unicode="&#x39e;" horiz-adv-x="1212" d="M82 0v164h1048v-164h-1048zM82 1307v163h1048v-163h-1048zM246 662v147h721v-147h-721z" />
<glyph unicode="&#x39f;" horiz-adv-x="1306" d="M66 733q0 338 157.5 557t438.5 219q254 0 416.5 -216t162.5 -560q0 -213 -65.5 -385t-201.5 -279.5t-320.5 -107.5t-320.5 107.5t-201.5 279.5t-65.5 385zM233 733q0 -266 116 -430t304.5 -164t304 164t115.5 432q0 266 -114.5 431t-299.5 165q-195 0 -310.5 -162 t-115.5 -436z" />
<glyph unicode="&#x3a0;" horiz-adv-x="1212" d="M129 0v1470h956v-1470h-163v1292h-629v-1292h-164z" />
<glyph unicode="&#x3a1;" horiz-adv-x="1120" d="M145 0v1470h541q162 0 260 -114.5t98 -300.5q0 -197 -98 -315.5t-260 -118.5h-377v-621h-164zM309 791h322q246 0 246 258q0 252 -240 251h-328v-509z" />
<glyph unicode="&#x3a3;" horiz-adv-x="1032" d="M61 0v168l455 567l-455 568v167h910v-178h-674l446 -557l-446 -557h674v-178h-910z" />
<glyph unicode="&#x3a4;" horiz-adv-x="1026" d="M23 1292v178h981v-178h-408v-1292h-164v1292h-409z" />
<glyph unicode="&#x3a5;" horiz-adv-x="1120" d="M23 1470h190l346 -706l346 706h191l-455 -878v-592h-164v592z" />
<glyph unicode="&#x3a6;" horiz-adv-x="1277" d="M113 735q0 172 128 294t316 147v294h162v-294q188 -25 316 -147t128 -294t-128 -294t-316 -146v-295h-162v295q-188 25 -316 146.5t-128 293.5zM264 735.5q0 -110.5 84 -186.5t209 -96v565q-125 -20 -209 -96t-84 -186.5zM719 453q125 20 209 96t84 186.5t-84 186 t-209 96.5v-565z" />
<glyph unicode="&#x3a7;" horiz-adv-x="1120" d="M33 0l430 754l-404 716h205l305 -563l305 563h195l-403 -716l421 -754h-200l-324 604l-334 -604h-196z" />
<glyph unicode="&#x3a8;" horiz-adv-x="1249" d="M113 1071v399h151v-399q0 -160 76 -286t203 -160v845h162v-845q127 35 202.5 160.5t75.5 285.5v399h152v-399q0 -223 -120 -397t-310 -209v-465h-162v465q-190 35 -310 209t-120 397z" />
<glyph unicode="&#x3a9;" horiz-adv-x="1298" d="M61 0v178h326v117q-125 84 -195.5 233.5t-70.5 321.5q0 258 149.5 447.5t379 189.5t380 -189.5t150.5 -447.5q0 -172 -72 -321.5t-197 -233.5v-117h326v-178h-489v410q121 39 194.5 163.5t73.5 276.5q0 184 -103.5 321.5t-263.5 137.5t-262 -136.5t-102 -322.5 q0 -152 72.5 -276.5t193.5 -163.5v-410h-490z" />
<glyph unicode="&#x3b1;" horiz-adv-x="1300" d="M113 518q0 242 127 419t331 177q246 0 377 -326q51 213 107 318l133 -70q-92 -174 -164 -518q61 -293 164 -483l-133 -70q-66 125 -111 295q-133 -303 -373 -303q-201 0 -329.5 167t-128.5 394zM260 518q0 -164 86 -284.5t225 -120.5q225 0 318 405q-20 92 -42 161 t-58.5 137.5t-91 105t-126.5 36.5q-143 0 -227 -131t-84 -309z" />
<glyph unicode="&#x3b2;" horiz-adv-x="1005" d="M100 -471v1561q0 188 104.5 294.5t289.5 106.5q180 0 287.5 -101.5t107.5 -271.5q0 -190 -137 -299q195 -82 194 -362q0 -209 -110.5 -348.5t-311.5 -139.5q-147 0 -276 62v-502h-148zM248 178q123 -49 258 -49q287 0 287 309q0 287 -287 287q-37 0 -64 -8v162 q20 -4 47 -5q119 0 185.5 59.5t66.5 168t-67.5 170t-186.5 61.5q-127 0 -183 -68.5t-56 -220.5v-866z" />
<glyph unicode="&#x3b3;" horiz-adv-x="1073" d="M113 1071h155l269 -829l268 829h156l-351 -1083v-459h-147v459z" />
<glyph unicode="&#x3b4;" horiz-adv-x="944" d="M61 440q0 158 98.5 279t254.5 168q-170 152 -170 289q0 121 77.5 207.5t192.5 86.5q154 0 279 -92l-95 -127q-84 61 -184 62q-53 0 -88 -40t-35 -97q0 -37 13.5 -68t43 -60.5t51 -46t68.5 -48l64 -42.5q117 -82 184.5 -206.5t67.5 -264.5q0 -193 -118 -332t-292 -139 q-176 0 -294 139t-118 332zM209 440q0 -127 74.5 -220t189.5 -93q113 0 187.5 93t74.5 220q0 106 -52 197.5t-142 144.5q-137 0 -234.5 -100.5t-97.5 -241.5z" />
<glyph unicode="&#x3b5;" horiz-adv-x="1030" d="M113 354q0 166 196 236q-158 86 -157 235q0 137 101 231.5t243 94.5q188 0 381 -137l-72 -101q-113 82 -309 82q-80 0 -138.5 -48t-58.5 -122q0 -184 369 -184v-125q-63 0 -97 -1t-90.5 -5t-88.5 -14.5t-66.5 -27.5t-50 -46t-15.5 -68q0 -117 93 -197.5t220 -80.5 q170 0 269 78l76 -95q-172 -139 -345 -139q-188 0 -324 126t-136 308z" />
<glyph unicode="&#x3b6;" horiz-adv-x="878" d="M113 537q0 242 112.5 454.5t309.5 356.5h-422v125h708v-125h-78q-225 -113 -354 -333t-129 -478q0 -158 59.5 -271.5t176.5 -113.5h61q115 0 189.5 -93.5t74.5 -220.5q0 -125 -75.5 -215t-188.5 -90v139q53 0 85 49.5t32 116.5q0 63 -32 110.5t-85 47.5h-61 q-176 0 -279.5 161t-103.5 380z" />
<glyph unicode="&#x3b7;" d="M113 0v580q-39 123 0 247v244h147v-35q104 78 236 78q141 0 233 -118.5t92 -280.5v-1186h-147v1186q0 98 -49.5 170.5t-128.5 72.5q-150 0 -236 -116v-842h-147z" />
<glyph unicode="&#x3b8;" horiz-adv-x="972" d="M113 719q0 127 7 229.5t30.5 212t63.5 183t108.5 121.5t163 48t164 -48t109.5 -121.5t63.5 -183t30.5 -212t7 -229.5q0 -762 -375 -762q-372 0 -372 762zM260 641q0 -117 7 -195.5t28.5 -162.5t69 -127t121 -43t121.5 43t69.5 127t29 162.5t7.5 195.5h-453zM260 797h453 q0 123 -7.5 205.5t-29 173t-69.5 136.5t-121.5 46t-121 -46t-69 -136.5t-28.5 -173t-7 -205.5z" />
<glyph unicode="&#x3b9;" horiz-adv-x="608" d="M225 322v749h148v-749q0 -86 30.5 -147.5t92.5 -61.5v-156q-123 0 -197 109t-74 256z" />
<glyph unicode="&#x3ba;" horiz-adv-x="839" d="M109 0v1071h147v-453l379 453h186l-336 -399l357 -672h-191l-272 541l-123 -135v-406h-147z" />
<glyph unicode="&#x3bb;" horiz-adv-x="1150" d="M113 0l467 971l-25 76q-37 121 -110.5 200.5t-176.5 79.5v139q150 0 262.5 -105.5t163.5 -264.5l344 -1096h-155l-240 762l-367 -762h-163z" />
<glyph unicode="&#x3bc;" horiz-adv-x="1159" d="M225 -471v1542h148v-717q43 -242 206.5 -241.5t206.5 241.5v717h148v-1071h-148v55q-82 -98 -206.5 -98t-206.5 98v-526h-148z" />
<glyph unicode="&#x3bd;" horiz-adv-x="956" d="M57 1071h156l305 -909q236 225 236 553q0 176 -41 356h151q37 -162 37 -356q0 -219 -99.5 -414t-275.5 -324l-112 37z" />
<glyph unicode="&#x3be;" d="M113 438q0 115 55 211t149 156q-166 113 -165 301q0 141 110 242h-149v125h708v-125h-307q-94 -20 -154.5 -86t-60.5 -156q0 -98 76 -166t182 -68v-139q-123 0 -210 -86t-87 -209q0 -117 66.5 -201.5t169.5 -84.5h61q115 0 189.5 -93.5t74.5 -220.5q0 -125 -75.5 -215 t-188.5 -90v139q53 0 85 49.5t32 116.5q0 63 -32 110.5t-85 47.5h-61q-164 0 -273.5 131t-109.5 311z" />
<glyph unicode="&#x3bf;" d="M59 537q0 254 114 409.5t300 155.5q176 0 288.5 -159t112.5 -406q0 -250 -113.5 -408t-293.5 -158t-294 158t-114 408zM213 537q0 -186 69.5 -297t184.5 -111t184.5 110.5t69.5 297.5q0 184 -68.5 295.5t-181.5 111.5q-119 0 -188.5 -109.5t-69.5 -297.5z" />
<glyph unicode="&#x3c0;" horiz-adv-x="1150" d="M61 686q0 205 109 295t334 90h586v-158h-103v-913h-147v913h-262v-913h-148v913q-111 0 -161 -55t-50 -172h-158z" />
<glyph unicode="&#x3c1;" horiz-adv-x="1064" d="M113 -471v1008q0 233 114.5 405t305 172t305 -172t114.5 -405.5t-114.5 -406.5t-305.5 -173q-154 0 -272 109v-537h-147zM260 264q37 -72 111.5 -111.5t160.5 -39.5q131 0 202 124.5t71 299.5q0 172 -70.5 296.5t-202.5 124.5q-129 0 -200.5 -124.5t-71.5 -296.5v-273z " />
<glyph unicode="&#x3c2;" d="M113 555q0 227 102 393t281 166q135 0 228 -100.5t89 -237.5l-131 2q2 74 -53.5 127t-132.5 53q-119 0 -177.5 -118.5t-58.5 -284.5t58.5 -284.5t177.5 -118.5h61q115 0 189.5 -93.5t74.5 -220.5q0 -125 -75.5 -215t-188.5 -90v139q53 0 85 49.5t32 116.5q0 63 -32 110.5 t-85 47.5h-61q-178 0 -280.5 166t-102.5 393z" />
<glyph unicode="&#x3c3;" horiz-adv-x="1105" d="M113 537q0 254 113.5 409.5t299.5 155.5q43 0 74 -8q164 12 401 90l50 -148q-125 -41 -265 -57q141 -162 142 -442q0 -250 -114 -408t-294 -158t-293.5 158t-113.5 408zM266 537q0 -186 70 -297t184.5 -111t184 110.5t69.5 297.5q0 184 -68.5 295.5t-181.5 111.5 q-119 0 -188.5 -109.5t-69.5 -297.5z" />
<glyph unicode="&#x3c4;" horiz-adv-x="825" d="M113 920v155h600v-155h-228v-598q0 -86 31 -147.5t92 -61.5v-156q-121 0 -195.5 108.5t-74.5 256.5v598h-225z" />
<glyph unicode="&#x3c5;" d="M113 356v715h147v-715q0 -98 45 -170.5t123 -72.5q121 0 183.5 117.5t62.5 281.5q0 279 -82 559h156q74 -262 73 -559q0 -223 -106.5 -389t-286.5 -166q-139 0 -227 118.5t-88 280.5z" />
<glyph unicode="&#x3c6;" horiz-adv-x="1437" d="M113 537q0 166 79.5 314t221.5 243l78 -115q-109 -74 -170.5 -191.5t-61.5 -250.5q0 -160 110.5 -278t274.5 -140v393q0 158 31 288t109.5 222t199.5 92q117 0 197 -88t111.5 -213t31.5 -276q0 -223 -153.5 -386t-378.5 -190v-432h-148v432q-225 27 -378.5 190 t-153.5 386zM793 119q164 23 274.5 140.5t110.5 277.5q0 88 -6.5 152.5t-25 131t-59 102t-102.5 35.5q-63 0 -105 -37.5t-59.5 -110.5t-22.5 -137.5t-5 -160.5v-393z" />
<glyph unicode="&#x3c7;" horiz-adv-x="1081" d="M113 -471l346 772l-346 770h163l265 -590l264 590h164l-346 -770l346 -772h-164l-264 590l-265 -590h-163z" />
<glyph unicode="&#x3c8;" horiz-adv-x="1212" d="M113 356v715h147v-715q0 -96 78 -158.5t194 -78.5v1351h148v-1351q117 16 194.5 78.5t77.5 158.5v715h148v-715q0 -158 -122 -266t-298 -129v-432h-148v432q-176 20 -297.5 128.5t-121.5 266.5z" />
<glyph unicode="&#x3c9;" horiz-adv-x="1267" d="M113 553q0 223 116 518h111q-80 -207 -80 -518q0 -82 1 -126t8 -113.5t22.5 -106.5t45.5 -65.5t73 -28.5q139 0 163 221q-12 119 -12 381h148v-119q0 -41 3 -114.5t8 -116.5t16.5 -97.5t26.5 -83t39.5 -50t55.5 -21.5q43 0 73 28.5t45 65.5t22.5 106.5t8.5 113.5t1 126 q0 311 -80 518h110q117 -295 117 -518q0 -596 -297 -596q-160 0 -231 160q-68 -160 -217 -160q-297 0 -297 596z" />
<glyph unicode="&#x3d1;" horiz-adv-x="1046" d="M113 356v359h147v-359q0 -100 58.5 -173.5t148.5 -73.5t148.5 73.5t58.5 173.5v451q-508 53 -508 356q0 150 85 259.5t216 109.5q158 0 256 -137.5t98 -323.5v-151h113v-125l-113 2v-441q0 -162 -102.5 -278.5t-252 -116.5t-251.5 116.5t-102 278.5zM285 1163 q0 -82 56 -135t136 -73.5t197 -28.5v145q0 137 -52.5 237.5t-154.5 100.5q-82 0 -132 -74t-50 -172z" />
<glyph unicode="&#x3d5;" horiz-adv-x="1370" d="M113 537q0 217 143 378.5t356 190.5v364h148v-364q211 -29 354 -190.5t143 -378.5q0 -219 -143 -381t-356 -191l2 -436h-148v436q-213 29 -356 191t-143 381zM260 537q0 -158 100.5 -277t251.5 -145v841q-152 -27 -252 -145t-100 -274zM758 115q152 27 252 145.5 t100 276.5q0 156 -100.5 274.5t-249.5 144.5z" />
<glyph unicode="&#x3d6;" horiz-adv-x="1267" d="M113 553q0 223 116 518h111q-80 -207 -80 -518q0 -82 1 -126t8 -113.5t22.5 -106.5t45.5 -65.5t73 -28.5q139 0 163 221q-12 119 -12 381h148v-119q0 -41 3 -114.5t8 -116.5t16.5 -97.5t26.5 -83t39.5 -50t55.5 -21.5q43 0 73 28.5t45 65.5t22.5 106.5t8.5 113.5t1 126 q0 102 -3.5 177t-13.5 167t-32.5 155.5t-56.5 122t-89 87t-127 28.5q-190 0 -381 -69l-39 100q205 78 420 78q127 0 221 -73t146.5 -197.5t77 -268t24.5 -307.5q0 -596 -297 -596q-160 0 -231 160q-68 -160 -217 -160q-297 0 -297 596z" />
<glyph unicode="&#x3f5;" horiz-adv-x="839" d="M51 516q0 268 112.5 427t303.5 159q258 0 319 -299h-151q-47 139 -182 139q-102 0 -166 -88t-76 -248h348v-141h-348q10 -164 69.5 -251t161.5 -87q127 0 185 141h153q-78 -299 -336 -299q-180 0 -286.5 148.5t-106.5 398.5z" />
<glyph unicode="&#x400;" horiz-adv-x="1099" d="M125 0v1470h876v-178h-712v-448h657v-178h-657v-488h725v-178h-889zM397 1964h183l149 -289h-113z" />
<glyph unicode="&#x401;" horiz-adv-x="1099" d="M125 0v1470h876v-178h-712v-448h657v-178h-657v-488h725v-178h-889zM328 1636v209h153v-209h-153zM598 1636v209h154v-209h-154z" />
<glyph unicode="&#x402;" horiz-adv-x="1292" d="M25 1292v178h817v-178h-326v-418q12 18 99 46t159 28q94 0 186.5 -22.5t169 -87t76.5 -158.5v-680q0 -94 -76.5 -158.5t-169 -87t-186.5 -22.5v168q98 0 183 28.5t85 87.5v648q0 59 -85 87.5t-183 28.5q-96 0 -178 -29.5t-82 -72.5v-678h-162v1292h-327z" />
<glyph unicode="&#x403;" horiz-adv-x="1001" d="M125 0v1470h833v-178h-669v-1292h-164zM172 1593l150 289h182l-219 -289h-113z" />
<glyph unicode="&#x404;" horiz-adv-x="1204" d="M66 733q0 356 152.5 566t410.5 210q281 0 415 -233q59 -100 78 -248h-157q-35 156 -113 225q-90 78 -219 78q-168 0 -270.5 -128t-122.5 -359h567v-178h-571q10 -250 111.5 -388.5t275.5 -138.5q166 0 266 150q55 84 88 252h158q-31 -172 -70 -266.5t-109 -165.5 q-137 -147 -348 -148q-250 0 -396 209t-146 563z" />
<glyph unicode="&#x405;" horiz-adv-x="1120" d="M82 475h154q2 -125 47 -201q86 -143 290 -143q145 0 227.5 66.5t82.5 187.5q0 106 -53.5 158.5t-202.5 95.5l-248 70q-256 72 -256 352q0 182 100 311q111 137 330 137q281 0 393 -204q47 -94 62 -265h-154q-8 106 -47 174q-80 125 -254 125q-129 0 -200.5 -66.5 t-71.5 -187.5q0 -152 141 -190l344 -96q274 -76 274 -396q0 -207 -127 -324.5t-348 -117.5q-264 0 -395 184q-86 119 -88 330z" />
<glyph unicode="&#x406;" horiz-adv-x="436" d="M137 0v1470h162v-1470h-162z" />
<glyph unicode="&#x407;" horiz-adv-x="698" d="M137 1636v209h154v-209h-154zM268 0v1470h164v-1470h-164zM408 1636v209h153v-209h-153z" />
<glyph unicode="&#x408;" horiz-adv-x="839" d="M29 328v145h153v-102q0 -123 45 -181.5t140 -58.5q188 0 188 254v1085h164v-1073q0 -209 -91 -322.5t-259 -113.5q-156 0 -248 99.5t-92 267.5z" />
<glyph unicode="&#x409;" horiz-adv-x="1835" d="M43 0v176q51 0 90 50t62.5 149.5t40 211t23.5 273.5t9 295t2 315h783v-620h377q162 0 260 -119t98 -315q0 -186 -98.5 -301t-259.5 -115h-541v1296h-453q0 -104 -1 -167.5t-4 -180.5t-10 -194.5t-20.5 -186t-33 -180.5t-49 -151.5t-67.5 -127t-91.5 -78t-116.5 -30.5z M1053 170h327q240 0 240 252q0 258 -246 258h-321v-510z" />
<glyph unicode="&#x40a;" horiz-adv-x="1892" d="M125 0v1470h164v-608h629v608h163v-620h377q162 0 260.5 -119t98.5 -315q0 -186 -98.5 -301t-260.5 -115h-540v684h-629v-684h-164zM1081 170h328q240 0 240 252q0 258 -246 258h-322v-510z" />
<glyph unicode="&#x40b;" horiz-adv-x="1292" d="M25 1292v178h817v-178h-326v-418q12 18 99 46t159 28q94 0 186.5 -22.5t169 -87t76.5 -158.5v-680h-164v664q0 59 -85 87.5t-183 28.5q-96 0 -178 -29.5t-82 -72.5v-678h-162v1292h-327z" />
<glyph unicode="&#x40c;" horiz-adv-x="1130" d="M125 0v1470h164v-593h73l512 593h226l-592 -688l604 -782h-211l-557 717h-55v-717h-164zM162 1593l149 289h183l-220 -289h-112z" />
<glyph unicode="&#x40d;" horiz-adv-x="1220" d="M125 0v1470h158v-1194l608 1194h192v-1470h-157v1194l-619 -1194h-182zM438 1964h183l149 -289h-113z" />
<glyph unicode="&#x40e;" horiz-adv-x="1118" d="M23 1470h190l346 -706l346 706h191l-756 -1470h-180l303 610zM315 1798h82l4 -14q39 -147 177 -148q76 0 113.5 36t60.5 126h79q-18 -145 -81.5 -211.5t-182.5 -66.5q-115 0 -176.5 67.5t-75.5 210.5z" />
<glyph unicode="&#x40f;" horiz-adv-x="1218" d="M125 0v1470h164v-1292h629v1292h163v-1470h-397v-246h-164v246h-395z" />
<glyph unicode="&#x410;" horiz-adv-x="1120" d="M23 0l452 1470h187l436 -1470h-178l-119 428h-484l-127 -428h-167zM367 606h374l-180 651z" />
<glyph unicode="&#x411;" horiz-adv-x="1128" d="M125 0v1470h854v-178h-690v-444h295q469 0 469 -410q0 -184 -114 -311t-294 -127h-520zM289 170h348q119 0 185.5 70.5t66.5 197.5q0 250 -281 250h-319v-518z" />
<glyph unicode="&#x412;" horiz-adv-x="1120" d="M125 0v1470h530q154 0 247 -101t93 -269q0 -203 -159 -307q119 -59 168 -139.5t49 -215.5q0 -199 -112 -318.5t-296 -119.5h-520zM289 170h348q119 0 185.5 70.5t66.5 197.5q0 250 -281 250h-319v-518zM289 848h293q127 0 188 57.5t61 175.5q0 113 -60 166t-187 53h-295 v-452z" />
<glyph unicode="&#x413;" horiz-adv-x="1001" d="M125 0v1470h833v-178h-669v-1292h-164z" />
<glyph unicode="&#x414;" horiz-adv-x="1363" d="M43 176h109q51 0 90 50t62.5 149.5t39.5 211t23.5 273.5t9.5 295t2 315h782v-1294h160v-422h-164v246h-950v-246h-164v422zM403 180h594v1116h-452q0 -170 -3 -282.5t-15.5 -286.5t-43.5 -312.5t-80 -234.5z" />
<glyph unicode="&#x415;" horiz-adv-x="1099" d="M125 0v1470h876v-178h-712v-448h657v-178h-657v-488h725v-178h-889z" />
<glyph unicode="&#x416;" horiz-adv-x="1847" d="M18 0l605 782l-592 688h225l512 -593h74v593h164v-593h73l512 593h226l-592 -688l604 -782h-211l-557 717h-55v-717h-164v717h-56l-557 -717h-211z" />
<glyph unicode="&#x417;" horiz-adv-x="1107" d="M86 475h154q2 -125 47 -201q86 -143 291 -143q145 0 227 66.5t82 187.5t-65.5 207t-200.5 86h-242v145h250q96 0 147 84t51 178q0 121 -71.5 187.5t-200.5 66.5q-174 0 -254 -125q-39 -68 -47 -174h-154q14 170 62 265q113 205 393 204q219 0 330 -137q100 -129 100 -311 q0 -199 -127 -293q186 -96 186 -365q0 -207 -126.5 -324.5t-348.5 -117.5q-264 0 -395 184q-86 119 -88 330z" />
<glyph unicode="&#x418;" horiz-adv-x="1220" d="M125 0v1470h158v-1194l608 1194h192v-1470h-157v1194l-619 -1194h-182z" />
<glyph unicode="&#x419;" horiz-adv-x="1220" d="M125 0v1470h158v-1194l608 1194h192v-1470h-157v1194l-619 -1194h-182zM381 1798h82l4 -14q39 -147 176 -148q76 0 114 36t60 126h80q-18 -145 -81.5 -211.5t-182.5 -66.5q-115 0 -176.5 67.5t-75.5 210.5z" />
<glyph unicode="&#x41a;" horiz-adv-x="1130" d="M125 0v1470h164v-593h73l512 593h226l-592 -688l604 -782h-211l-557 717h-55v-717h-164z" />
<glyph unicode="&#x41b;" horiz-adv-x="1189" d="M43 0v176q51 0 90 50t62.5 149.5t40 211t23.5 273.5t9 295t2 315h783v-1470h-164v1296h-453q0 -104 -1 -167.5t-4 -180.5t-10 -194.5t-20.5 -186t-33 -180.5t-49 -151.5t-67.5 -127t-91.5 -78t-116.5 -30.5z" />
<glyph unicode="&#x41c;" horiz-adv-x="1417" d="M125 0v1470h233l347 -1249l344 1249h231v-1470h-158v868v93l4 286l-344 -1247h-159l-344 1245l2 -282l2 -95v-868h-158z" />
<glyph unicode="&#x41d;" horiz-adv-x="1218" d="M125 0v1470h164v-608h629v608h163v-1470h-163v684h-629v-684h-164z" />
<glyph unicode="&#x41e;" horiz-adv-x="1306" d="M66 733q0 367 182 590q152 186 414 186q322 0 483 -321q96 -199 96 -455q0 -356 -182 -586q-147 -186 -405.5 -186t-405.5 186q-182 230 -182 586zM233 733q0 -266 116 -430t304.5 -164t304 164t115.5 432q0 266 -114.5 431t-299.5 165q-195 0 -310.5 -162t-115.5 -436z " />
<glyph unicode="&#x41f;" horiz-adv-x="1218" d="M125 0v1470h956v-1470h-163v1292h-629v-1292h-164z" />
<glyph unicode="&#x420;" horiz-adv-x="1120" d="M125 0v1470h541q162 0 260 -114.5t98 -300.5q0 -197 -98.5 -315.5t-259.5 -118.5h-377v-621h-164zM289 791h321q246 0 246 258q0 252 -240 251h-327v-509z" />
<glyph unicode="&#x421;" horiz-adv-x="1204" d="M66 733q0 356 152.5 566t410.5 210q281 0 415 -233q59 -100 78 -248h-157q-35 156 -113 225q-90 78 -219 78q-186 0 -293 -160.5t-107 -443.5q0 -279 102.5 -433.5t287.5 -154.5q166 0 266 150q55 84 88 252h158q-31 -172 -70 -266.5t-109 -165.5q-137 -147 -348 -148 q-250 0 -396 209t-146 563z" />
<glyph unicode="&#x422;" horiz-adv-x="1030" d="M25 1292v178h981v-178h-408v-1292h-164v1292h-409z" />
<glyph unicode="&#x423;" horiz-adv-x="1122" d="M25 1470h190l346 -706l346 706h191l-756 -1470h-180l303 610z" />
<glyph unicode="&#x424;" horiz-adv-x="1509" d="M70 743q0 156 42 256.5t130 180.5q98 86 193 113.5t239 27.5v149h162v-149q141 0 240.5 -27.5t189.5 -113.5q102 -96 138 -187.5t36 -249.5q0 -276 -172 -413q-115 -92 -206 -134t-226 -42v-154h-162v154q-283 0 -443 172q-161 173 -161 417zM248 741 q0 -190 103.5 -304.5t322.5 -114.5v829q-221 0 -323.5 -113t-102.5 -297zM836 322q223 0 324.5 115.5t101.5 304t-101.5 299t-324.5 110.5v-829z" />
<glyph unicode="&#x425;" horiz-adv-x="1103" d="M25 0l430 754l-404 716h205l305 -563l305 563h195l-404 -716l422 -754h-200l-324 604l-334 -604h-196z" />
<glyph unicode="&#x426;" horiz-adv-x="1320" d="M125 0v1470h164v-1292h629v1292h163v-1294h197v-422h-164v246h-989z" />
<glyph unicode="&#x427;" horiz-adv-x="1120" d="M127 791v679h164v-663q0 -59 85 -88t183 -29q96 0 178 30t82 73v677h164v-1470h-164v596q-12 -18 -100 -46t-160 -28q-94 0 -186 22.5t-169 87.5t-77 159z" />
<glyph unicode="&#x428;" horiz-adv-x="1429" d="M125 0v1470h164v-1292l338 2v1290h164v-1292h337v1292h164v-1470h-1167z" />
<glyph unicode="&#x429;" horiz-adv-x="1531" d="M125 0v1470h164v-1292l338 2v1290h164v-1292h337v1292h164v-1294h197v-422h-164v246h-1200z" />
<glyph unicode="&#x42a;" horiz-adv-x="1456" d="M25 1292v178h620v-620h377q162 0 260 -119t98 -315q0 -186 -98 -301t-260 -115h-541v1292h-456zM645 170h328q240 0 239 252q0 258 -245 258h-322v-510z" />
<glyph unicode="&#x42b;" horiz-adv-x="1603" d="M125 0v1470h164v-620h377q162 0 260 -119t98 -315q0 -186 -98.5 -301t-259.5 -115h-541zM289 170h327q240 0 240 252q0 258 -246 258h-321v-510zM1305 0v1470h161v-1470h-161z" />
<glyph unicode="&#x42c;" horiz-adv-x="1099" d="M125 0v1470h164v-620h377q162 0 260 -119t98 -315q0 -186 -98.5 -301t-259.5 -115h-541zM289 170h327q240 0 240 252q0 258 -246 258h-321v-510z" />
<glyph unicode="&#x42d;" horiz-adv-x="1208" d="M66 541h157q33 -168 88 -252q100 -150 267 -150q174 0 275 138.5t112 388.5h-572v178h568q-20 231 -123 359t-271 128q-129 0 -219 -78q-78 -70 -112 -225h-158q18 147 78 248q135 233 415 233q258 0 411 -209.5t153 -566.5q0 -354 -146.5 -563t-396.5 -209 q-211 0 -348 148q-70 72 -108.5 166t-69.5 266z" />
<glyph unicode="&#x42e;" horiz-adv-x="1869" d="M125 0v1470h164v-608h346q31 281 176 461q152 186 414 186q324 0 483 -321q96 -199 96 -455q0 -356 -182 -586q-147 -186 -405.5 -186t-405.5 186q-168 211 -180 537h-342v-684h-164zM797 733q0 -266 115.5 -430t304 -164t304 164t115.5 432q0 266 -114.5 431t-298.5 165 q-195 0 -310.5 -162t-115.5 -436z" />
<glyph unicode="&#x42f;" horiz-adv-x="1134" d="M86 0l479 623h-108q-162 -2 -260.5 116.5t-98.5 315.5q0 186 98.5 300.5t260.5 114.5h540v-1470h-163v621h-58l-479 -621h-211zM266 1049q0 -258 246 -258h322v509h-328q-240 1 -240 -251z" />
<glyph unicode="&#x430;" d="M61 283q0 139 70 225t197 106l243 37q78 12 78 123q0 178 -203 178q-96 0 -144 -47t-62 -160h-136q8 141 54 216q88 141 299 141q158 0 247 -80t89 -219v-617q0 -63 47 -63q10 0 51 8v-131l-19 -6q-41 -14 -67 -14q-76 0 -109.5 37.5t-42.5 125.5q-72 -92 -144.5 -133 t-166.5 -41q-127 0 -204 86.5t-77 227.5zM215 299q0 -86 41 -133t117 -47q111 0 191.5 74.5t80.5 177.5v176q-23 -20 -68 -32.5t-174 -35.5q-100 -16 -144 -58t-44 -122z" />
<glyph unicode="&#x431;" horiz-adv-x="905" d="M52 612.5q-1 69.5 0 107.5t5 119t13.5 133t28 124.5t43 122t64.5 95.5t91 70q55 29 181 44.5t192 46.5q74 33 73 114h115q0 -154 -98 -209q-76 -43 -198 -68.5t-159 -37.5q-25 -8 -50 -28.5t-44.5 -46t-37 -54.5t-28.5 -55l-20 -48q-8 -20 -8 -30.5t4 -5.5q102 96 248 96 q176 0 288.5 -159t112.5 -406q0 -250 -113.5 -408t-293.5 -158t-294 158t-114 408q0 6 -1 75.5zM207 537q0 -186 69.5 -297t184 -111t184.5 110.5t70 297.5q0 184 -68.5 295.5t-181.5 111.5q-119 0 -188.5 -109.5t-69.5 -297.5z" />
<glyph unicode="&#x432;" horiz-adv-x="909" d="M111 0v1071h368q152 0 240 -76.5t88 -201.5q0 -160 -148 -215q121 -43 161 -90.5t40 -157.5q0 -147 -104.5 -238.5t-286.5 -91.5h-358zM250 143h211q121 0 186.5 47.5t65.5 139.5q0 88 -67.5 125t-213.5 37h-182v-349zM250 627h156q131 0 190 33.5t59 117.5q0 82 -59 117 t-188 35h-158v-303z" />
<glyph unicode="&#x433;" horiz-adv-x="690" d="M104 0v1071h562v-149h-414v-922h-148z" />
<glyph unicode="&#x434;" horiz-adv-x="1097" d="M43 135h125q59 0 109.5 292t50.5 644h590v-936h137v-391h-142v256h-729v-256h-141v391zM367 141h403v789h-295q7 -564 -108 -789z" />
<glyph unicode="&#x435;" d="M68 516q0 268 112.5 427t302.5 159q209 0 308 -207q39 -80 55 -170t20 -248h-641q6 -160 51 -237q66 -113 199 -113q90 0 155.5 59.5t76.5 149.5h147q-29 -174 -130 -270.5t-253 -96.5q-186 0 -294.5 146.5t-108.5 400.5zM225 621h488q-10 143 -56 219q-63 102 -180 102 q-106 0 -176 -89t-76 -232z" />
<glyph unicode="&#x436;" horiz-adv-x="1347" d="M16 0l482 537l-461 534h186l379 -453v453h143v-453l379 453h187l-461 -534l481 -537h-190l-396 428v-428h-143v428l-395 -428h-191z" />
<glyph unicode="&#x437;" horiz-adv-x="839" d="M49 344h144q8 -115 61 -166t166 -51q96 0 151.5 45t55.5 123q0 76 -40 136.5t-134 60.5h-142v141h119q158 0 158 160q0 70 -49.5 110.5t-132.5 40.5q-190 0 -199 -178h-144q10 162 96.5 249t235.5 87q152 0 244 -92t92 -246q0 -133 -86 -203q129 -74 129 -239 q0 -162 -98 -257.5t-266 -95.5q-227 0 -314 162q-39 70 -47 213z" />
<glyph unicode="&#x438;" horiz-adv-x="931" d="M109 0v1071h147v-885l381 885h188v-1071h-147v874l-381 -874h-188z" />
<glyph unicode="&#x439;" horiz-adv-x="931" d="M109 0v1071h147v-885l381 885h188v-1071h-147v874l-381 -874h-188zM244 1518h82l4 -15q39 -147 176 -147q76 0 113.5 35.5t60.5 126.5h80q-18 -145 -82 -212t-182 -67q-115 0 -176.5 68t-75.5 211z" />
<glyph unicode="&#x43a;" horiz-adv-x="854" d="M109 0v1071h143v-453l379 453h186l-461 -534l482 -537h-191l-397 428v-428h-141z" />
<glyph unicode="&#x43b;" horiz-adv-x="899" d="M43 0v143q160 0 160 928h590v-1071h-148v930h-295q0 -109 -1 -183.5t-9 -197.5t-27.5 -207t-52.5 -169t-88 -129t-129 -44z" />
<glyph unicode="&#x43c;" horiz-adv-x="1103" d="M109 0v1071h215l229 -878l229 878h215v-1071h-147v725l-217 -725h-160l-217 725v-725h-147z" />
<glyph unicode="&#x43d;" horiz-adv-x="931" d="M109 0v1071h147v-422h422v422h147v-1071h-147v506h-422v-506h-147z" />
<glyph unicode="&#x43e;" d="M59 537q0 254 114 409.5t300 155.5q176 0 288.5 -159t112.5 -406q0 -250 -113.5 -408t-293.5 -158t-294 158t-114 408zM213 537q0 -186 69.5 -297t184.5 -111t184.5 110.5t69.5 297.5q0 184 -68.5 295.5t-181.5 111.5q-119 0 -188.5 -109.5t-69.5 -297.5z" />
<glyph unicode="&#x43f;" horiz-adv-x="931" d="M109 0v1071h716v-1071h-147v930h-422v-930h-147z" />
<glyph unicode="&#x440;" d="M98 -424v1495h140v-158q57 104 117.5 146.5t150.5 42.5q162 0 262 -148.5t100 -392.5q0 -268 -104.5 -430t-278.5 -162q-154 0 -239 150v-543h-148zM240 502q0 -174 64.5 -274.5t174.5 -100.5q113 0 174.5 112.5t61.5 315.5q0 188 -59.5 287.5t-174.5 99.5 q-241 0 -241 -440z" />
<glyph unicode="&#x441;" horiz-adv-x="839" d="M51 516q0 268 112.5 427t303.5 159q295 0 334 -391h-144q-18 121 -67 176t-137 55q-115 0 -179.5 -108.5t-64.5 -303t60.5 -299t172.5 -104.5q168 0 215 252h144q-53 -410 -357 -410q-180 0 -286.5 148.5t-106.5 398.5z" />
<glyph unicode="&#x442;" horiz-adv-x="688" d="M25 922v149h639v-149h-246v-922h-148v922h-245z" />
<glyph unicode="&#x443;" horiz-adv-x="837" d="M16 1071h166l236 -878l237 878h164l-317 -1051q-53 -172 -82 -251.5t-68 -133t-75.5 -63.5t-108.5 -10q-27 0 -59 12l-13 4v164q43 -18 90 -18q45 0 70 27.5t49 109.5l37 110z" />
<glyph unicode="&#x444;" horiz-adv-x="1531" d="M66 561q0 244 100 392.5t262 148.5q90 0 150.5 -42t117.5 -147v373h140v-373q57 104 117.5 146.5t150.5 42.5q162 0 262 -148.5t100 -392.5q0 -268 -104.5 -430t-278.5 -162q-154 0 -239 150v-543h-156v543q-86 -150 -239 -150q-174 0 -278.5 162t-104.5 430zM219 555 q0 -203 61.5 -315.5t174.5 -112.5q111 0 175 100.5t64 274.5q0 440 -241 440q-115 0 -174.5 -99.5t-59.5 -287.5zM838 502q0 -174 64.5 -274.5t174.5 -100.5q113 0 174.5 112.5t61.5 315.5q0 188 -59.5 287.5t-174.5 99.5q-241 0 -241 -440z" />
<glyph unicode="&#x445;" horiz-adv-x="839" d="M16 0l310 551l-295 520h190l203 -377l205 377h180l-297 -520l309 -551h-188l-219 403l-211 -403h-187z" />
<glyph unicode="&#x446;" horiz-adv-x="1026" d="M109 0v1071h147v-930h422v930h147v-936h158v-391h-141v256h-733z" />
<glyph unicode="&#x447;" horiz-adv-x="831" d="M109 559v512h147v-496q0 -76 178 -75q57 0 117.5 21.5t60.5 60.5v489h148v-1071h-148v406q-16 -18 -77.5 -34t-108.5 -16q-76 0 -141.5 15.5t-120.5 63.5t-55 124z" />
<glyph unicode="&#x448;" horiz-adv-x="1206" d="M109 0v1071h147v-930h274v930h148v-930h274v930h148v-1071h-991z" />
<glyph unicode="&#x449;" horiz-adv-x="1300" d="M109 0v1071h147v-930h274v930h148v-930h274v930h148v-936h157v-391h-141v256h-1007z" />
<glyph unicode="&#x44a;" horiz-adv-x="1048" d="M35 930v141h373v-444h258q166 0 259 -88t93 -209q0 -147 -104.5 -238.5t-286.5 -91.5h-359v930h-233zM408 143h210q121 0 186.5 47.5t65.5 139.5q0 88 -67.5 125t-212.5 37h-182v-349z" />
<glyph unicode="&#x44b;" horiz-adv-x="1198" d="M109 0v1071h139v-444h258q166 0 259 -88t93 -209q0 -147 -104.5 -238.5t-286.5 -91.5h-358zM248 143h211q121 0 186.5 47.5t65.5 139.5q0 88 -68 125t-213 37h-182v-349zM944 0v1071h148v-1071h-148z" />
<glyph unicode="&#x44c;" horiz-adv-x="909" d="M109 0v1071h139v-444h258q166 0 259 -88t93 -209q0 -147 -104.5 -238.5t-286.5 -91.5h-358zM248 143h211q121 0 186.5 47.5t65.5 139.5q0 88 -68 125t-213 37h-182v-349z" />
<glyph unicode="&#x44d;" horiz-adv-x="839" d="M51 379h144q47 -252 215 -252q106 0 167.5 98.5t65.5 280.5h-340v143h332q-39 293 -236 293q-88 0 -137 -55.5t-67 -175.5h-144q39 391 334 391q190 0 303 -159t113 -427q0 -250 -106.5 -398.5t-286.5 -148.5q-304 0 -357 410z" />
<glyph unicode="&#x44e;" horiz-adv-x="1366" d="M109 0v1071h147v-422h242q25 209 134 331t273 122q176 0 289 -159t113 -406q0 -250 -114 -408t-294 -158q-174 0 -285.5 148.5t-119.5 386.5h-238v-506h-147zM645 537q0 -186 69.5 -297t184.5 -111t184.5 110.5t69.5 297.5q0 184 -68.5 295.5t-181.5 111.5 q-119 0 -188.5 -109.5t-69.5 -297.5z" />
<glyph unicode="&#x44f;" horiz-adv-x="915" d="M49 0l408 446q-168 0 -267.5 88.5t-99.5 208.5q0 147 104.5 237.5t286.5 90.5h359v-1071h-140v446h-43l-417 -446h-191zM238 743q0 -88 67.5 -124.5t212.5 -36.5h182v348h-211q-121 0 -186 -47.5t-65 -139.5z" />
<glyph unicode="&#x450;" d="M68 516q0 268 112.5 427t302.5 159q209 0 308 -207q39 -80 55 -170t20 -248h-641q6 -160 51 -237q66 -113 199 -113q90 0 155.5 59.5t76.5 149.5h147q-29 -174 -130 -270.5t-253 -96.5q-186 0 -294.5 146.5t-108.5 400.5zM225 621h488q-10 143 -56 219q-63 102 -180 102 q-106 0 -176 -89t-76 -232zM379 1565h182l150 -289h-113z" />
<glyph unicode="&#x451;" d="M68 516q0 268 112.5 427t302.5 159q209 0 308 -207q39 -80 55 -170t20 -248h-641q6 -160 51 -237q66 -113 199 -113q90 0 155.5 59.5t76.5 149.5h147q-29 -174 -130 -270.5t-253 -96.5q-186 0 -294.5 146.5t-108.5 400.5zM225 621h488q-10 143 -56 219q-63 102 -180 102 q-106 0 -176 -89t-76 -232zM256 1237v209h154v-209h-154zM526 1237v209h154v-209h-154z" />
<glyph unicode="&#x452;" horiz-adv-x="1013" d="M25 1126v150h161v194h150v-194h328v-150h-328v-335q63 100 123.5 139t148.5 39q139 0 218 -98.5t79 -274.5v-530q0 -373 -319 -373v160q90 0 131 57t41 184v473q0 127 -41 184.5t-131 57.5q-119 0 -184.5 -94t-65.5 -264v-451h-148v1126h-163z" />
<glyph unicode="&#x453;" horiz-adv-x="690" d="M104 0v1071h562v-149h-414v-922h-148zM328 1225l151 288h180l-217 -288h-114z" />
<glyph unicode="&#x454;" horiz-adv-x="872" d="M59 516q0 268 113 427t303 159q295 0 334 -391h-143q-18 121 -67.5 176t-137.5 55q-197 0 -236 -293h332v-143h-340q4 -182 65.5 -280.5t168.5 -98.5q168 0 215 252h143q-53 -410 -356 -410q-180 0 -287 148.5t-107 398.5z" />
<glyph unicode="&#x455;" horiz-adv-x="839" d="M53 344h144q8 -115 61 -166t166 -51q96 0 151.5 45t55.5 123q0 59 -36 91t-138 63l-172 51q-203 61 -203 264q0 154 92 246t244 92q150 0 235.5 -87t96.5 -249h-144q-8 178 -198 178q-84 0 -133.5 -41t-49.5 -110q0 -57 31 -85t127 -57l149 -45q133 -41 189.5 -106.5 t56.5 -177.5q0 -162 -98 -257.5t-266 -95.5q-227 0 -314 162q-39 70 -47 213z" />
<glyph unicode="&#x456;" horiz-adv-x="372" d="M113 0v1071h147v-1071h-147zM113 1266v204h147v-204h-147z" />
<glyph unicode="&#x457;" horiz-adv-x="649" d="M113 1237v209h153v-209h-153zM250 0v1071h147v-1071h-147zM383 1237v209h154v-209h-154z" />
<glyph unicode="&#x458;" horiz-adv-x="372" d="M-27 -268h31q70 0 89.5 23.5t19.5 107.5v1208h147v-1229q0 -139 -53 -205.5t-166 -66.5q-31 0 -68 6v156zM113 1266v204h147v-204h-147z" />
<glyph unicode="&#x459;" horiz-adv-x="1452" d="M43 0v143q160 0 160 928h588v-444h258q166 0 259 -88t93 -209q0 -147 -104.5 -238.5t-286.5 -91.5h-365v930h-295q0 -109 -1 -183.5t-9 -197.5t-27.5 -207t-52.5 -169t-88 -129t-129 -44zM791 143h210q121 0 186.5 47.5t65.5 139.5q0 88 -67.5 125t-212.5 37h-182v-349z " />
<glyph unicode="&#x45a;" horiz-adv-x="1478" d="M109 0v1071h147v-422h422v422h139v-444h258q166 0 259 -88t93 -209q0 -147 -104 -238.5t-287 -91.5h-358v506h-422v-506h-147zM817 143h211q121 0 186.5 47.5t65.5 139.5q0 88 -67.5 125t-213.5 37h-182v-349z" />
<glyph unicode="&#x45b;" horiz-adv-x="1013" d="M25 1126v150h163v194h148v-194h328v-150h-328v-335q63 100 123.5 139t148.5 39q139 0 218 -98.5t79 -274.5v-596h-147v567q0 127 -41 184.5t-131 57.5q-119 0 -184.5 -94t-65.5 -264v-451h-148v1126h-163z" />
<glyph unicode="&#x45c;" horiz-adv-x="854" d="M109 0v1071h143v-453l379 453h186l-461 -534l482 -537h-191l-397 428v-428h-141zM406 1225l151 288h180l-217 -288h-114z" />
<glyph unicode="&#x45d;" horiz-adv-x="931" d="M109 0v1071h147v-885l381 885h188v-1071h-147v874l-381 -874h-188zM193 1513h180l151 -288h-114z" />
<glyph unicode="&#x45e;" horiz-adv-x="851" d="M25 1071h165l236 -878l238 878h163l-317 -1051q-53 -172 -82 -251.5t-67.5 -133t-75.5 -63.5t-109 -10q-27 0 -59 12l-13 4v164q43 -18 91 -18q45 0 69.5 27.5t48.5 109.5l37 110zM180 1518h82l4 -15q39 -147 176 -147q76 0 114 35.5t60 126.5h80q-18 -145 -81.5 -212 t-182.5 -67q-115 0 -176.5 68t-75.5 211z" />
<glyph unicode="&#x45f;" horiz-adv-x="931" d="M109 0v1071h147v-930h422v930h147v-1071h-288v-256h-142v256h-286z" />
<glyph unicode="&#x48c;" horiz-adv-x="1099" d="M16 1169v117h109v184h164v-184h131v-117h-131v-319h377q162 0 260 -119t98 -315q0 -186 -98.5 -301t-259.5 -115h-541v1169h-109zM289 170h327q240 0 240 252q0 258 -246 258h-321v-510z" />
<glyph unicode="&#x48d;" horiz-adv-x="909" d="M14 819v117h95v135h139v-135h88v-117h-88v-192h258q166 0 259 -88t93 -209q0 -147 -104.5 -238.5t-286.5 -91.5h-358v819h-95zM248 143h211q121 0 186.5 47.5t65.5 139.5q0 88 -68 125t-213 37h-182v-349z" />
<glyph unicode="&#x48e;" horiz-adv-x="1120" d="M125 0v1470h541q162 0 260 -114.5t98 -300.5q0 -197 -98.5 -315.5t-259.5 -118.5h-377v-621h-164zM289 791h321q246 0 246 258q0 252 -240 251h-327v-509z" />
<glyph unicode="&#x48f;" d="M98 -424v1495h140v-158q57 104 117.5 146.5t150.5 42.5q162 0 262 -148.5t100 -392.5q0 -268 -104.5 -430t-278.5 -162q-154 0 -239 150v-543h-148zM240 502q0 -174 64.5 -274.5t174.5 -100.5q113 0 174.5 112.5t61.5 315.5q0 188 -59.5 287.5t-174.5 99.5 q-241 0 -241 -440z" />
<glyph unicode="&#x490;" horiz-adv-x="1021" d="M137 0v1470h674v166h160v-344h-670v-1292h-164z" />
<glyph unicode="&#x491;" horiz-adv-x="704" d="M113 0v1071h428v139h133v-288h-414v-922h-147z" />
<glyph unicode="&#x492;" horiz-adv-x="1001" d="M0 948v123h125v399h833v-178h-669v-221h356v-123h-356v-948h-164v948h-125z" />
<glyph unicode="&#x493;" horiz-adv-x="690" d="M0 635v137h104v299h562v-149h-414v-150h219v-137h-219v-635h-148v635h-104z" />
<glyph unicode="&#x494;" horiz-adv-x="1112" d="M125 0v1470h833v-178h-669v-418q23 27 104.5 50.5t159.5 23.5q94 0 186 -22.5t169 -87t77 -158.5v-680q0 -94 -77 -158.5t-169 -87t-186 -22.5v168q98 0 183 28.5t85 87.5v648q0 59 -85 87.5t-183 28.5q-96 0 -178 -29.5t-82 -72.5v-678h-168z" />
<glyph unicode="&#x495;" horiz-adv-x="690" d="M104 0v1071h562v-149h-414v-922h-148z" />
<glyph unicode="&#x496;" horiz-adv-x="1847" d="M18 0l605 782l-592 688h225l512 -593h74v593h164v-593h73l512 593h226l-592 -688l467 -606h137v-422h-164v246h-47l-557 717h-55v-717h-164v717h-56l-557 -717h-211z" />
<glyph unicode="&#x497;" horiz-adv-x="1347" d="M16 0l482 537l-461 534h186l379 -453v453h143v-453l379 453h187l-461 -534l360 -402h121v-391h-141v256h-49l-396 428v-428h-143v428l-395 -428h-191z" />
<glyph unicode="&#x498;" horiz-adv-x="1107" d="M86 475h154q2 -125 47 -201q86 -143 291 -143q145 0 227 66.5t82 187.5q0 123 -62.5 208t-203.5 85h-242v145h250q96 0 147 84t51 178q0 121 -71.5 187.5t-200.5 66.5q-174 0 -254 -125q-39 -68 -47 -174h-154q14 170 62 265q113 205 393 204q219 0 330 -137 q100 -129 100 -311q0 -199 -127 -293q186 -96 186 -365q0 -207 -126.5 -324.5t-348.5 -117.5q-264 0 -395 184q-86 119 -88 330z" />
<glyph unicode="&#x499;" horiz-adv-x="839" d="M49 344h144q8 -115 61 -166t166 -51q96 0 151.5 45t55.5 123q0 76 -40 136.5t-134 60.5h-142v141h119q158 0 158 160q0 70 -49.5 110.5t-132.5 40.5q-190 0 -199 -178h-144q10 162 96.5 249t235.5 87q152 0 244 -92t92 -246q0 -133 -86 -203q129 -74 129 -239 q0 -162 -98 -257.5t-266 -95.5q-227 0 -314 162q-39 70 -47 213z" />
<glyph unicode="&#x49a;" horiz-adv-x="1130" d="M125 0v1470h164v-593h73l512 593h226l-592 -688l467 -606h137v-422h-164v246h-47l-557 717h-55v-717h-164z" />
<glyph unicode="&#x49b;" horiz-adv-x="854" d="M109 0v1071h143v-453l379 453h186l-461 -534l361 -402h121v-391h-142v256h-49l-397 428v-428h-141z" />
<glyph unicode="&#x49c;" horiz-adv-x="1130" d="M125 0v1470h164v-593h73l512 593h226l-592 -688l604 -782h-211l-557 717h-55v-717h-164z" />
<glyph unicode="&#x49d;" horiz-adv-x="854" d="M109 0v1071h143v-453l379 453h186l-461 -534l482 -537h-191l-397 428v-428h-141z" />
<glyph unicode="&#x49e;" horiz-adv-x="1130" d="M125 0v1470h164v-593h73l512 593h226l-592 -688l604 -782h-211l-557 717h-55v-717h-164z" />
<glyph unicode="&#x49f;" horiz-adv-x="854" d="M109 0v1071h143v-453l379 453h186l-461 -534l482 -537h-191l-397 428v-428h-141z" />
<glyph unicode="&#x4a0;" horiz-adv-x="1130" d="M125 0v1470h164v-593h73l512 593h226l-592 -688l604 -782h-211l-557 717h-55v-717h-164z" />
<glyph unicode="&#x4a1;" horiz-adv-x="854" d="M109 0v1071h143v-453l379 453h186l-461 -534l482 -537h-191l-397 428v-428h-141z" />
<glyph unicode="&#x4a2;" horiz-adv-x="1218" d="M125 0v1470h164v-608h629v608h163v-1294h146v-422h-164v246h-145v684h-629v-684h-164z" />
<glyph unicode="&#x4a3;" horiz-adv-x="931" d="M109 0v1071h147v-422h422v422h147v-936h107v-391h-141v256h-113v506h-422v-506h-147z" />
<glyph unicode="&#x4a4;" horiz-adv-x="1218" d="M125 0v1470h164v-608h629v608h163v-1470h-163v684h-629v-684h-164z" />
<glyph unicode="&#x4a5;" horiz-adv-x="931" d="M109 0v1071h147v-422h422v422h147v-1071h-147v506h-422v-506h-147z" />
<glyph unicode="&#x4a6;" horiz-adv-x="1218" d="M125 0v1470h956v-1470h-163v1292h-629v-1292h-164z" />
<glyph unicode="&#x4a7;" horiz-adv-x="931" d="M109 0v1071h716v-1071h-147v930h-422v-930h-147z" />
<glyph unicode="&#x4a8;" horiz-adv-x="1204" d="M66 733q0 356 152.5 566t410.5 210q281 0 415 -233q59 -100 78 -248h-157q-35 156 -113 225q-90 78 -219 78q-186 0 -293 -160.5t-107 -443.5q0 -279 102.5 -433.5t287.5 -154.5q166 0 266 150q55 84 88 252h158q-31 -172 -70 -266.5t-109 -165.5q-137 -147 -348 -148 q-250 0 -396 209t-146 563z" />
<glyph unicode="&#x4a9;" horiz-adv-x="839" d="M51 516q0 268 112.5 427t303.5 159q295 0 334 -391h-144q-18 121 -67 176t-137 55q-115 0 -179.5 -108.5t-64.5 -303t60.5 -299t172.5 -104.5q168 0 215 252h144q-53 -410 -357 -410q-180 0 -286.5 148.5t-106.5 398.5z" />
<glyph unicode="&#x4aa;" horiz-adv-x="1204" d="M66 733q0 356 152.5 566t410.5 210q281 0 415 -233q59 -100 78 -248h-157q-35 156 -113 225q-90 78 -219 78q-186 0 -293 -160.5t-107 -443.5q0 -279 102.5 -433.5t287.5 -154.5q166 0 266 150q55 84 88 252h158q-31 -172 -70 -266.5t-109 -165.5q-137 -147 -348 -148 q-250 0 -396 209t-146 563z" />
<glyph unicode="&#x4ab;" horiz-adv-x="839" d="M51 516q0 268 112.5 427t303.5 159q295 0 334 -391h-144q-18 121 -67 176t-137 55q-115 0 -179.5 -108.5t-64.5 -303t60.5 -299t172.5 -104.5q168 0 215 252h144q-53 -410 -357 -410q-180 0 -286.5 148.5t-106.5 398.5z" />
<glyph unicode="&#x4ac;" horiz-adv-x="1030" d="M25 1292v178h981v-178h-408v-1116h145v-422h-163v246h-146v1292h-409z" />
<glyph unicode="&#x4ad;" horiz-adv-x="688" d="M25 922v149h639v-149h-246v-787h106v-391h-141v256h-113v922h-245z" />
<glyph unicode="&#x4ae;" horiz-adv-x="1120" d="M23 1470h190l346 -706l346 706h191l-455 -878v-592h-164v592z" />
<glyph unicode="&#x4af;" horiz-adv-x="1120" d="M84 1071h190l285 -706l285 706h190l-393 -881v-589h-164v589z" />
<glyph unicode="&#x4b0;" horiz-adv-x="1120" d="M23 1470h190l346 -706l346 706h191l-455 -878v-33h389v-129h-389v-430h-164v430h-389v129h389v33z" />
<glyph unicode="&#x4b1;" horiz-adv-x="1120" d="M84 1071h190l285 -706l285 706h190l-393 -878h348v-148h-348v-444h-164v444h-348v148h348z" />
<glyph unicode="&#x4b2;" horiz-adv-x="1103" d="M25 0l430 754l-404 716h205l305 -563l305 563h195l-404 -716l324 -578h98v-422h-164v246h-36l-324 604l-334 -604h-196z" />
<glyph unicode="&#x4b3;" horiz-adv-x="839" d="M16 0l310 551l-295 520h190l203 -377l205 377h180l-297 -520l233 -416h76v-391h-141v256h-47l-219 403l-211 -403h-187z" />
<glyph unicode="&#x4b4;" horiz-adv-x="1320" d="M125 0v1470h164v-1292h629v1292h163v-1294h197v-422h-164v246h-989z" />
<glyph unicode="&#x4b5;" horiz-adv-x="1026" d="M109 0v1071h147v-930h422v930h147v-936h158v-391h-141v256h-733z" />
<glyph unicode="&#x4b6;" horiz-adv-x="1120" d="M127 791v679h164v-663q0 -59 85 -88t183 -29q96 0 178 30t82 73v677h164v-1470h-164v596q-12 -18 -100 -46t-160 -28q-94 0 -186 22.5t-169 87.5t-77 159z" />
<glyph unicode="&#x4b7;" horiz-adv-x="831" d="M109 559v512h147v-496q0 -76 178 -75q57 0 117.5 21.5t60.5 60.5v489h148v-1071h-148v406q-16 -18 -77.5 -34t-108.5 -16q-76 0 -141.5 15.5t-120.5 63.5t-55 124z" />
<glyph unicode="&#x4b8;" horiz-adv-x="1120" d="M127 791v679h164v-663q0 -59 85 -88t183 -29q96 0 178 30t82 73v677h164v-1470h-164v596q-12 -18 -100 -46t-160 -28q-94 0 -186 22.5t-169 87.5t-77 159z" />
<glyph unicode="&#x4b9;" horiz-adv-x="831" d="M109 559v512h147v-496q0 -76 178 -75q57 0 117.5 21.5t60.5 60.5v489h148v-1071h-148v406q-16 -18 -77.5 -34t-108.5 -16q-76 0 -141.5 15.5t-120.5 63.5t-55 124z" />
<glyph unicode="&#x4ba;" horiz-adv-x="1120" d="M127 0v1470h164v-596q12 18 100 46t160 28q94 0 186 -22.5t169 -87t77 -158.5v-680h-164v664q0 59 -85 87.5t-183 28.5q-96 0 -178 -29.5t-82 -72.5v-678h-164z" />
<glyph unicode="&#x4bb;" horiz-adv-x="831" d="M109 0v1071h147v-401q16 18 77.5 33.5t108.5 15.5q76 0 141.5 -15.5t121 -63.5t55.5 -124v-516h-148v500q0 76 -178 75q-57 0 -117.5 -21.5t-60.5 -59.5v-494h-147z" />
<glyph unicode="&#x4bc;" horiz-adv-x="1204" d="M66 733q0 356 152.5 566t410.5 210q281 0 415 -233q59 -100 78 -248h-157q-35 156 -113 225q-90 78 -219 78q-186 0 -293 -160.5t-107 -443.5q0 -279 102.5 -433.5t287.5 -154.5q166 0 266 150q55 84 88 252h158q-31 -172 -70 -266.5t-109 -165.5q-137 -147 -348 -148 q-250 0 -396 209t-146 563z" />
<glyph unicode="&#x4bd;" horiz-adv-x="839" d="M51 516q0 268 112.5 427t303.5 159q295 0 334 -391h-144q-18 121 -67 176t-137 55q-115 0 -179.5 -108.5t-64.5 -303t60.5 -299t172.5 -104.5q168 0 215 252h144q-53 -410 -357 -410q-180 0 -286.5 148.5t-106.5 398.5z" />
<glyph unicode="&#x4be;" horiz-adv-x="1204" d="M66 733q0 356 152.5 566t410.5 210q281 0 415 -233q59 -100 78 -248h-157q-35 156 -113 225q-90 78 -219 78q-186 0 -293 -160.5t-107 -443.5q0 -279 102.5 -433.5t287.5 -154.5q166 0 266 150q55 84 88 252h158q-31 -172 -70 -266.5t-109 -165.5q-137 -147 -348 -148 q-250 0 -396 209t-146 563z" />
<glyph unicode="&#x4bf;" horiz-adv-x="839" d="M51 516q0 268 112.5 427t303.5 159q295 0 334 -391h-144q-18 121 -67 176t-137 55q-115 0 -179.5 -108.5t-64.5 -303t60.5 -299t172.5 -104.5q168 0 215 252h144q-53 -410 -357 -410q-180 0 -286.5 148.5t-106.5 398.5z" />
<glyph unicode="&#x4c0;" horiz-adv-x="466" d="M154 0v1470h161v-1470h-161z" />
<glyph unicode="&#x4c1;" horiz-adv-x="1847" d="M18 0l605 782l-592 688h225l512 -593h74v593h164v-593h73l512 593h226l-592 -688l604 -782h-211l-557 717h-55v-717h-164v717h-56l-557 -717h-211zM666 1954h82l4 -15q39 -147 176 -147q76 0 113.5 36t60.5 126h80q-18 -145 -82 -212t-182 -67q-115 0 -176.5 68 t-75.5 211z" />
<glyph unicode="&#x4c2;" horiz-adv-x="1347" d="M16 0l482 537l-461 534h186l379 -453v453h143v-453l379 453h187l-461 -534l481 -537h-190l-396 428v-428h-143v428l-395 -428h-191zM416 1554h82l4 -14q39 -147 176 -147q76 0 113.5 35.5t60.5 125.5h80q-18 -145 -82 -211.5t-182 -66.5q-115 0 -176.5 67.5t-75.5 210.5z " />
<glyph unicode="&#x4c3;" horiz-adv-x="1130" d="M125 0v1470h164v-593h73l512 593h226l-592 -688l604 -782h-211l-557 717h-55v-717h-164z" />
<glyph unicode="&#x4c4;" horiz-adv-x="854" d="M109 0v1071h143v-453l379 453h186l-461 -534l482 -537h-191l-397 428v-428h-141z" />
<glyph unicode="&#x4c7;" horiz-adv-x="1218" d="M125 0v1470h164v-608h629v608h163v-1470h-163v684h-629v-684h-164z" />
<glyph unicode="&#x4c8;" horiz-adv-x="931" d="M109 0v1071h147v-422h422v422h147v-1071h-147v506h-422v-506h-147z" />
<glyph unicode="&#x4cb;" horiz-adv-x="1120" d="M127 791v679h164v-663q0 -59 85 -88t183 -29q96 0 178 30t82 73v677h164v-1470h-164v596q-12 -18 -100 -46t-160 -28q-94 0 -186 22.5t-169 87.5t-77 159z" />
<glyph unicode="&#x4cc;" horiz-adv-x="831" d="M109 559v512h147v-496q0 -76 178 -75q57 0 117.5 21.5t60.5 60.5v489h148v-1071h-148v406q-16 -18 -77.5 -34t-108.5 -16q-76 0 -141.5 15.5t-120.5 63.5t-55 124z" />
<glyph unicode="&#x4d0;" horiz-adv-x="1120" d="M23 0l452 1470h187l436 -1470h-178l-119 428h-484l-127 -428h-167zM301 1954h82l4 -15q39 -147 176 -147q76 0 114 36t60 126h80q-18 -145 -81.5 -212t-182.5 -67q-115 0 -176.5 68t-75.5 211zM367 606h374l-180 651z" />
<glyph unicode="&#x4d1;" d="M61 283q0 139 70 225t197 106l243 37q78 12 78 123q0 178 -203 178q-96 0 -144 -47t-62 -160h-136q8 141 54 216q88 141 299 141q158 0 247 -80t89 -219v-617q0 -63 47 -63q10 0 51 8v-131l-19 -6q-41 -14 -67 -14q-76 0 -109.5 37.5t-42.5 125.5q-72 -92 -144.5 -133 t-166.5 -41q-127 0 -204 86.5t-77 227.5zM190 1554h82l4 -14q39 -147 177 -147q76 0 113.5 35.5t60.5 125.5h80q-18 -145 -82 -211.5t-183 -66.5q-115 0 -176.5 67.5t-75.5 210.5zM215 299q0 -86 41 -133t117 -47q111 0 191.5 74.5t80.5 177.5v176q-23 -20 -68 -32.5 t-174 -35.5q-100 -16 -144 -58t-44 -122z" />
<glyph unicode="&#x4d2;" horiz-adv-x="1120" d="M23 0l452 1470h187l436 -1470h-178l-119 428h-484l-127 -428h-167zM348 1675v209h154v-209h-154zM367 606h374l-180 651zM618 1675v209h154v-209h-154z" />
<glyph unicode="&#x4d3;" d="M61 283q0 139 70 225t197 106l243 37q78 12 78 123q0 178 -203 178q-96 0 -144 -47t-62 -160h-136q8 141 54 216q88 141 299 141q158 0 247 -80t89 -219v-617q0 -63 47 -63q10 0 51 8v-131l-19 -6q-41 -14 -67 -14q-76 0 -109.5 37.5t-42.5 125.5q-72 -92 -144.5 -133 t-166.5 -41q-127 0 -204 86.5t-77 227.5zM215 299q0 -86 41 -133t117 -47q111 0 191.5 74.5t80.5 177.5v176q-23 -20 -68 -32.5t-174 -35.5q-100 -16 -144 -58t-44 -122zM236 1276v209h153v-209h-153zM506 1276v209h153v-209h-153z" />
<glyph unicode="&#x4d4;" horiz-adv-x="1679" d="M14 0l490 1470h1081v-178h-653v-448h596v-178h-596v-488h665v-178h-829v428h-444l-134 -428h-176zM381 606h387v686h-164z" />
<glyph unicode="&#x4d5;" horiz-adv-x="1492" d="M61 283q0 139 70 225t197 106l243 37q78 12 78 123q0 178 -203 178q-96 0 -143 -46t-63 -161h-136q8 141 54 216q86 141 309 141q98 0 157.5 -32t127.5 -120q72 86 134 119t154 33q209 0 308 -207q66 -131 75 -418h-643q6 -160 54 -237q63 -113 196 -113q88 0 154.5 59.5 t79.5 149.5h147q-29 -170 -133 -273q-96 -94 -254 -94q-119 0 -195.5 52.5t-134.5 171.5q-47 -80 -94 -127q-106 -96 -250 -97q-133 0 -211 85.5t-78 228.5zM215 299q0 -86 41 -133t117 -47q111 0 191.5 74.5t80.5 177.5v176q-20 -20 -65 -32.5t-177 -35.5 q-100 -16 -144 -59t-44 -121zM780 621h490q-10 145 -58 219q-61 102 -180 102q-106 0 -175 -88t-77 -233z" />
<glyph unicode="&#x4d6;" horiz-adv-x="1099" d="M125 0v1470h876v-178h-712v-448h657v-178h-657v-488h725v-178h-889zM305 1954h82l4 -15q39 -147 176 -147q76 0 114 36t60 126h80q-18 -145 -81.5 -212t-182.5 -67q-115 0 -176.5 68t-75.5 211z" />
<glyph unicode="&#x4d7;" d="M68 516q0 268 112.5 427t302.5 159q209 0 308 -207q39 -80 55 -170t20 -248h-641q6 -160 51 -237q66 -113 199 -113q90 0 155.5 59.5t76.5 149.5h147q-29 -174 -130 -270.5t-253 -96.5q-186 0 -294.5 146.5t-108.5 400.5zM225 621h488q-10 143 -56 219q-63 102 -180 102 q-106 0 -176 -89t-76 -232zM289 1554h82l4 -14q39 -147 176 -147q76 0 113.5 35.5t60.5 125.5h80q-18 -145 -82 -211.5t-182 -66.5q-115 0 -176.5 67.5t-75.5 210.5z" />
<glyph unicode="&#x4d8;" horiz-adv-x="1204" d="M66 930q31 172 69.5 266t108.5 166q137 147 348 147q250 0 396.5 -208.5t146.5 -563.5q0 -356 -153 -566t-411 -210q-281 0 -415 234q-59 100 -78 247h158q35 -156 112 -225q90 -78 219 -78q186 0 293 161t107 443q0 279 -102.5 433.5t-286.5 154.5q-166 0 -267 -149 q-55 -84 -88 -252h-157z" />
<glyph unicode="&#x4d9;" horiz-adv-x="839" d="M51 360h144q18 -121 67 -176t137 -55q115 0 179.5 108.5t64.5 303t-60.5 299t-172.5 104.5q-168 0 -215 -252h-144q53 410 357 410q180 0 286.5 -148.5t106.5 -398.5q0 -268 -113 -427t-303 -159q-295 0 -334 391z" />
<glyph unicode="&#x4da;" horiz-adv-x="1204" d="M66 930q31 172 69.5 266t108.5 166q137 147 348 147q250 0 396.5 -208.5t146.5 -563.5q0 -356 -153 -566t-411 -210q-281 0 -415 234q-59 100 -78 247h158q35 -156 112 -225q90 -78 219 -78q186 0 293 161t107 443q0 279 -102.5 433.5t-286.5 154.5q-166 0 -267 -149 q-55 -84 -88 -252h-157zM305 1675v209h154v-209h-154zM575 1675v209h154v-209h-154z" />
<glyph unicode="&#x4db;" horiz-adv-x="839" d="M51 360h144q18 -121 67 -176t137 -55q115 0 179.5 108.5t64.5 303t-60.5 299t-172.5 104.5q-168 0 -215 -252h-144q53 410 357 410q180 0 286.5 -148.5t106.5 -398.5q0 -268 -113 -427t-303 -159q-295 0 -334 391zM207 1276v209h153v-209h-153zM477 1276v209h154v-209 h-154z" />
<glyph unicode="&#x4dc;" horiz-adv-x="1847" d="M18 0l605 782l-592 688h225l512 -593h74v593h164v-593h73l512 593h226l-592 -688l604 -782h-211l-557 717h-55v-717h-164v717h-56l-557 -717h-211zM711 1675v209h153v-209h-153zM981 1675v209h154v-209h-154z" />
<glyph unicode="&#x4dd;" horiz-adv-x="1347" d="M16 0l482 537l-461 534h186l379 -453v453h143v-453l379 453h187l-461 -534l481 -537h-190l-396 428v-428h-143v428l-395 -428h-191zM461 1276v209h153v-209h-153zM731 1276v209h154v-209h-154z" />
<glyph unicode="&#x4de;" horiz-adv-x="1107" d="M86 475h154q2 -125 47 -201q86 -143 291 -143q145 0 227 66.5t82 187.5q0 78 -22.5 139.5t-84 106.5t-159.5 47h-242v145h250q96 0 147 84t51 178q0 121 -71.5 187.5t-200.5 66.5q-174 0 -254 -125q-39 -68 -47 -174h-154q14 170 62 265q113 205 393 204q219 0 330 -137 q100 -129 100 -311q0 -199 -127 -293q186 -96 186 -365q0 -207 -126.5 -324.5t-348.5 -117.5q-264 0 -395 184q-86 119 -88 330zM330 1675v209h153v-209h-153zM600 1675v209h154v-209h-154z" />
<glyph unicode="&#x4df;" horiz-adv-x="839" d="M49 344h144q8 -115 61 -166t166 -51q96 0 151.5 45t55.5 123t-38 137.5t-136 59.5h-142v141h119q158 0 158 160q0 70 -49.5 110.5t-132.5 40.5q-190 0 -199 -178h-144q10 162 96.5 249t235.5 87q152 0 244 -92t92 -246q0 -133 -86 -203q129 -74 129 -239 q0 -162 -98 -257.5t-266 -95.5q-227 0 -314 162q-39 70 -47 213zM186 1276v209h154v-209h-154zM457 1276v209h153v-209h-153z" />
<glyph unicode="&#x4e0;" horiz-adv-x="1107" d="M86 475h154q2 -125 47 -201q86 -143 291 -143q145 0 227 66.5t82 187.5q0 123 -62.5 208t-203.5 85h-242v145h250q96 0 147 84t51 178q0 121 -71.5 187.5t-200.5 66.5q-174 0 -254 -125q-39 -68 -47 -174h-154q14 170 62 265q113 205 393 204q219 0 330 -137 q100 -129 100 -311q0 -199 -127 -293q186 -96 186 -365q0 -207 -126.5 -324.5t-348.5 -117.5q-264 0 -395 184q-86 119 -88 330z" />
<glyph unicode="&#x4e1;" horiz-adv-x="839" d="M49 344h144q8 -115 61 -166t166 -51q96 0 151.5 45t55.5 123q0 76 -40 136.5t-134 60.5h-142v141h119q158 0 158 160q0 70 -49.5 110.5t-132.5 40.5q-190 0 -199 -178h-144q10 162 96.5 249t235.5 87q152 0 244 -92t92 -246q0 -133 -86 -203q129 -74 129 -239 q0 -162 -98 -257.5t-266 -95.5q-227 0 -314 162q-39 70 -47 213z" />
<glyph unicode="&#x4e2;" horiz-adv-x="1220" d="M125 0v1470h158v-1194l608 1194h192v-1470h-157v1194l-619 -1194h-182zM340 1632v117h528v-117h-528z" />
<glyph unicode="&#x4e3;" horiz-adv-x="931" d="M109 0v1071h147v-885l381 885h188v-1071h-147v874l-381 -874h-188zM205 1225v116h524v-116h-524z" />
<glyph unicode="&#x4e4;" horiz-adv-x="1220" d="M125 0v1470h158v-1194l608 1194h192v-1470h-157v1194l-619 -1194h-182zM393 1632v209h152v-209h-152zM664 1632v209h151v-209h-151z" />
<glyph unicode="&#x4e5;" horiz-adv-x="931" d="M109 0v1071h147v-885l381 885h188v-1071h-147v874l-381 -874h-188zM254 1225v209h156v-209h-156zM524 1225v209h156v-209h-156z" />
<glyph unicode="&#x4e6;" horiz-adv-x="1306" d="M66 733q0 367 182 590q152 186 414 186q322 0 483 -321q96 -199 96 -455q0 -356 -182 -586q-147 -186 -405.5 -186t-405.5 186q-182 230 -182 586zM233 733q0 -266 116 -430t304.5 -164t304 164t115.5 432q0 266 -114.5 431t-299.5 165q-195 0 -310.5 -162t-115.5 -436z M440 1675v209h154v-209h-154zM711 1675v209h153v-209h-153z" />
<glyph unicode="&#x4e7;" d="M59 537q0 254 114 409.5t300 155.5q176 0 288.5 -159t112.5 -406q0 -250 -113.5 -408t-293.5 -158t-294 158t-114 408zM213 537q0 -186 69.5 -297t184.5 -111t184.5 110.5t69.5 297.5q0 184 -68.5 295.5t-181.5 111.5q-119 0 -188.5 -109.5t-69.5 -297.5zM256 1276v209 h154v-209h-154zM526 1276v209h154v-209h-154z" />
<glyph unicode="&#x4e8;" horiz-adv-x="1306" d="M66 733q0 367 182 590q152 186 414 186q322 0 483 -321q96 -199 96 -455q0 -356 -182 -586q-147 -186 -405.5 -186t-405.5 186q-182 230 -182 586zM236 676q12 -244 125.5 -390.5t291.5 -146.5t292 146.5t126 390.5h-835zM236 793h835q-12 244 -124.5 391t-287.5 147 q-184 0 -297.5 -145t-125.5 -393z" />
<glyph unicode="&#x4e9;" d="M59 537q0 254 114 409.5t300 155.5q176 0 288.5 -159t112.5 -406q0 -250 -113.5 -408t-293.5 -158t-294 158t-114 408zM215 473q12 -158 79.5 -251t172 -93t172.5 93t80 251h-504zM215 590h504q-10 162 -77 258t-171 96q-111 0 -178.5 -95t-77.5 -259z" />
<glyph unicode="&#x4ea;" horiz-adv-x="1306" d="M66 733q0 367 182 590q152 186 414 186q322 0 483 -321q96 -199 96 -455q0 -356 -182 -586q-147 -186 -405.5 -186t-405.5 186q-182 230 -182 586zM236 676q12 -244 125.5 -390.5t291.5 -146.5t292 146.5t126 390.5h-835zM236 793h835q-12 244 -124.5 391t-287.5 147 q-184 0 -297.5 -145t-125.5 -393zM440 1675v209h154v-209h-154zM711 1675v209h153v-209h-153z" />
<glyph unicode="&#x4eb;" d="M59 537q0 254 114 409.5t300 155.5q176 0 288.5 -159t112.5 -406q0 -250 -113.5 -408t-293.5 -158t-294 158t-114 408zM215 473q12 -158 79.5 -251t172 -93t172.5 93t80 251h-504zM215 590h504q-10 162 -77 258t-171 96q-111 0 -178.5 -95t-77.5 -259zM256 1276v209h154 v-209h-154zM526 1276v209h154v-209h-154z" />
<glyph unicode="&#x4ec;" horiz-adv-x="1208" d="M66 541h157q33 -168 88 -252q100 -150 267 -150q174 0 275 138.5t112 388.5h-572v178h568q-20 231 -123 359t-271 128q-129 0 -219 -78q-78 -70 -112 -225h-158q18 147 78 248q135 233 415 233q258 0 411 -209.5t153 -566.5q0 -354 -146.5 -563t-396.5 -209 q-211 0 -348 148q-70 72 -108.5 166t-69.5 266zM307 1675v209h154v-209h-154zM578 1675v209h153v-209h-153z" />
<glyph unicode="&#x4ed;" horiz-adv-x="839" d="M51 379h144q47 -252 215 -252q106 0 167.5 98.5t65.5 280.5h-340v143h332q-39 293 -236 293q-88 0 -137 -55.5t-67 -175.5h-144q39 391 334 391q190 0 303 -159t113 -427q0 -250 -106.5 -398.5t-286.5 -148.5q-304 0 -357 410zM203 1276v209h153v-209h-153zM473 1276v209 h154v-209h-154z" />
<glyph unicode="&#x4ee;" horiz-adv-x="1122" d="M25 1470h190l346 -706l346 706h191l-756 -1470h-180l303 610zM299 1675v117h526v-117h-526z" />
<glyph unicode="&#x4ef;" horiz-adv-x="837" d="M16 1071h166l236 -878l237 878h164l-317 -1051q-53 -172 -82 -251.5t-68 -133t-75.5 -63.5t-108.5 -10q-27 0 -59 12l-13 4v164q43 -18 90 -18q45 0 70 27.5t49 109.5l37 110zM156 1276v117h526v-117h-526z" />
<glyph unicode="&#x4f0;" horiz-adv-x="1122" d="M25 1470h190l346 -706l346 706h191l-756 -1470h-180l303 610zM350 1675v209h154v-209h-154zM621 1675v209h153v-209h-153z" />
<glyph unicode="&#x4f1;" horiz-adv-x="837" d="M16 1071h166l236 -878l237 878h164l-317 -1051q-53 -172 -82 -251.5t-68 -133t-75.5 -63.5t-108.5 -10q-27 0 -59 12l-13 4v164q43 -18 90 -18q45 0 70 27.5t49 109.5l37 110zM207 1276v209h153v-209h-153zM477 1276v209h154v-209h-154z" />
<glyph unicode="&#x4f2;" horiz-adv-x="1122" d="M25 1470h190l346 -706l346 706h191l-756 -1470h-180l303 610zM244 1675l149 289h182l-219 -289h-112zM547 1675l149 289h183l-220 -289h-112z" />
<glyph unicode="&#x4f3;" horiz-adv-x="837" d="M16 1071h166l236 -878l237 878h164l-317 -1051q-53 -172 -82 -251.5t-68 -133t-75.5 -63.5t-108.5 -10q-27 0 -59 12l-13 4v164q43 -18 90 -18q45 0 70 27.5t49 109.5l37 110zM100 1276l150 289h182l-219 -289h-113zM403 1276l150 289h182l-219 -289h-113z" />
<glyph unicode="&#x4f4;" horiz-adv-x="1120" d="M127 791v679h164v-663q0 -59 85 -88t183 -29q96 0 178 30t82 73v677h164v-1470h-164v596q-12 -18 -100 -46t-160 -28q-94 0 -186 22.5t-169 87.5t-77 159zM344 1632v209h152v-209h-152zM614 1632v209h152v-209h-152z" />
<glyph unicode="&#x4f5;" horiz-adv-x="831" d="M109 559v512h147v-496q0 -76 178 -75q57 0 117.5 21.5t60.5 60.5v489h148v-1071h-148v406q-16 -18 -77.5 -34t-108.5 -16q-76 0 -141.5 15.5t-120.5 63.5t-55 124zM221 1225v209h156v-209h-156zM492 1225v209h155v-209h-155z" />
<glyph unicode="&#x4f8;" horiz-adv-x="1603" d="M125 0v1470h164v-620h377q162 0 260 -119t98 -315q0 -186 -98.5 -301t-259.5 -115h-541zM289 170h327q240 0 240 252q0 258 -246 258h-321v-510zM584 1675v209h153v-209h-153zM854 1675v209h154v-209h-154zM1305 0v1470h161v-1470h-161z" />
<glyph unicode="&#x4f9;" horiz-adv-x="1198" d="M109 0v1073l139 -2v-444h258q166 0 259 -88t93 -209q0 -147 -104.5 -238.5t-286.5 -91.5h-358zM248 143h211q121 0 186.5 47.5t65.5 139.5q0 88 -68 125t-213 37h-182v-349zM387 1276v209h154v-209h-154zM657 1276v209h154v-209h-154zM944 0v1071h148v-1071h-148z" />
<glyph unicode="&#xe3f;" horiz-adv-x="1120" d="M125 0v1470h369v170h108v-170h53q154 0 247 -101t93 -269q0 -203 -159 -307q119 -59 168 -139.5t49 -215.5q0 -199 -112 -318.5t-296 -119.5h-43v-170h-108v170h-369zM289 170h205v518h-205v-518zM289 848h205v452h-205v-452zM602 170h35q119 0 185.5 70.5t66.5 197.5 q0 250 -281 250h-6v-518zM602 848q229 8 229 233q0 109 -55 162t-174 57v-452z" />
<glyph unicode="&#x1e0c;" horiz-adv-x="1212" d="M135 0v1470h490q231 0 369.5 -195.5t138.5 -523t-134.5 -539.5t-380.5 -212h-483zM299 170h315q162 0 256.5 151.5t94.5 413.5q0 272 -93.5 418.5t-267.5 146.5h-305v-1130zM516 -172h176v-197h-176v197z" />
<glyph unicode="&#x1e0d;" d="M59 561q0 244 100.5 392.5t262.5 148.5q90 0 153.5 -45t114.5 -148v561h148v-1470h-140v154q-47 -100 -105 -142.5t-149 -42.5q-174 0 -279.5 162t-105.5 430zM213 551q0 -201 61.5 -312.5t171.5 -111.5q113 0 177.5 100.5t64.5 280.5q0 211 -60.5 322.5t-174.5 111.5 q-240 0 -240 -391zM379 -172h176v-197h-176v197z" />
<glyph unicode="&#x1e0e;" horiz-adv-x="1212" d="M135 0v1470h490q231 0 369.5 -195.5t138.5 -523t-134.5 -539.5t-380.5 -212h-483zM299 170h315q162 0 256.5 151.5t94.5 413.5q0 272 -93.5 418.5t-267.5 146.5h-305v-1130zM342 -211h526v-117h-526v117z" />
<glyph unicode="&#x1e0f;" d="M59 561q0 244 100.5 392.5t262.5 148.5q90 0 153.5 -45t114.5 -148v561h148v-1470h-140v154q-47 -100 -105 -142.5t-149 -42.5q-174 0 -279.5 162t-105.5 430zM205 -211h526v-117h-526v117zM213 551q0 -201 61.5 -312.5t171.5 -111.5q113 0 177.5 100.5t64.5 280.5 q0 211 -60.5 322.5t-174.5 111.5q-240 0 -240 -391z" />
<glyph unicode="&#x1e24;" horiz-adv-x="1212" d="M129 0v1470h164v-608h629v608h163v-1470h-163v684h-629v-684h-164zM520 -172h176v-197h-176v197z" />
<glyph unicode="&#x1e25;" d="M109 0v1470h147v-546q63 100 123.5 139t148.5 39q139 0 218 -98.5t79 -274.5v-729h-147v700q0 127 -41 184.5t-131 57.5q-119 0 -184.5 -94t-65.5 -264v-584h-147zM379 -172h176v-197h-176v197z" />
<glyph unicode="&#x1e26;" horiz-adv-x="1212" d="M129 0v1470h164v-608h629v608h163v-1470h-163v684h-629v-684h-164zM354 1622v197h181v-197h-181zM684 1622v197h180v-197h-180z" />
<glyph unicode="&#x1e27;" d="M109 0v1470h147v-546q63 100 123.5 139t148.5 39q139 0 218 -98.5t79 -274.5v-729h-147v700q0 127 -41 184.5t-131 57.5q-119 0 -184.5 -94t-65.5 -264v-584h-147zM213 1622v197h180v-197h-180zM543 1622v197h180v-197h-180z" />
<glyph unicode="&#x1e2a;" horiz-adv-x="1212" d="M129 0v1470h164v-608h629v608h163v-1470h-163v684h-629v-684h-164zM330 -152h82l4 -14q82 -106 196 -106q72 0 111 28.5t63 91.5h101q-35 -119 -102.5 -178t-182.5 -59q-209 -1 -272 237z" />
<glyph unicode="&#x1e2b;" d="M109 0v1470h147v-546q63 100 123.5 139t148.5 39q139 0 218 -98.5t79 -274.5v-729h-147v700q0 127 -41 184.5t-131 57.5q-119 0 -184.5 -94t-65.5 -264v-584h-147zM188 -152h82l4 -14q82 -106 197 -106q72 0 111 28.5t63 91.5h100q-35 -119 -102.5 -178t-181.5 -59 q-210 -1 -273 237z" />
<glyph unicode="&#x1e36;" d="M127 0v1470h164v-1292h610v-178h-774zM426 -172h176v-197h-176v197z" />
<glyph unicode="&#x1e37;" horiz-adv-x="372" d="M98 -172h176v-197h-176v197zM113 0v1470h147v-1470h-147z" />
<glyph unicode="&#x1e38;" d="M-53 1663v117h526v-117h-526zM127 0v1470h164v-1292h610v-178h-774zM426 -172h176v-197h-176v197z" />
<glyph unicode="&#x1e39;" horiz-adv-x="372" d="M-76 1663v117h527v-117h-527zM98 -172h176v-197h-176v197zM113 0v1470h147v-1470h-147z" />
<glyph unicode="&#x1e42;" horiz-adv-x="1398" d="M123 0v1470h233l346 -1249l345 1249h231v-1470h-154v868v379l-344 -1247h-159l-340 1245v-282v-963h-158zM612 -172h176v-197h-176v197z" />
<glyph unicode="&#x1e43;" horiz-adv-x="1398" d="M109 0v1071h139v-158q57 100 120.5 144.5t151.5 44.5q82 0 136.5 -40t95.5 -134q76 102 130 138t134 36q127 0 201.5 -96.5t74.5 -264.5v-741h-147v692q0 250 -160 250q-88 0 -149.5 -84t-61.5 -205v-653h-147v741q0 94 -36 147.5t-102 53.5q-106 0 -169.5 -98.5 t-63.5 -259.5v-584h-147zM612 -172h176v-197h-176v197z" />
<glyph unicode="&#x1e44;" horiz-adv-x="1212" d="M127 0v1470h192l609 -1194v1194h157v-1470h-182l-618 1194v-1194h-158zM520 1622v197h176v-197h-176z" />
<glyph unicode="&#x1e45;" d="M109 0v1071h139v-158q106 188 280 189q139 0 218 -98.5t79 -274.5v-729h-147v659q0 147 -43 215t-137 68q-113 0 -177.5 -95t-64.5 -263v-584h-147zM379 1243v197h176v-197h-176z" />
<glyph unicode="&#x1e46;" horiz-adv-x="1212" d="M127 0v1470h192l609 -1194v1194h157v-1470h-182l-618 1194v-1194h-158zM518 -172h176v-197h-176v197z" />
<glyph unicode="&#x1e47;" d="M109 0v1071h139v-158q106 188 280 189q139 0 218 -98.5t79 -274.5v-729h-147v659q0 147 -43 215t-137 68q-113 0 -177.5 -95t-64.5 -263v-584h-147zM379 -172h176v-197h-176v197z" />
<glyph unicode="&#x1e58;" horiz-adv-x="1212" d="M147 0v1470h560q193 0 294 -102t101 -295q0 -125 -37 -202.5t-131 -147.5q78 -37 107.5 -93.5t37.5 -183.5l8 -266q2 -68 13.5 -94.5t48.5 -52.5v-33h-201q-27 111 -26 369q0 139 -51.5 200.5t-163.5 61.5h-396v-631h-164zM311 801h377q125 0 185.5 62.5t60.5 193.5 q0 244 -217 243h-406v-499zM492 1622v197h176v-197h-176z" />
<glyph unicode="&#x1e59;" horiz-adv-x="559" d="M129 0v1071h139v-182q59 115 116.5 164t133.5 49q18 0 39 -6v-185h-55q-98 0 -162 -80.5t-64 -205.5v-625h-147zM188 1243v197h177v-197h-177z" />
<glyph unicode="&#x1e5a;" horiz-adv-x="1212" d="M147 0v1470h560q193 0 294 -102t101 -295q0 -125 -37 -202.5t-131 -147.5q78 -37 107.5 -93.5t37.5 -183.5l8 -266q2 -68 13.5 -94.5t48.5 -52.5v-33h-201q-27 111 -26 369q0 139 -51.5 200.5t-163.5 61.5h-396v-631h-164zM311 801h377q125 0 185.5 62.5t60.5 193.5 q0 244 -217 243h-406v-499zM489 -172h177v-197h-177v197z" />
<glyph unicode="&#x1e5b;" horiz-adv-x="559" d="M115 -172h176v-197h-176v197zM129 0v1071h139v-182q59 115 116.5 164t133.5 49q18 0 39 -6v-185h-55q-98 0 -162 -80.5t-64 -205.5v-625h-147z" />
<glyph unicode="&#x1e5c;" horiz-adv-x="1212" d="M147 0v1470h560q193 0 294 -102t101 -295q0 -125 -37 -202.5t-131 -147.5q78 -37 107.5 -93.5t37.5 -183.5l8 -266q2 -68 13.5 -94.5t48.5 -52.5v-33h-201q-27 111 -26 369q0 139 -51.5 200.5t-163.5 61.5h-396v-631h-164zM311 801h377q125 0 185.5 62.5t60.5 193.5 q0 244 -217 243h-406v-499zM315 1663v117h527v-117h-527zM489 -172h177v-197h-177v197z" />
<glyph unicode="&#x1e5d;" horiz-adv-x="559" d="M12 1315v117h527v-117h-527zM115 -172h176v-197h-176v197zM129 0v1071h139v-182q59 115 116.5 164t133.5 49q18 0 39 -6v-185h-55q-98 0 -162 -80.5t-64 -205.5v-625h-147z" />
<glyph unicode="&#x1e62;" horiz-adv-x="1120" d="M82 475h154q0 -170 88 -257t249 -87q145 0 227.5 66.5t82.5 187.5q0 104 -54.5 158.5t-201.5 95.5l-248 70q-256 72 -256 352q0 199 113.5 323.5t316.5 124.5q217 0 336 -115.5t119 -353.5h-154q0 145 -82 222t-219 77q-129 0 -200.5 -66.5t-71.5 -187.5q0 -152 141 -190 l344 -96q274 -78 274 -396q0 -207 -127 -324.5t-348 -117.5t-352 127t-131 387zM471 -172h176v-197h-176v197z" />
<glyph unicode="&#x1e63;" horiz-adv-x="839" d="M53 344h144q8 -115 61 -166t166 -51q96 0 151.5 45t55.5 123q0 59 -36 91t-138 63l-172 51q-203 61 -203 264q0 154 92 246t244 92q150 0 235.5 -87t96.5 -249h-144q-8 178 -198 178q-84 0 -133.5 -41t-49.5 -110q0 -57 31 -85t127 -57l149 -45q133 -39 189.5 -105.5 t56.5 -178.5q0 -162 -98 -257.5t-266 -95.5q-172 0 -261.5 90t-99.5 285zM328 -172h176v-197h-176v197z" />
<glyph unicode="&#x1e6c;" horiz-adv-x="1026" d="M23 1292v178h981v-178h-408v-1292h-164v1292h-409zM426 -172h176v-197h-176v197z" />
<glyph unicode="&#x1e6d;" horiz-adv-x="466" d="M23 922v149h118v299h148v-299h143v-149h-143v-697q0 -45 20.5 -64.5t69.5 -19.5h51v-141l-57 -7l-33 -4q-8 -1 -14.5 -2t-12.5 -1q-172 0 -172 229v707h-118zM201 -172h176v-197h-176v197z" />
<glyph unicode="&#x1e6e;" horiz-adv-x="1026" d="M23 1292v178h981v-178h-408v-1292h-164v1292h-409zM252 -211h526v-117h-526v117z" />
<glyph unicode="&#x1e6f;" horiz-adv-x="466" d="M23 922v149h118v299h148v-299h143v-149h-143v-697q0 -45 20.5 -64.5t69.5 -19.5h51v-141l-57 -7l-33 -4q-8 -1 -14.5 -2t-12.5 -1q-172 0 -172 229v707h-118zM27 -211h526v-117h-526v117z" />
<glyph unicode="&#x1e80;" horiz-adv-x="1585" d="M27 1470h176l227 -1204l272 1204h179l272 -1204l225 1204h181l-318 -1470h-172l-276 1227l-281 -1227h-172zM514 1843h193l149 -248h-123z" />
<glyph unicode="&#x1e81;" horiz-adv-x="1212" d="M23 1071h161l170 -850l170 850h166l172 -850l180 850h148l-256 -1071h-152l-180 838l-174 -838h-152zM332 1485h182l150 -289h-113z" />
<glyph unicode="&#x1e82;" horiz-adv-x="1585" d="M27 1470h176l227 -1204l272 1204h179l272 -1204l225 1204h181l-318 -1470h-172l-276 1227l-281 -1227h-172zM731 1595l150 248h192l-219 -248h-123z" />
<glyph unicode="&#x1e83;" horiz-adv-x="1212" d="M23 1071h161l170 -850l170 850h166l172 -850l180 850h148l-256 -1071h-152l-180 838l-174 -838h-152zM549 1196l149 289h183l-219 -289h-113z" />
<glyph unicode="&#x1e84;" horiz-adv-x="1585" d="M27 1470h176l227 -1204l272 1204h179l272 -1204l225 1204h181l-318 -1470h-172l-276 1227l-281 -1227h-172zM539 1622v197h180v-197h-180zM868 1622v197h181v-197h-181z" />
<glyph unicode="&#x1e85;" horiz-adv-x="1212" d="M23 1071h161l170 -850l170 850h166l172 -850l180 850h148l-256 -1071h-152l-180 838l-174 -838h-152zM350 1243v197h180v-197h-180zM680 1243v197h180v-197h-180z" />
<glyph unicode="&#x1e92;" horiz-adv-x="1026" d="M39 0v168l739 1124h-684v178h893v-174l-741 -1118h741v-178h-948zM453 -172h176v-197h-176v197z" />
<glyph unicode="&#x1e93;" horiz-adv-x="839" d="M51 0v141l531 781h-490v149h682v-147l-526 -774h540v-150h-737zM332 -172h176v-197h-176v197z" />
<glyph unicode="&#x1e97;" horiz-adv-x="466" d="M-39 1522v196h180v-196h-180zM23 922v149h118v299h148v-299h143v-149h-143v-697q0 -45 20.5 -64.5t69.5 -19.5h51v-141l-57 -7l-33 -4q-8 -1 -14.5 -2t-12.5 -1q-172 0 -172 229v707h-118zM291 1522v196h180v-196h-180z" />
<glyph unicode="&#x1ea0;" horiz-adv-x="1120" d="M23 0l452 1470h187l436 -1470h-178l-119 428h-484l-127 -428h-167zM367 606h374l-180 651zM473 -172h176v-197h-176v197z" />
<glyph unicode="&#x1ea1;" d="M61 283q0 139 70 225t197 106l243 37q78 12 78 123q0 178 -203 178q-207 0 -206 -207h-136q0 356 353 357q158 0 247 -80t89 -219v-617q0 -63 47 -63q10 0 51 8v-131q-59 -20 -86 -20q-76 0 -109.5 37.5t-42.5 125.5q-72 -92 -144.5 -133t-166.5 -41q-127 0 -204 86.5 t-77 227.5zM215 299q0 -86 41 -133t117 -47q111 0 191.5 74.5t80.5 177.5v176q-23 -20 -68 -32.5t-174 -35.5q-100 -16 -144 -58t-44 -122zM369 -172h176v-197h-176v197z" />
<glyph unicode="&#x1ea2;" horiz-adv-x="1120" d="M23 0l452 1470h187l436 -1470h-178l-119 428h-484l-127 -428h-167zM367 606h374l-180 651zM367 1737q0 188 213 188q94 0 148 -38t54 -103q0 -41 -19.5 -67.5t-72.5 -59.5q-41 -29 -52 -40t-11 -26v-49h-115v55q0 37 20.5 60.5t77.5 58.5q59 39 60 68q0 23 -26 37t-69 14 q-61 0 -83 -29q-12 -16 -13 -69h-112z" />
<glyph unicode="&#x1ea3;" d="M61 283q0 139 70 225t197 106l243 37q78 12 78 123q0 178 -203 178q-207 0 -206 -207h-136q0 356 353 357q158 0 247 -80t89 -219v-617q0 -63 47 -63q10 0 51 8v-131q-59 -20 -86 -20q-76 0 -109.5 37.5t-42.5 125.5q-72 -92 -144.5 -133t-166.5 -41q-127 0 -204 86.5 t-77 227.5zM215 299q0 -86 41 -133t117 -47q111 0 191.5 74.5t80.5 177.5v176q-23 -20 -68 -32.5t-174 -35.5q-100 -16 -144 -58t-44 -122zM254 1337q0 188 213 189q94 0 148.5 -38t54.5 -104q0 -41 -19.5 -67.5t-72.5 -59.5q-41 -29 -52.5 -40t-11.5 -25v-49h-115v55 q0 37 20.5 60.5t78.5 58.5q59 39 59 67q0 23 -25.5 37.5t-68.5 14.5q-61 0 -84 -29q-12 -16 -12 -70h-113z" />
<glyph unicode="&#x1ea4;" horiz-adv-x="1120" d="M23 0l452 1470h187l436 -1470h-178l-119 428h-484l-127 -428h-167zM295 1597l197 248h157l197 -248h-135l-142 150l-141 -150h-133zM367 606h374l-180 651zM508 1886l149 248h193l-219 -248h-123z" />
<glyph unicode="&#x1ea5;" d="M61 283q0 139 70 225t197 106l243 37q78 12 78 123q0 178 -203 178q-207 0 -206 -207h-136q0 356 353 357q158 0 247 -80t89 -219v-617q0 -63 47 -63q10 0 51 8v-131q-59 -20 -86 -20q-76 0 -109.5 37.5t-42.5 125.5q-72 -92 -144.5 -133t-166.5 -41q-127 0 -204 86.5 t-77 227.5zM182 1198l197 248h158l196 -248h-135l-141 150l-142 -150h-133zM215 299q0 -86 41 -133t117 -47q111 0 191.5 74.5t80.5 177.5v176q-23 -20 -68 -32.5t-174 -35.5q-100 -16 -144 -58t-44 -122zM395 1487l150 248h192l-219 -248h-123z" />
<glyph unicode="&#x1ea6;" horiz-adv-x="1120" d="M23 0l452 1470h187l436 -1470h-178l-119 428h-484l-127 -428h-167zM291 2134h192l150 -248h-123zM295 1597l197 248h157l197 -248h-135l-142 150l-141 -150h-133zM367 606h374l-180 651z" />
<glyph unicode="&#x1ea7;" d="M61 283q0 139 70 225t197 106l243 37q78 12 78 123q0 178 -203 178q-207 0 -206 -207h-136q0 356 353 357q158 0 247 -80t89 -219v-617q0 -63 47 -63q10 0 51 8v-131q-59 -20 -86 -20q-76 0 -109.5 37.5t-42.5 125.5q-72 -92 -144.5 -133t-166.5 -41q-127 0 -204 86.5 t-77 227.5zM178 1735h193l149 -248h-123zM182 1198l197 248h158l196 -248h-135l-141 150l-142 -150h-133zM215 299q0 -86 41 -133t117 -47q111 0 191.5 74.5t80.5 177.5v176q-23 -20 -68 -32.5t-174 -35.5q-100 -16 -144 -58t-44 -122z" />
<glyph unicode="&#x1ea8;" horiz-adv-x="1120" d="M23 0l452 1470h187l436 -1470h-178l-119 428h-484l-127 -428h-167zM295 1597l197 248h157l197 -248h-135l-142 150l-141 -150h-133zM367 606h374l-180 651zM430 2060q0 170 213 170q92 0 147.5 -34.5t55.5 -92.5q0 -35 -19.5 -59.5t-72.5 -56.5q-41 -25 -52.5 -35 t-11.5 -23v-43h-115v49q0 35 19.5 55.5t77.5 51.5q59 35 59 61q0 45 -94 45q-63 0 -82 -24q-12 -12 -12 -64h-113z" />
<glyph unicode="&#x1ea9;" d="M61 283q0 139 70 225t197 106l243 37q78 12 78 123q0 178 -203 178q-207 0 -206 -207h-136q0 356 353 357q158 0 247 -80t89 -219v-617q0 -63 47 -63q10 0 51 8v-131q-59 -20 -86 -20q-76 0 -109.5 37.5t-42.5 125.5q-72 -92 -144.5 -133t-166.5 -41q-127 0 -204 86.5 t-77 227.5zM182 1198l197 248h158l196 -248h-135l-141 150l-142 -150h-133zM215 299q0 -86 41 -133t117 -47q111 0 191.5 74.5t80.5 177.5v176q-23 -20 -68 -32.5t-174 -35.5q-100 -16 -144 -58t-44 -122zM317 1661q0 170 213 170q92 0 147.5 -35t55.5 -92 q0 -35 -19.5 -59.5t-72.5 -57.5q-41 -25 -52 -35t-11 -22v-43h-115v49q0 35 19.5 55.5t76.5 50.5q59 35 59 62q0 45 -94 45q-63 0 -82 -25q-12 -12 -12 -63h-113z" />
<glyph unicode="&#x1eaa;" horiz-adv-x="1120" d="M23 0l452 1470h187l436 -1470h-178l-119 428h-484l-127 -428h-167zM285 1907q29 219 174 219q47 0 114 -31l37 -18q53 -27 84 -27q61 0 78 94h84q-31 -223 -170 -223q-31 0 -96 27l-43 18q-70 31 -105 31q-53 0 -77 -90h-80zM295 1597l197 248h157l197 -248h-135 l-142 150l-141 -150h-133zM367 606h374l-180 651z" />
<glyph unicode="&#x1eab;" d="M61 283q0 139 70 225t197 106l243 37q78 12 78 123q0 178 -203 178q-207 0 -206 -207h-136q0 356 353 357q158 0 247 -80t89 -219v-617q0 -63 47 -63q10 0 51 8v-131q-59 -20 -86 -20q-76 0 -109.5 37.5t-42.5 125.5q-72 -92 -144.5 -133t-166.5 -41q-127 0 -204 86.5 t-77 227.5zM172 1507q29 219 174 219q47 0 115 -30l37 -19q53 -27 84 -26q61 0 77 94h84q-31 -223 -170 -223q-31 0 -96 26l-43 19q-70 31 -104 30q-53 0 -78 -90h-80zM182 1198l197 248h158l196 -248h-135l-141 150l-142 -150h-133zM215 299q0 -86 41 -133t117 -47 q111 0 191.5 74.5t80.5 177.5v176q-23 -20 -68 -32.5t-174 -35.5q-100 -16 -144 -58t-44 -122z" />
<glyph unicode="&#x1eac;" horiz-adv-x="1120" d="M23 0l452 1470h187l436 -1470h-178l-119 428h-484l-127 -428h-167zM293 1597l196 248h158l197 -248h-135l-142 150l-141 -150h-133zM367 606h374l-180 651zM473 -172h176v-197h-176v197z" />
<glyph unicode="&#x1ead;" d="M61 283q0 139 70 225t197 106l243 37q78 12 78 123q0 178 -203 178q-207 0 -206 -207h-136q0 356 353 357q158 0 247 -80t89 -219v-617q0 -63 47 -63q10 0 51 8v-131q-59 -20 -86 -20q-76 0 -109.5 37.5t-42.5 125.5q-72 -92 -144.5 -133t-166.5 -41q-127 0 -204 86.5 t-77 227.5zM211 1198l166 289h158l165 -289h-135l-110 191l-111 -191h-133zM215 299q0 -86 41 -133t117 -47q111 0 191.5 74.5t80.5 177.5v176q-23 -20 -68 -32.5t-174 -35.5q-100 -16 -144 -58t-44 -122zM369 -172h176v-197h-176v197z" />
<glyph unicode="&#x1eae;" horiz-adv-x="1120" d="M23 0l452 1470h187l436 -1470h-178l-119 428h-484l-127 -428h-167zM293 1839h82l4 -14q82 -106 196 -107q72 0 111 29t64 92h100q-35 -119 -102.5 -178t-182.5 -59q-209 -1 -272 237zM367 606h374l-180 651zM508 1896l149 248h193l-219 -248h-123z" />
<glyph unicode="&#x1eaf;" d="M61 283q0 139 70 225t197 106l243 37q78 12 78 123q0 178 -203 178q-207 0 -206 -207h-136q0 356 353 357q158 0 247 -80t89 -219v-617q0 -63 47 -63q10 0 51 8v-131q-59 -20 -86 -20q-76 0 -109.5 37.5t-42.5 125.5q-72 -92 -144.5 -133t-166.5 -41q-127 0 -204 86.5 t-77 227.5zM180 1440h82l4 -15q82 -106 197 -106q72 0 110.5 28.5t63.5 92.5h100q-35 -119 -102.5 -178.5t-181.5 -59.5q-210 0 -273 238zM215 299q0 -86 41 -133t117 -47q111 0 191.5 74.5t80.5 177.5v176q-23 -20 -68 -32.5t-174 -35.5q-100 -16 -144 -58t-44 -122z M395 1497l150 248h192l-219 -248h-123z" />
<glyph unicode="&#x1eb0;" horiz-adv-x="1120" d="M23 0l452 1470h187l436 -1470h-178l-119 428h-484l-127 -428h-167zM291 2144h192l150 -248h-123zM293 1839h82l4 -14q82 -106 196 -107q72 0 111 29t64 92h100q-35 -119 -102.5 -178t-182.5 -59q-209 -1 -272 237zM367 606h374l-180 651z" />
<glyph unicode="&#x1eb1;" d="M61 283q0 139 70 225t197 106l243 37q78 12 78 123q0 178 -203 178q-207 0 -206 -207h-136q0 356 353 357q158 0 247 -80t89 -219v-617q0 -63 47 -63q10 0 51 8v-131q-59 -20 -86 -20q-76 0 -109.5 37.5t-42.5 125.5q-72 -92 -144.5 -133t-166.5 -41q-127 0 -204 86.5 t-77 227.5zM178 1745h193l149 -248h-123zM180 1440h82l4 -15q82 -106 197 -106q72 0 110.5 28.5t63.5 92.5h100q-35 -119 -102.5 -178.5t-181.5 -59.5q-210 0 -273 238zM215 299q0 -86 41 -133t117 -47q111 0 191.5 74.5t80.5 177.5v176q-23 -20 -68 -32.5t-174 -35.5 q-100 -16 -144 -58t-44 -122z" />
<glyph unicode="&#x1eb2;" horiz-adv-x="1120" d="M23 0l452 1470h187l436 -1470h-178l-119 428h-484l-127 -428h-167zM293 1839h82l4 -14q82 -106 196 -107q72 0 111 29t64 92h100q-35 -119 -102.5 -178t-182.5 -59q-209 -1 -272 237zM362 1995q0 168 213 168q92 0 147.5 -35t55.5 -92q0 -35 -19.5 -59.5t-72.5 -55.5 q-41 -25 -52 -35t-11 -22v-45h-115v49q0 35 20.5 56.5t77.5 51.5q57 33 58 60q0 20 -26 33.5t-67 13.5q-63 0 -84 -27q-12 -16 -12 -61h-113zM367 606h374l-180 651z" />
<glyph unicode="&#x1eb3;" d="M61 283q0 139 70 225t197 106l243 37q78 12 78 123q0 178 -203 178q-207 0 -206 -207h-136q0 356 353 357q158 0 247 -80t89 -219v-617q0 -63 47 -63q10 0 51 8v-131q-59 -20 -86 -20q-76 0 -109.5 37.5t-42.5 125.5q-72 -92 -144.5 -133t-166.5 -41q-127 0 -204 86.5 t-77 227.5zM180 1440h82l4 -15q82 -106 197 -106q72 0 110.5 28.5t63.5 92.5h100q-35 -119 -102.5 -178.5t-181.5 -59.5q-210 0 -273 238zM215 299q0 -86 41 -133t117 -47q111 0 191.5 74.5t80.5 177.5v176q-23 -20 -68 -32.5t-174 -35.5q-100 -16 -144 -58t-44 -122z M250 1595q0 168 213 168q92 0 147.5 -34.5t55.5 -92.5q0 -35 -19.5 -59.5t-73.5 -54.5q-41 -25 -52 -35t-11 -23v-45h-115v49q0 35 20.5 56.5t78.5 52.5q57 33 57 59q0 20 -25.5 33.5t-66.5 13.5q-63 0 -84 -26q-12 -14 -13 -62h-112z" />
<glyph unicode="&#x1eb4;" horiz-adv-x="1120" d="M23 0l452 1470h187l436 -1470h-178l-119 428h-484l-127 -428h-167zM285 1915q29 219 174 219q47 0 114 -31l37 -18q53 -27 84 -27q61 0 78 94h84q-31 -223 -170 -223q-31 0 -96 27l-43 18q-70 31 -105 31q-53 0 -77 -90h-80zM293 1839h82l4 -14q82 -106 196 -107 q72 0 111 29t64 92h100q-35 -119 -102.5 -178t-182.5 -59q-209 -1 -272 237zM367 606h374l-180 651z" />
<glyph unicode="&#x1eb5;" d="M61 283q0 139 70 225t197 106l243 37q78 12 78 123q0 178 -203 178q-207 0 -206 -207h-136q0 356 353 357q158 0 247 -80t89 -219v-617q0 -63 47 -63q10 0 51 8v-131q-59 -20 -86 -20q-76 0 -109.5 37.5t-42.5 125.5q-72 -92 -144.5 -133t-166.5 -41q-127 0 -204 86.5 t-77 227.5zM172 1516q29 219 174 219q47 0 115 -31l37 -18q53 -27 84 -27q61 0 77 94h84q-31 -223 -170 -223q-31 0 -96 26l-43 19q-70 31 -104 31q-53 0 -78 -90h-80zM180 1440h82l4 -15q82 -106 197 -106q72 0 110.5 28.5t63.5 92.5h100q-35 -119 -102.5 -178.5 t-181.5 -59.5q-210 0 -273 238zM215 299q0 -86 41 -133t117 -47q111 0 191.5 74.5t80.5 177.5v176q-23 -20 -68 -32.5t-174 -35.5q-100 -16 -144 -58t-44 -122z" />
<glyph unicode="&#x1eb6;" horiz-adv-x="1120" d="M23 0l452 1470h187l436 -1470h-178l-119 428h-484l-127 -428h-167zM291 1839h82l4 -14q82 -106 196 -107q72 0 111 29t64 92h100q-35 -119 -102.5 -178t-182.5 -59q-209 -1 -272 237zM367 606h374l-180 651zM473 -172h176v-197h-176v197z" />
<glyph unicode="&#x1eb7;" d="M61 283q0 139 70 225t197 106l243 37q78 12 78 123q0 178 -203 178q-207 0 -206 -207h-136q0 356 353 357q158 0 247 -80t89 -219v-617q0 -63 47 -63q10 0 51 8v-131q-59 -20 -86 -20q-76 0 -109.5 37.5t-42.5 125.5q-72 -92 -144.5 -133t-166.5 -41q-127 0 -204 86.5 t-77 227.5zM199 1481h82l4 -15q39 -147 176 -147q76 0 113.5 36t60.5 126h80q-18 -145 -82 -212t-182 -67q-115 0 -176.5 68t-75.5 211zM215 299q0 -86 41 -133t117 -47q111 0 191.5 74.5t80.5 177.5v176q-23 -20 -68 -32.5t-174 -35.5q-100 -16 -144 -58t-44 -122z M369 -172h176v-197h-176v197z" />
<glyph unicode="&#x1eb8;" horiz-adv-x="1120" d="M145 0v1470h877v-178h-713v-448h658v-178h-658v-488h725v-178h-889zM473 -172h176v-197h-176v197z" />
<glyph unicode="&#x1eb9;" d="M68 516q0 268 112.5 427t302.5 159q178 0 275.5 -146.5t107.5 -478.5h-641q12 -350 250 -350q90 0 155.5 59.5t76.5 149.5h147q-29 -174 -130 -270.5t-253 -96.5q-186 0 -294.5 146.5t-108.5 400.5zM225 621h488q-23 322 -236 321q-106 0 -176 -89t-76 -232zM379 -172 h176v-197h-176v197z" />
<glyph unicode="&#x1eba;" horiz-adv-x="1120" d="M145 0v1470h877v-178h-713v-448h658v-178h-658v-488h725v-178h-889zM381 1737q0 188 213 188q94 0 148.5 -38t54.5 -103q0 -41 -19.5 -67.5t-72.5 -59.5q-41 -29 -52.5 -40t-11.5 -26v-49h-115v55q0 37 20.5 60.5t78.5 58.5q59 39 59 68q0 23 -25.5 37t-68.5 14 q-61 0 -84 -29q-12 -16 -12 -69h-113z" />
<glyph unicode="&#x1ebb;" d="M68 516q0 268 112.5 427t302.5 159q178 0 275.5 -146.5t107.5 -478.5h-641q12 -350 250 -350q90 0 155.5 59.5t76.5 149.5h147q-29 -174 -130 -270.5t-253 -96.5q-186 0 -294.5 146.5t-108.5 400.5zM225 621h488q-23 322 -236 321q-106 0 -176 -89t-76 -232zM264 1337 q0 188 213 189q94 0 148.5 -38t54.5 -104q0 -41 -19.5 -67.5t-72.5 -59.5q-41 -29 -52.5 -40t-11.5 -25v-49h-114v55q0 37 20.5 60.5t77.5 58.5q59 39 59 67q0 23 -25.5 37.5t-68.5 14.5q-61 0 -84 -29q-12 -16 -12 -70h-113z" />
<glyph unicode="&#x1ebc;" horiz-adv-x="1120" d="M145 0v1470h877v-178h-713v-448h658v-178h-658v-488h725v-178h-889zM299 1602q29 219 174 219q47 0 115 -31l37 -18q53 -27 84 -27q61 0 77 94h84q-31 -223 -170 -223q-31 0 -96 26l-43 19q-70 31 -104 31q-53 0 -78 -90h-80z" />
<glyph unicode="&#x1ebd;" d="M68 516q0 268 112.5 427t302.5 159q178 0 275.5 -146.5t107.5 -478.5h-641q12 -350 250 -350q90 0 155.5 59.5t76.5 149.5h147q-29 -174 -130 -270.5t-253 -96.5q-186 0 -294.5 146.5t-108.5 400.5zM180 1223q29 219 174 219q47 0 115 -31l37 -18q53 -27 84 -27 q61 0 78 94h84q-31 -223 -170 -223q-31 0 -97 27l-43 18q-70 31 -104 31q-53 0 -78 -90h-80zM225 621h488q-23 322 -236 321q-106 0 -176 -89t-76 -232z" />
<glyph unicode="&#x1ebe;" horiz-adv-x="1120" d="M145 0v1470h877v-178h-713v-448h658v-178h-658v-488h725v-178h-889zM309 1597l197 248h158l196 -248h-135l-141 150l-142 -150h-133zM522 1886l150 248h192l-219 -248h-123z" />
<glyph unicode="&#x1ebf;" d="M68 516q0 268 112.5 427t302.5 159q178 0 275.5 -146.5t107.5 -478.5h-641q12 -350 250 -350q90 0 155.5 59.5t76.5 149.5h147q-29 -174 -130 -270.5t-253 -96.5q-186 0 -294.5 146.5t-108.5 400.5zM193 1198l196 248h158l196 -248h-135l-141 150l-141 -150h-133z M225 621h488q-23 322 -236 321q-106 0 -176 -89t-76 -232zM406 1487l149 248h193l-220 -248h-122z" />
<glyph unicode="&#x1ec0;" horiz-adv-x="1120" d="M145 0v1470h877v-178h-713v-448h658v-178h-658v-488h725v-178h-889zM305 2134h193l149 -248h-123zM309 1597l197 248h158l196 -248h-135l-141 150l-142 -150h-133z" />
<glyph unicode="&#x1ec1;" d="M68 516q0 268 112.5 427t302.5 159q178 0 275.5 -146.5t107.5 -478.5h-641q12 -350 250 -350q90 0 155.5 59.5t76.5 149.5h147q-29 -174 -130 -270.5t-253 -96.5q-186 0 -294.5 146.5t-108.5 400.5zM188 1735h193l149 -248h-122zM193 1198l196 248h158l196 -248h-135 l-141 150l-141 -150h-133zM225 621h488q-23 322 -236 321q-106 0 -176 -89t-76 -232z" />
<glyph unicode="&#x1ec2;" horiz-adv-x="1120" d="M145 0v1470h877v-178h-713v-448h658v-178h-658v-488h725v-178h-889zM309 1597l197 248h158l196 -248h-135l-141 150l-142 -150h-133zM444 2060q0 170 213 170q92 0 147.5 -34.5t55.5 -92.5q0 -35 -19.5 -59.5t-72.5 -56.5q-41 -25 -52 -35t-11 -23v-43h-115v49 q0 35 19.5 55.5t76.5 51.5q59 35 59 61q0 45 -94 45q-63 0 -82 -24q-12 -12 -12 -64h-113z" />
<glyph unicode="&#x1ec3;" d="M68 516q0 268 112.5 427t302.5 159q178 0 275.5 -146.5t107.5 -478.5h-641q12 -350 250 -350q90 0 155.5 59.5t76.5 149.5h147q-29 -174 -130 -270.5t-253 -96.5q-186 0 -294.5 146.5t-108.5 400.5zM193 1198l196 248h158l196 -248h-135l-141 150l-141 -150h-133z M225 621h488q-23 322 -236 321q-106 0 -176 -89t-76 -232zM328 1661q0 170 213 170q92 0 147 -35t55 -92q0 -35 -19 -59.5t-73 -57.5q-41 -25 -52 -35t-11 -22v-43h-115v49q0 35 19.5 55.5t76.5 50.5q59 35 60 62q0 45 -94 45q-63 0 -82 -25q-12 -12 -13 -63h-112z" />
<glyph unicode="&#x1ec4;" horiz-adv-x="1120" d="M145 0v1470h877v-178h-713v-448h658v-178h-658v-488h725v-178h-889zM299 1907q29 219 174 219q47 0 115 -31l37 -18q53 -27 84 -27q61 0 77 94h84q-31 -223 -170 -223q-31 0 -96 27l-43 18q-70 31 -104 31q-53 0 -78 -90h-80zM309 1597l197 248h158l196 -248h-135 l-141 150l-142 -150h-133z" />
<glyph unicode="&#x1ec5;" d="M68 516q0 268 112.5 427t302.5 159q178 0 275.5 -146.5t107.5 -478.5h-641q12 -350 250 -350q90 0 155.5 59.5t76.5 149.5h147q-29 -174 -130 -270.5t-253 -96.5q-186 0 -294.5 146.5t-108.5 400.5zM182 1507q29 219 174 219q47 0 115 -30l37 -19q53 -27 84 -26 q61 0 78 94h84q-31 -223 -170 -223q-31 0 -97 26l-43 19q-70 31 -104 30q-53 0 -78 -90h-80zM193 1198l196 248h158l196 -248h-135l-141 150l-141 -150h-133zM225 621h488q-23 322 -236 321q-106 0 -176 -89t-76 -232z" />
<glyph unicode="&#x1ec6;" horiz-adv-x="1120" d="M145 0v1470h877v-178h-713v-448h658v-178h-658v-488h725v-178h-889zM307 1597l197 248h158l196 -248h-135l-141 150l-142 -150h-133zM473 -172h176v-197h-176v197z" />
<glyph unicode="&#x1ec7;" d="M68 516q0 268 112.5 427t302.5 159q178 0 275.5 -146.5t107.5 -478.5h-641q12 -350 250 -350q90 0 155.5 59.5t76.5 149.5h147q-29 -174 -130 -270.5t-253 -96.5q-186 0 -294.5 146.5t-108.5 400.5zM221 1198l166 289h158l166 -289h-136l-110 191l-111 -191h-133z M225 621h488q-23 322 -236 321q-106 0 -176 -89t-76 -232zM379 -172h176v-197h-176v197z" />
<glyph unicode="&#x1ec8;" horiz-adv-x="466" d="M33 1737q0 188 213 188q94 0 148.5 -38t54.5 -103q0 -41 -19.5 -67.5t-73.5 -59.5q-41 -29 -52 -40t-11 -26v-49h-115v55q0 37 20.5 60.5t77.5 58.5q59 39 60 68q0 23 -25.5 37t-68.5 14q-61 0 -84 -29q-12 -14 -13 -69h-112zM154 0v1470h161v-1470h-161z" />
<glyph unicode="&#x1ec9;" horiz-adv-x="466" d="M31 1337q0 188 213 189q94 0 148 -38t54 -104q0 -41 -19 -67.5t-73 -59.5q-41 -29 -52 -40t-11 -25v-49h-115v55q0 37 20.5 60.5t77.5 58.5q59 39 60 67q0 23 -25.5 37.5t-68.5 14.5q-61 0 -84 -29q-12 -16 -13 -70h-112zM160 0v1071h147v-1071h-147z" />
<glyph unicode="&#x1eca;" horiz-adv-x="466" d="M147 -172h177v-197h-177v197zM154 0v1470h161v-1470h-161z" />
<glyph unicode="&#x1ecb;" horiz-adv-x="372" d="M98 -172h176v-197h-176v197zM98 1243v197h176v-197h-176zM113 0v1071h147v-1071h-147z" />
<glyph unicode="&#x1ecc;" horiz-adv-x="1306" d="M66 733q0 338 157.5 557t438.5 219q254 0 416.5 -216t162.5 -560q0 -213 -65.5 -385t-201.5 -279.5t-320.5 -107.5t-320.5 107.5t-201.5 279.5t-65.5 385zM233 733q0 -266 116 -430t304.5 -164t304 164t115.5 432q0 266 -114.5 431t-299.5 165q-195 0 -310.5 -162 t-115.5 -436zM573 -172h177v-197h-177v197z" />
<glyph unicode="&#x1ecd;" d="M59 537q0 254 114 409.5t300 155.5q176 0 288.5 -159t112.5 -406q0 -250 -113.5 -408t-293.5 -158t-294 158t-114 408zM213 537q0 -186 69.5 -297t184.5 -111t184.5 110.5t69.5 297.5q0 184 -68.5 295.5t-181.5 111.5q-119 0 -188.5 -109.5t-69.5 -297.5zM379 -172h176 v-197h-176v197z" />
<glyph unicode="&#x1ece;" horiz-adv-x="1306" d="M66 733q0 338 157.5 557t438.5 219q254 0 416.5 -216t162.5 -560q0 -213 -65.5 -385t-201.5 -279.5t-320.5 -107.5t-320.5 107.5t-201.5 279.5t-65.5 385zM233 733q0 -266 116 -430t304.5 -164t304 164t115.5 432q0 266 -114.5 431t-299.5 165q-195 0 -310.5 -162 t-115.5 -436zM459 1737q0 188 213 188q94 0 148 -38t54 -103q0 -41 -19 -67.5t-73 -59.5q-41 -29 -52 -40t-11 -26v-49h-115v55q0 37 20.5 60.5t77.5 58.5q59 39 60 68q0 23 -25.5 37t-68.5 14q-61 0 -84 -29q-12 -16 -13 -69h-112z" />
<glyph unicode="&#x1ecf;" d="M59 537q0 254 114 409.5t300 155.5q176 0 288.5 -159t112.5 -406q0 -250 -113.5 -408t-293.5 -158t-294 158t-114 408zM213 537q0 -186 69.5 -297t184.5 -111t184.5 110.5t69.5 297.5q0 184 -68.5 295.5t-181.5 111.5q-119 0 -188.5 -109.5t-69.5 -297.5zM264 1337 q0 188 213 189q94 0 148.5 -38t54.5 -104q0 -41 -19.5 -67.5t-72.5 -59.5q-41 -29 -52.5 -40t-11.5 -25v-49h-114v55q0 37 20.5 60.5t77.5 58.5q59 39 59 67q0 23 -25.5 37.5t-68.5 14.5q-61 0 -84 -29q-12 -16 -12 -70h-113z" />
<glyph unicode="&#x1ed0;" horiz-adv-x="1306" d="M66 733q0 338 157.5 557t438.5 219q254 0 416.5 -216t162.5 -560q0 -213 -65.5 -385t-201.5 -279.5t-320.5 -107.5t-320.5 107.5t-201.5 279.5t-65.5 385zM233 733q0 -266 116 -430t304.5 -164t304 164t115.5 432q0 266 -114.5 431t-299.5 165q-195 0 -310.5 -162 t-115.5 -436zM387 1597l197 248h157l197 -248h-135l-141 150l-142 -150h-133zM600 1886l150 248h192l-219 -248h-123z" />
<glyph unicode="&#x1ed1;" d="M59 537q0 254 114 409.5t300 155.5q176 0 288.5 -159t112.5 -406q0 -250 -113.5 -408t-293.5 -158t-294 158t-114 408zM193 1198l196 248h158l196 -248h-135l-141 150l-141 -150h-133zM213 537q0 -186 69.5 -297t184.5 -111t184.5 110.5t69.5 297.5q0 184 -68.5 295.5 t-181.5 111.5q-119 0 -188.5 -109.5t-69.5 -297.5zM406 1487l149 248h193l-220 -248h-122z" />
<glyph unicode="&#x1ed2;" horiz-adv-x="1306" d="M66 733q0 338 157.5 557t438.5 219q254 0 416.5 -216t162.5 -560q0 -213 -65.5 -385t-201.5 -279.5t-320.5 -107.5t-320.5 107.5t-201.5 279.5t-65.5 385zM233 733q0 -266 116 -430t304.5 -164t304 164t115.5 432q0 266 -114.5 431t-299.5 165q-195 0 -310.5 -162 t-115.5 -436zM383 2134h192l150 -248h-123zM387 1597l197 248h157l197 -248h-135l-141 150l-142 -150h-133z" />
<glyph unicode="&#x1ed3;" d="M59 537q0 254 114 409.5t300 155.5q176 0 288.5 -159t112.5 -406q0 -250 -113.5 -408t-293.5 -158t-294 158t-114 408zM188 1735h193l149 -248h-122zM193 1198l196 248h158l196 -248h-135l-141 150l-141 -150h-133zM213 537q0 -186 69.5 -297t184.5 -111t184.5 110.5 t69.5 297.5q0 184 -68.5 295.5t-181.5 111.5q-119 0 -188.5 -109.5t-69.5 -297.5z" />
<glyph unicode="&#x1ed4;" horiz-adv-x="1306" d="M66 733q0 338 157.5 557t438.5 219q254 0 416.5 -216t162.5 -560q0 -213 -65.5 -385t-201.5 -279.5t-320.5 -107.5t-320.5 107.5t-201.5 279.5t-65.5 385zM233 733q0 -266 116 -430t304.5 -164t304 164t115.5 432q0 266 -114.5 431t-299.5 165q-195 0 -310.5 -162 t-115.5 -436zM387 1597l197 248h157l197 -248h-135l-141 150l-142 -150h-133zM522 2060q0 170 213 170q92 0 147.5 -34.5t55.5 -92.5q0 -35 -19.5 -59.5t-72.5 -56.5q-41 -25 -52.5 -35t-11.5 -23v-43h-114v49q0 35 19.5 55.5t76.5 51.5q59 35 59 61q0 45 -94 45 q-63 0 -82 -24q-12 -12 -12 -64h-113z" />
<glyph unicode="&#x1ed5;" d="M59 537q0 254 114 409.5t300 155.5q176 0 288.5 -159t112.5 -406q0 -250 -113.5 -408t-293.5 -158t-294 158t-114 408zM193 1198l196 248h158l196 -248h-135l-141 150l-141 -150h-133zM213 537q0 -186 69.5 -297t184.5 -111t184.5 110.5t69.5 297.5q0 184 -68.5 295.5 t-181.5 111.5q-119 0 -188.5 -109.5t-69.5 -297.5zM328 1661q0 170 213 170q92 0 147 -35t55 -92q0 -35 -19 -59.5t-73 -57.5q-41 -25 -52 -35t-11 -22v-43h-115v49q0 35 19.5 55.5t76.5 50.5q59 35 60 62q0 45 -94 45q-63 0 -82 -25q-12 -12 -13 -63h-112z" />
<glyph unicode="&#x1ed6;" horiz-adv-x="1306" d="M66 733q0 338 157.5 557t438.5 219q254 0 416.5 -216t162.5 -560q0 -213 -65.5 -385t-201.5 -279.5t-320.5 -107.5t-320.5 107.5t-201.5 279.5t-65.5 385zM233 733q0 -266 116 -430t304.5 -164t304 164t115.5 432q0 266 -114.5 431t-299.5 165q-195 0 -310.5 -162 t-115.5 -436zM377 1907q29 219 174 219q47 0 115 -31l36 -18q53 -27 84 -27q61 0 78 94h84q-31 -223 -170 -223q-31 0 -96 27l-43 18q-70 31 -104 31q-53 0 -78 -90h-80zM387 1597l197 248h157l197 -248h-135l-141 150l-142 -150h-133z" />
<glyph unicode="&#x1ed7;" d="M59 537q0 254 114 409.5t300 155.5q176 0 288.5 -159t112.5 -406q0 -250 -113.5 -408t-293.5 -158t-294 158t-114 408zM182 1507q29 219 174 219q47 0 115 -30l37 -19q53 -27 84 -26q61 0 78 94h84q-31 -223 -170 -223q-31 0 -97 26l-43 19q-70 31 -104 30q-53 0 -78 -90 h-80zM193 1198l196 248h158l196 -248h-135l-141 150l-141 -150h-133zM213 537q0 -186 69.5 -297t184.5 -111t184.5 110.5t69.5 297.5q0 184 -68.5 295.5t-181.5 111.5q-119 0 -188.5 -109.5t-69.5 -297.5z" />
<glyph unicode="&#x1ed8;" horiz-adv-x="1306" d="M66 733q0 338 157.5 557t438.5 219q254 0 416.5 -216t162.5 -560q0 -213 -65.5 -385t-201.5 -279.5t-320.5 -107.5t-320.5 107.5t-201.5 279.5t-65.5 385zM233 733q0 -266 116 -430t304.5 -164t304 164t115.5 432q0 266 -114.5 431t-299.5 165q-195 0 -310.5 -162 t-115.5 -436zM385 1597l197 248h157l197 -248h-135l-142 150l-141 -150h-133zM573 -172h177v-197h-177v197z" />
<glyph unicode="&#x1ed9;" d="M59 537q0 254 114 409.5t300 155.5q176 0 288.5 -159t112.5 -406q0 -250 -113.5 -408t-293.5 -158t-294 158t-114 408zM213 537q0 -186 69.5 -297t184.5 -111t184.5 110.5t69.5 297.5q0 184 -68.5 295.5t-181.5 111.5q-119 0 -188.5 -109.5t-69.5 -297.5zM221 1198 l166 289h158l166 -289h-136l-110 191l-111 -191h-133zM379 -172h176v-197h-176v197z" />
<glyph unicode="&#x1eda;" horiz-adv-x="1306" d="M66 733q0 338 157.5 557t438.5 219q248 0 407 -204q86 39 86 168h-88v196h176v-196q0 -78 -32.5 -142.5t-90.5 -97.5q121 -209 121 -500q0 -213 -65.5 -385t-201.5 -279.5t-320.5 -107.5t-320.5 107.5t-201.5 279.5t-65.5 385zM233 733q0 -266 116 -430t304.5 -164 t304 164t115.5 432q0 266 -114.5 431t-299.5 165q-195 0 -310.5 -162t-115.5 -436zM600 1595l150 248h192l-219 -248h-123z" />
<glyph unicode="&#x1edb;" horiz-adv-x="952" d="M59 537q0 254 114 409.5t300 155.5q184 0 299 -174q53 49 53 145h-88v197h176v-197q0 -147 -98 -223q59 -135 59 -313q0 -250 -113.5 -408t-293.5 -158t-294 158t-114 408zM213 537q0 -186 69.5 -297t184.5 -111t184.5 110.5t69.5 297.5q0 184 -68.5 295.5t-181.5 111.5 q-119 0 -188.5 -109.5t-69.5 -297.5zM410 1196l149 289h182l-219 -289h-112z" />
<glyph unicode="&#x1edc;" horiz-adv-x="1306" d="M66 733q0 338 157.5 557t438.5 219q248 0 407 -204q86 39 86 168h-88v196h176v-196q0 -78 -32.5 -142.5t-90.5 -97.5q121 -209 121 -500q0 -213 -65.5 -385t-201.5 -279.5t-320.5 -107.5t-320.5 107.5t-201.5 279.5t-65.5 385zM233 733q0 -266 116 -430t304.5 -164 t304 164t115.5 432q0 266 -114.5 431t-299.5 165q-195 0 -310.5 -162t-115.5 -436zM383 1843h192l150 -248h-123z" />
<glyph unicode="&#x1edd;" horiz-adv-x="952" d="M59 537q0 254 114 409.5t300 155.5q184 0 299 -174q53 49 53 145h-88v197h176v-197q0 -147 -98 -223q59 -135 59 -313q0 -250 -113.5 -408t-293.5 -158t-294 158t-114 408zM193 1485h182l149 -289h-112zM213 537q0 -186 69.5 -297t184.5 -111t184.5 110.5t69.5 297.5 q0 184 -68.5 295.5t-181.5 111.5q-119 0 -188.5 -109.5t-69.5 -297.5z" />
<glyph unicode="&#x1ede;" horiz-adv-x="1306" d="M66 733q0 338 157.5 557t438.5 219q248 0 407 -204q86 39 86 168h-88v196h176v-196q0 -78 -32.5 -142.5t-90.5 -97.5q121 -209 121 -500q0 -213 -65.5 -385t-201.5 -279.5t-320.5 -107.5t-320.5 107.5t-201.5 279.5t-65.5 385zM233 733q0 -266 116 -430t304.5 -164 t304 164t115.5 432q0 266 -114.5 431t-299.5 165q-195 0 -310.5 -162t-115.5 -436zM459 1737q0 188 213 188q94 0 148 -38t54 -103q0 -41 -19 -67.5t-73 -59.5q-41 -29 -52 -40t-11 -26v-49h-115v55q0 37 20.5 60.5t77.5 58.5q59 39 60 68q0 23 -25.5 37t-68.5 14 q-61 0 -84 -29q-12 -16 -13 -69h-112z" />
<glyph unicode="&#x1edf;" horiz-adv-x="952" d="M59 537q0 254 114 409.5t300 155.5q184 0 299 -174q53 49 53 145h-88v197h176v-197q0 -147 -98 -223q59 -135 59 -313q0 -250 -113.5 -408t-293.5 -158t-294 158t-114 408zM213 537q0 -186 69.5 -297t184.5 -111t184.5 110.5t69.5 297.5q0 184 -68.5 295.5t-181.5 111.5 q-119 0 -188.5 -109.5t-69.5 -297.5zM264 1337q0 188 213 189q94 0 148.5 -38t54.5 -104q0 -41 -19.5 -67.5t-72.5 -59.5q-41 -29 -52.5 -40t-11.5 -25v-49h-114v55q0 37 20.5 60.5t77.5 58.5q59 39 59 67q0 23 -25.5 37.5t-68.5 14.5q-61 0 -84 -29q-12 -16 -12 -70h-113z " />
<glyph unicode="&#x1ee0;" horiz-adv-x="1306" d="M66 733q0 338 157.5 557t438.5 219q248 0 407 -204q86 39 86 168h-88v196h176v-196q0 -78 -32.5 -142.5t-90.5 -97.5q121 -209 121 -500q0 -213 -65.5 -385t-201.5 -279.5t-320.5 -107.5t-320.5 107.5t-201.5 279.5t-65.5 385zM233 733q0 -266 116 -430t304.5 -164 t304 164t115.5 432q0 266 -114.5 431t-299.5 165q-195 0 -310.5 -162t-115.5 -436zM377 1602q29 219 174 219q47 0 115 -31l36 -18q53 -27 84 -27q61 0 78 94h84q-31 -223 -170 -223q-31 0 -96 26l-43 19q-70 31 -104 31q-53 0 -78 -90h-80z" />
<glyph unicode="&#x1ee1;" horiz-adv-x="952" d="M59 537q0 254 114 409.5t300 155.5q184 0 299 -174q53 49 53 145h-88v197h176v-197q0 -147 -98 -223q59 -135 59 -313q0 -250 -113.5 -408t-293.5 -158t-294 158t-114 408zM180 1223q29 219 174 219q47 0 115 -31l37 -18q53 -27 84 -27q61 0 78 94h84q-31 -223 -170 -223 q-31 0 -97 27l-43 18q-70 31 -104 31q-53 0 -78 -90h-80zM213 537q0 -186 69.5 -297t184.5 -111t184.5 110.5t69.5 297.5q0 184 -68.5 295.5t-181.5 111.5q-119 0 -188.5 -109.5t-69.5 -297.5z" />
<glyph unicode="&#x1ee2;" horiz-adv-x="1306" d="M66 733q0 338 157.5 557t438.5 219q248 0 407 -204q86 39 86 168h-88v196h176v-196q0 -78 -32.5 -142.5t-90.5 -97.5q121 -209 121 -500q0 -213 -65.5 -385t-201.5 -279.5t-320.5 -107.5t-320.5 107.5t-201.5 279.5t-65.5 385zM233 733q0 -266 116 -430t304.5 -164 t304 164t115.5 432q0 266 -114.5 431t-299.5 165q-195 0 -310.5 -162t-115.5 -436zM573 -172h177v-197h-177v197z" />
<glyph unicode="&#x1ee3;" horiz-adv-x="952" d="M59 537q0 254 114 409.5t300 155.5q184 0 299 -174q53 49 53 145h-88v197h176v-197q0 -147 -98 -223q59 -135 59 -313q0 -250 -113.5 -408t-293.5 -158t-294 158t-114 408zM213 537q0 -186 69.5 -297t184.5 -111t184.5 110.5t69.5 297.5q0 184 -68.5 295.5t-181.5 111.5 q-119 0 -188.5 -109.5t-69.5 -297.5zM379 -172h176v-197h-176v197z" />
<glyph unicode="&#x1ee4;" horiz-adv-x="1212" d="M133 489v981h164v-925q0 -195 80 -300.5t227 -105.5q150 0 232 104.5t82 297.5v929h163v-954q0 -254 -131 -404.5t-352 -150.5q-213 0 -339 143t-126 385zM520 -172h176v-197h-176v197z" />
<glyph unicode="&#x1ee5;" d="M115 301v770h147v-711q0 -233 170 -233q111 0 176.5 96t65.5 258v590h147v-1071h-139v166q-59 -111 -119.5 -154t-159.5 -43q-135 0 -211.5 88t-76.5 244zM379 -172h176v-197h-176v197z" />
<glyph unicode="&#x1ee6;" horiz-adv-x="1212" d="M133 489v981h164v-925q0 -195 80 -300.5t227 -105.5q150 0 232 104.5t82 297.5v929h163v-954q0 -254 -131 -404.5t-352 -150.5q-213 0 -339 143t-126 385zM406 1737q0 188 212 188q94 0 148.5 -38t54.5 -103q0 -41 -19.5 -67.5t-72.5 -59.5q-41 -29 -52 -40t-11 -26v-49 h-115v55q0 37 20.5 60.5t77.5 58.5q59 39 60 68q0 23 -26 37t-69 14q-61 0 -84 -29q-12 -16 -12 -69h-112z" />
<glyph unicode="&#x1ee7;" d="M115 301v770h147v-711q0 -233 170 -233q111 0 176.5 96t65.5 258v590h147v-1071h-139v166q-59 -111 -119.5 -154t-159.5 -43q-135 0 -211.5 88t-76.5 244zM264 1337q0 188 213 189q94 0 148.5 -38t54.5 -104q0 -41 -19.5 -67.5t-72.5 -59.5q-41 -29 -52.5 -40t-11.5 -25 v-49h-114v55q0 37 20.5 60.5t77.5 58.5q59 39 59 67q0 23 -25.5 37.5t-68.5 14.5q-61 0 -84 -29q-12 -16 -12 -70h-113z" />
<glyph unicode="&#x1ee8;" horiz-adv-x="1335" d="M133 489v981h164v-925q0 -195 80 -300.5t227 -105.5q150 0 232 104.5t82 297.5v929h163v-174q57 0 92 52.5t35 124.5h-88v196h176v-196q0 -106 -60 -185.5t-155 -79.5v-692q0 -254 -131 -404.5t-352 -150.5q-213 0 -339 143t-126 385zM547 1595l149 248h193l-219 -248 h-123z" />
<glyph unicode="&#x1ee9;" horiz-adv-x="1075" d="M115 301v770h147v-711q0 -233 170 -233q111 0 176.5 96t65.5 258v590h147v-174q57 0 92 52t35 124h-88v197h176v-197q0 -106 -60.5 -185t-154.5 -79v-809h-139v166q-59 -111 -119.5 -154t-159.5 -43q-135 0 -211.5 88t-76.5 244zM410 1196l149 289h182l-219 -289h-112z " />
<glyph unicode="&#x1eea;" horiz-adv-x="1335" d="M133 489v981h164v-925q0 -195 80 -300.5t227 -105.5q150 0 232 104.5t82 297.5v929h163v-174q57 0 92 52.5t35 124.5h-88v196h176v-196q0 -106 -60 -185.5t-155 -79.5v-692q0 -254 -131 -404.5t-352 -150.5q-213 0 -339 143t-126 385zM330 1843h192l150 -248h-123z" />
<glyph unicode="&#x1eeb;" horiz-adv-x="1075" d="M115 301v770h147v-711q0 -233 170 -233q111 0 176.5 96t65.5 258v590h147v-174q57 0 92 52t35 124h-88v197h176v-197q0 -106 -60.5 -185t-154.5 -79v-809h-139v166q-59 -111 -119.5 -154t-159.5 -43q-135 0 -211.5 88t-76.5 244zM193 1485h182l149 -289h-112z" />
<glyph unicode="&#x1eec;" horiz-adv-x="1335" d="M133 489v981h164v-925q0 -195 80 -300.5t227 -105.5q150 0 232 104.5t82 297.5v929h163v-174q57 0 92 52.5t35 124.5h-88v196h176v-196q0 -106 -60 -185.5t-155 -79.5v-692q0 -254 -131 -404.5t-352 -150.5q-213 0 -339 143t-126 385zM406 1737q0 188 212 188 q94 0 148.5 -38t54.5 -103q0 -41 -19.5 -67.5t-72.5 -59.5q-41 -29 -52 -40t-11 -26v-49h-115v55q0 37 20.5 60.5t77.5 58.5q59 39 60 68q0 23 -26 37t-69 14q-61 0 -84 -29q-12 -16 -12 -69h-112z" />
<glyph unicode="&#x1eed;" horiz-adv-x="1075" d="M115 301v770h147v-711q0 -233 170 -233q111 0 176.5 96t65.5 258v590h147v-174q57 0 92 52t35 124h-88v197h176v-197q0 -106 -60.5 -185t-154.5 -79v-809h-139v166q-59 -111 -119.5 -154t-159.5 -43q-135 0 -211.5 88t-76.5 244zM264 1337q0 188 213 189q94 0 148.5 -38 t54.5 -104q0 -41 -19.5 -67.5t-72.5 -59.5q-41 -29 -52.5 -40t-11.5 -25v-49h-114v55q0 37 20.5 60.5t77.5 58.5q59 39 59 67q0 23 -25.5 37.5t-68.5 14.5q-61 0 -84 -29q-12 -16 -12 -70h-113z" />
<glyph unicode="&#x1eee;" horiz-adv-x="1335" d="M133 489v981h164v-925q0 -195 80 -300.5t227 -105.5q150 0 232 104.5t82 297.5v929h163v-174q57 0 92 52.5t35 124.5h-88v196h176v-196q0 -106 -60 -185.5t-155 -79.5v-692q0 -254 -131 -404.5t-352 -150.5q-213 0 -339 143t-126 385zM324 1602q29 219 174 219 q47 0 114 -31l37 -18q53 -27 84 -27q61 0 78 94h84q-31 -223 -170 -223q-31 0 -96 26l-43 19q-70 31 -105 31q-53 0 -78 -90h-79z" />
<glyph unicode="&#x1eef;" horiz-adv-x="1075" d="M115 301v770h147v-711q0 -233 170 -233q111 0 176.5 96t65.5 258v590h147v-174q57 0 92 52t35 124h-88v197h176v-197q0 -106 -60.5 -185t-154.5 -79v-809h-139v166q-59 -111 -119.5 -154t-159.5 -43q-135 0 -211.5 88t-76.5 244zM180 1223q29 219 174 219q47 0 115 -31 l37 -18q53 -27 84 -27q61 0 78 94h84q-31 -223 -170 -223q-31 0 -97 27l-43 18q-70 31 -104 31q-53 0 -78 -90h-80z" />
<glyph unicode="&#x1ef0;" horiz-adv-x="1335" d="M133 489v981h164v-925q0 -195 80 -300.5t227 -105.5q150 0 232 104.5t82 297.5v929h163v-174q57 0 92 52.5t35 124.5h-88v196h176v-196q0 -106 -60 -185.5t-155 -79.5v-692q0 -254 -131 -404.5t-352 -150.5q-213 0 -339 143t-126 385zM520 -172h176v-197h-176v197z" />
<glyph unicode="&#x1ef1;" horiz-adv-x="1075" d="M115 301v770h147v-711q0 -233 170 -233q111 0 176.5 96t65.5 258v590h147v-174q57 0 92 52t35 124h-88v197h176v-197q0 -106 -60.5 -185t-154.5 -79v-809h-139v166q-59 -111 -119.5 -154t-159.5 -43q-135 0 -211.5 88t-76.5 244zM379 -172h176v-197h-176v197z" />
<glyph unicode="&#x1ef2;" horiz-adv-x="1120" d="M23 1470h190l346 -706l346 706h191l-455 -878v-592h-164v592zM281 1843h192l150 -248h-123z" />
<glyph unicode="&#x1ef3;" horiz-adv-x="839" d="M18 1071h166l236 -878l237 878h164l-317 -1051q-53 -172 -82 -251.5t-68 -133t-75.5 -63.5t-108.5 -10q-27 0 -59 12l-13 4v164q43 -18 90.5 -18t69 26.5t49.5 110.5l37 110zM145 1485h183l149 -289h-112z" />
<glyph unicode="&#x1ef4;" horiz-adv-x="1120" d="M23 1470h190l346 -706l346 706h191l-455 -878v-592h-164v592zM471 -172h176v-197h-176v197z" />
<glyph unicode="&#x1ef5;" horiz-adv-x="839" d="M18 1071h166l236 -878l237 878h164l-317 -1051q-53 -172 -82 -251.5t-68 -133t-75.5 -63.5t-108.5 -10q-27 0 -59 12l-13 4v164q43 -18 90.5 -18t69 26.5t49.5 110.5l37 110zM543 -172h176v-197h-176v197z" />
<glyph unicode="&#x1ef6;" horiz-adv-x="1120" d="M23 1470h190l346 -706l346 706h191l-455 -878v-592h-164v592zM356 1737q0 188 213 188q94 0 148.5 -38t54.5 -103q0 -41 -19.5 -67.5t-72.5 -59.5q-41 -29 -52.5 -40t-11.5 -26v-49h-114v55q0 37 20.5 60.5t77.5 58.5q59 39 59 68q0 23 -25.5 37t-68.5 14q-61 0 -84 -29 q-12 -16 -12 -69h-113z" />
<glyph unicode="&#x1ef7;" horiz-adv-x="839" d="M18 1071h166l236 -878l237 878h164l-317 -1051q-53 -172 -82 -251.5t-68 -133t-75.5 -63.5t-108.5 -10q-27 0 -59 12l-13 4v164q43 -18 90.5 -18t69 26.5t49.5 110.5l37 110zM217 1337q0 188 213 189q94 0 148.5 -38t54.5 -104q0 -41 -19.5 -67.5t-72.5 -59.5 q-41 -29 -52.5 -40t-11.5 -25v-49h-115v55q0 37 20.5 60.5t78.5 58.5q59 39 59 67q0 23 -25.5 37.5t-68.5 14.5q-61 0 -84 -29q-12 -16 -12 -70h-113z" />
<glyph unicode="&#x1ef8;" horiz-adv-x="1120" d="M23 1470h190l346 -706l346 706h191l-455 -878v-592h-164v592zM274 1602q29 219 175 219q47 0 114 -31l37 -18q53 -27 84 -27q61 0 78 94h84q-31 -223 -170 -223q-31 0 -96 26l-43 19q-70 31 -105 31q-53 0 -78 -90h-80z" />
<glyph unicode="&#x1ef9;" horiz-adv-x="839" d="M18 1071h166l236 -878l237 878h164l-317 -1051q-53 -172 -82 -251.5t-68 -133t-75.5 -63.5t-108.5 -10q-27 0 -59 12l-13 4v164q43 -18 90.5 -18t69 26.5t49.5 110.5l37 110zM133 1223q29 219 174 219q47 0 115 -31l37 -18q53 -27 84 -27q61 0 78 94h84 q-31 -223 -170 -223q-31 0 -97 27l-43 18q-70 31 -104 31q-53 0 -78 -90h-80z" />
<glyph unicode="&#x2000;" horiz-adv-x="1114" />
<glyph unicode="&#x2001;" horiz-adv-x="2230" />
<glyph unicode="&#x2002;" horiz-adv-x="1114" />
<glyph unicode="&#x2003;" horiz-adv-x="2230" />
<glyph unicode="&#x2004;" horiz-adv-x="743" />
<glyph unicode="&#x2005;" horiz-adv-x="557" />
<glyph unicode="&#x2006;" horiz-adv-x="370" />
<glyph unicode="&#x2007;" horiz-adv-x="370" />
<glyph unicode="&#x2008;" horiz-adv-x="278" />
<glyph unicode="&#x2009;" horiz-adv-x="444" />
<glyph unicode="&#x200a;" horiz-adv-x="122" />
<glyph unicode="&#x2010;" horiz-adv-x="559" d="M74 475v184h411v-184h-411z" />
<glyph unicode="&#x2011;" horiz-adv-x="559" d="M74 475v184h411v-184h-411z" />
<glyph unicode="&#x2012;" horiz-adv-x="559" d="M74 475v184h411v-184h-411z" />
<glyph unicode="&#x2013;" d="M0 492v149h934v-149h-934z" />
<glyph unicode="&#x2014;" horiz-adv-x="1679" d="M0 492v149h1679v-149h-1679z" />
<glyph unicode="&#x2016;" horiz-adv-x="980" d="M313 -401v1880h119v-1880h-119zM551 -401v1880h119v-1880h-119z" />
<glyph unicode="&#x2018;" horiz-adv-x="372" d="M109 961v202q0 141 39.5 214t136.5 108v-96q-49 -10 -69.5 -59.5t-20.5 -149.5h90v-219h-176z" />
<glyph unicode="&#x2019;" horiz-adv-x="372" d="M88 946v96q49 10 69.5 59.5t20.5 149.5h-90v219h176v-202q0 -141 -40 -214t-136 -108z" />
<glyph unicode="&#x201a;" horiz-adv-x="372" d="M88 0v219h176v-203q0 -141 -40 -213.5t-136 -107.5v96q49 10 69.5 59.5t20.5 149.5h-90z" />
<glyph unicode="&#x201c;" horiz-adv-x="559" d="M63 961v202q0 141 40 214t135 108v-96q-49 -10 -68.5 -58.5t-19.5 -150.5h88v-219h-175zM342 961v202q0 141 40 215t134 107v-96q-49 -10 -68.5 -58.5t-19.5 -150.5h88v-219h-174z" />
<glyph unicode="&#x201d;" horiz-adv-x="559" d="M43 946v96q49 10 68.5 58.5t19.5 150.5h-88v219h174v-202q0 -141 -40 -214t-134 -108zM322 946v96q49 10 68.5 58.5t19.5 150.5h-88v219h174v-202q0 -141 -40 -214t-134 -108z" />
<glyph unicode="&#x201e;" horiz-adv-x="559" d="M43 0v219h174v-203q0 -141 -40 -213.5t-134 -107.5v96q49 10 68.5 58.5t19.5 150.5h-88zM322 0v219h174v-203q0 -141 -40 -214.5t-134 -106.5v96q49 10 68.5 58.5t19.5 150.5h-88z" />
<glyph unicode="&#x2020;" d="M72 881v157h317v432h158v-432h315v-157h-315v-1207h-158v1207h-317z" />
<glyph unicode="&#x2021;" d="M72 88v158h317v651h-317v158h317v415h158v-415h315v-158h-315v-651h315v-158h-315v-414h-158v414h-317z" />
<glyph unicode="&#x2022;" horiz-adv-x="587" d="M31 733q0 137 76.5 231.5t189.5 94.5q106 0 184 -95.5t78 -228.5t-78 -227t-188 -94q-109 0 -185.5 93t-76.5 226z" />
<glyph unicode="&#x2026;" horiz-adv-x="1679" d="M193 0v219h174v-219h-174zM752 0v219h174v-219h-174zM1313 0v219h174v-219h-174z" />
<glyph unicode="&#x202f;" horiz-adv-x="444" />
<glyph unicode="&#x2030;" horiz-adv-x="1679" d="M12 1040.5q0 182.5 66.5 282.5t189.5 100q119 0 185.5 -102t66.5 -282.5t-67.5 -281t-186.5 -100.5q-121 0 -187.5 100.5t-66.5 283zM129 1040.5q0 -274.5 137 -274.5t137 274.5t-135 274.5q-139 0 -139 -274.5zM156 -39l665 1479h92l-665 -1479h-92zM559 369 q0 184 66.5 283.5t189.5 99.5q119 0 185.5 -101.5t66.5 -282t-66.5 -281.5t-187.5 -101t-187.5 100.5t-66.5 282.5zM676 368.5q0 -274.5 137 -274.5t137 277q0 272 -135 272q-139 0 -139 -274.5zM1161 369q0 184 66.5 283.5t189.5 99.5q119 0 185.5 -101.5t66.5 -282 t-66.5 -281.5t-187.5 -101t-187.5 100.5t-66.5 282.5zM1278 368.5q0 -274.5 137 -274.5t137 277q0 272 -135 272q-139 0 -139 -274.5z" />
</font>
</defs>
</svg>
