<?xml version="1.0" standalone="no"?>
<!DOCTYPE svg PUBLIC "-//W3C//DTD SVG 1.1//EN" "http://www.w3.org/Graphics/SVG/1.1/DTD/svg11.dtd" >
<svg xmlns="http://www.w3.org/2000/svg">
<metadata>
This is a custom SVG webfont generated by Font Squirrel.
Copyright   : Copyright URW copyright 1999 by URW Design  Development Cyrillic glyphs added by Valek Filippov copyright 20012002 Vietnamese characters were added by Han The Thanh copyright 2006 2008 for TeX Gyre extensions by B Jackowski and JM Nowacki on behalf of TeX users groups This work is released under the GUST Font License   see httptugorgfontslicensesGUSTFONTLICENSEtxt for details
</metadata>
<defs>
<font id="webfontd2WYbh8y" horiz-adv-x="933" >
<font-face units-per-em="2048" ascent="1624" descent="-424" />
<missing-glyph horiz-adv-x="466" />
<glyph unicode="IJ" horiz-adv-x="1415" d="M55 0l258 1470h252l-258 -1470h-252zM526 274q0 86 33 281h236q-25 -156 -25 -215q0 -68 27.5 -98.5t87.5 -30.5q76 0 114.5 47t61.5 168l182 1044h252l-182 -1044q-80 -463 -461 -463q-166 0 -246 76.5t-80 234.5z" />
<glyph unicode="ij" horiz-adv-x="935" d="M55 0l191 1090h233l-190 -1090h-234zM276 1266l41 235h234l-41 -235h-234zM334 -438l41 229h41q70 0 86 100l209 1199h235l-209 -1205q-33 -182 -107.5 -252.5t-236.5 -70.5h-59zM743 1266l41 235h234l-41 -235h-234z" />
<glyph unicode="fk" horiz-adv-x="1492" d="M84 0l154 885h-129l36 205h129l15 88q27 160 107.5 235.5t224.5 75.5q45 0 106 -4l-41 -232h-65q-55 0 -70.5 -19.5t-32.5 -100.5l-8 -43h154l-37 -205h-154l-154 -885h-235zM614 0l256 1470h236l-139 -794l366 414h289l-389 -422l209 -668h-283l-131 467l-119 -123 l-59 -344h-236z" />
<glyph unicode="&#xfb00;" horiz-adv-x="1081" d="M84 0l154 885h-129l36 205h129l15 88q27 160 107.5 235.5t224.5 75.5q45 0 106 -4l-41 -232h-65q-55 0 -70.5 -19.5t-32.5 -100.5l-8 -43h295l14 88q27 160 108 235.5t224 75.5q45 0 106 -4l-40 -232h-66q-55 0 -70.5 -19.5t-31.5 -100.5l-9 -43h154l-37 -205h-153 l-154 -885h-236l154 885h-295l-154 -885h-235z" />
<glyph unicode="&#xfb01;" horiz-adv-x="1026" d="M84 0l154 885h-129l36 205h129l15 88q27 160 107.5 235.5t224.5 75.5q45 0 106 -4l-41 -232h-65q-55 0 -70.5 -19.5t-32.5 -100.5l-8 -43h154l-37 -205h-154l-154 -885h-235zM616 0l191 1090h233l-190 -1090h-234zM838 1266l41 235h233l-41 -235h-233z" />
<glyph unicode="&#xfb02;" horiz-adv-x="1026" d="M84 0l154 885h-129l36 205h129l15 88q27 160 107.5 235.5t224.5 75.5q45 0 106 -4l-41 -232h-65q-55 0 -70.5 -19.5t-32.5 -100.5l-8 -43h154l-37 -205h-154l-154 -885h-235zM614 0l256 1470h236l-256 -1470h-236z" />
<glyph unicode="&#xfb03;" horiz-adv-x="1556" d="M84 0l154 885h-129l36 205h129l15 88q27 160 107.5 235.5t224.5 75.5q45 0 106 -4l-41 -232h-65q-55 0 -70.5 -19.5t-32.5 -100.5l-8 -43h295l14 88q27 160 108 235.5t224 75.5q45 0 106 -4l-40 -232h-66q-55 0 -70.5 -19.5t-31.5 -100.5l-9 -43h154l-37 -205h-153 l-154 -885h-236l154 885h-295l-154 -885h-235zM1147 0l190 1090h234l-191 -1090h-233zM1368 1266l41 235h233l-40 -235h-234z" />
<glyph unicode="&#xfb04;" horiz-adv-x="1556" d="M84 0l154 885h-129l36 205h129l15 88q27 160 107.5 235.5t224.5 75.5q45 0 106 -4l-41 -232h-65q-55 0 -70.5 -19.5t-32.5 -100.5l-8 -43h295l14 88q27 160 108 235.5t224 75.5q45 0 106 -4l-40 -232h-66q-55 0 -70.5 -19.5t-31.5 -100.5l-9 -43h154l-37 -205h-153 l-154 -885h-236l154 885h-295l-154 -885h-235zM1145 0l256 1470h235l-256 -1470h-235z" />
<glyph unicode=" "  horiz-adv-x="466" />
<glyph unicode="&#x09;" horiz-adv-x="466" />
<glyph unicode="&#xa0;" horiz-adv-x="466" />
<glyph unicode="!" horiz-adv-x="559" d="M96 0l51 289h244l-49 -289h-246zM227 408l54 688l65 374h258l-65 -374l-187 -688h-125z" />
<glyph unicode="&#x22;" horiz-adv-x="796" d="M262 915l96 555h166l-98 -555h-164zM563 915l99 555h163l-96 -555h-166z" />
<glyph unicode="#" d="M39 408l53 184h162l72 246h-164l53 184h164l117 408h157l-116 -408h161l119 408h158l-119 -408h164l-53 -184h-162l-72 -246h164l-53 -184h-164l-117 -408h-157l116 408h-162l-118 -408h-158l119 408h-164zM412 592h163l72 246h-164z" />
<glyph unicode="$" d="M51 270q0 61 17 170h219q-6 -59 -6 -104q0 -66 26.5 -100.5t91.5 -53.5l76 430q-164 57 -226.5 129t-62.5 197q0 106 43 215t115 180q57 59 118.5 86t158.5 35l24 133h76l-23 -133q154 -25 219.5 -102.5t65.5 -216.5q0 -45 -6 -109h-215q4 66 4 82q0 68 -24.5 97.5 t-79.5 31.5l-68 -383q184 -82 244.5 -150.5t60.5 -197.5q0 -209 -125 -362.5t-336 -178.5l-35 -201h-75l34 201q-172 25 -241.5 96.5t-69.5 208.5zM410 1030q0 -59 25.5 -92t86.5 -55l62 354q-80 -8 -127 -65.5t-47 -141.5zM477 182q82 10 134.5 77t52.5 163q0 106 -119 156 z" />
<glyph unicode="%" horiz-adv-x="1492" d="M168 911q0 240 92 391.5t248 151.5q207 0 207 -235q0 -240 -91.5 -389.5t-246.5 -149.5q-209 0 -209 231zM279 -39l929 1493h123l-928 -1493h-124zM332 905q0 -84 65 -84q53 0 80 49q27 47 50.5 163t23.5 198t-66 82q-55 0 -79 -47q-29 -53 -51.5 -166t-22.5 -195z M905 207q0 242 92.5 392.5t247.5 150.5q207 0 207 -236q0 -240 -91 -389.5t-247 -149.5q-209 1 -209 232zM1069 201q0 -84 66 -84q53 0 79 49q27 47 50.5 161.5t23.5 198.5q0 82 -67 82q-70 0 -111 -128.5t-41 -278.5z" />
<glyph unicode="&#x26;" horiz-adv-x="1212" d="M88 295q0 309 313 512l29 18q-63 121 -63 234q0 170 112.5 290.5t268.5 120.5q113 0 181 -72.5t68 -191.5q0 -252 -268 -426l127 -258q68 102 102 242h209q-37 -145 -83 -238.5t-132 -203.5l162 -322h-283l-61 125q-92 -88 -175 -126t-187 -38q-145 0 -232.5 91 t-87.5 243zM332 362q0 -72 38 -115.5t101 -43.5q94 0 211 102l-164 338q-123 -98 -154.5 -148.5t-31.5 -132.5zM586 1110q0 -55 59 -160q80 57 113 106.5t33 108.5q0 88 -82 88q-51 0 -87 -42t-36 -101z" />
<glyph unicode="'" horiz-adv-x="399" d="M215 915l96 555h166l-96 -555h-166z" />
<glyph unicode="(" horiz-adv-x="559" d="M66 258q0 315 112.5 608t376.5 637h172q-231 -360 -330.5 -683.5t-99.5 -659.5q0 -256 94 -584h-174q-84 203 -117.5 355.5t-33.5 326.5z" />
<glyph unicode=")" horiz-adv-x="559" d="M-104 -424q229 352 329.5 678t100.5 664q0 254 -95 585h175q84 -207 117.5 -359.5t33.5 -326.5q0 -313 -115.5 -610t-373.5 -631h-172z" />
<glyph unicode="*" horiz-adv-x="653" d="M184 1147l66 149l158 -69l43 243h141l-41 -243l180 69l14 -149l-186 -66l80 -198l-121 -90l-82 186l-147 -186l-90 90l149 198z" />
<glyph unicode="+" horiz-adv-x="980" d="M158 424v176h286v287h177v-287h284v-176h-284v-285h-177v285h-286z" />
<glyph unicode="," horiz-adv-x="466" d="M-14 -344l18 108q78 29 118 81.5t64 154.5h-141l53 299h252l-45 -258q-57 -324 -319 -385z" />
<glyph unicode="-" horiz-adv-x="559" d="M61 440l48 267h466l-47 -267h-467z" />
<glyph unicode="." horiz-adv-x="466" d="M45 0l53 299h252l-53 -299h-252z" />
<glyph unicode="/" horiz-adv-x="466" d="M-123 -39l649 1548h197l-649 -1548h-197z" />
<glyph unicode="0" d="M84 365q0 242 70.5 515t164.5 396q135 178 340 178q315 0 316 -399q0 -252 -68.5 -519.5t-165.5 -394.5q-135 -180 -340 -180q-164 0 -240.5 110t-76.5 294zM319 365q0 -174 121 -175q96 0 154 111q49 98 98 348t49 406q0 170 -120 170q-96 0 -148.5 -99.5t-99.5 -349.5 q-54 -280 -54 -411z" />
<glyph unicode="1" d="M229 1001l35 201h33q270 0 338 252h192l-254 -1454h-235l176 1001h-285z" />
<glyph unicode="2" d="M-18 0q45 219 142 347t368 333q133 102 190 189t57 186q0 74 -36.5 115.5t-100.5 41.5q-88 0 -137 -62.5t-78 -209.5h-227q106 514 481 514q156 0 247 -94t91 -256q0 -238 -156 -420q-43 -49 -79.5 -80t-204.5 -155q-113 -86 -151 -120t-64 -75h518l-45 -254h-815z" />
<glyph unicode="3" d="M49 293q0 68 14 153h230q-10 -53 -10 -90q0 -78 35.5 -122t101.5 -44q90 0 156.5 87.5t66.5 205.5q0 82 -53 117t-182 37l36 205h37q117 0 177.5 65.5t60.5 177.5q0 139 -123 140q-158 0 -201 -238h-217q45 229 166 348t301 119q145 0 230.5 -83t85.5 -226 q0 -260 -205 -375q133 -68 133 -244q0 -227 -148.5 -396t-353.5 -169q-156 0 -247 89t-91 243z" />
<glyph unicode="4" d="M41 322l43 247l592 885h266l-158 -909h131l-38 -223h-132l-57 -322h-233l55 322h-469zM252 545h297l115 633z" />
<glyph unicode="5" d="M47 293q0 39 6 96h236q-2 -18 -2 -43q0 -74 34.5 -115t96.5 -41q96 0 164.5 103.5t68.5 249.5q0 180 -141 180q-100 0 -170 -105l-209 13l221 799h656l-43 -242h-484l-98 -316q111 80 221 80q135 0 216 -95t81 -253q0 -252 -150.5 -447.5t-375.5 -195.5q-145 0 -236.5 91 t-91.5 241z" />
<glyph unicode="6" d="M82 373q0 190 49 416.5t121 365.5q74 143 183.5 221t238.5 78q303 0 303 -317v-52h-234l2 25q0 53 -29.5 84t-82.5 31q-94 0 -155.5 -95.5t-115.5 -316.5q55 70 112.5 98.5t135.5 28.5q137 0 216 -92t79 -252q0 -244 -145.5 -439.5t-351.5 -195.5q-158 0 -242 106.5 t-84 305.5zM301 383q0 -88 39 -140.5t104 -52.5q90 0 156 104.5t66 248.5q0 78 -37 123t-101 45q-96 0 -161.5 -94.5t-65.5 -233.5z" />
<glyph unicode="7" d="M147 0q150 641 631 1176h-594l49 254h842l-39 -222q-487 -535 -647 -1208h-242z" />
<glyph unicode="8" d="M55 305q0 324 254 467q-57 43 -79.5 89t-22.5 116q0 199 132 338t318 139q143 0 229.5 -82t86.5 -221q0 -246 -195 -369q72 -53 99.5 -107t27.5 -136q0 -229 -147.5 -403.5t-358.5 -174.5q-162 0 -253 91t-91 253zM303 354q0 -78 37 -121t100 -43q88 0 151.5 86t63.5 205 q0 78 -35.5 122t-101.5 44q-90 0 -152.5 -84t-62.5 -209zM434 1006q0 -63 34 -102.5t89 -39.5q76 0 129 65.5t53 160.5q0 63 -30.5 99t-85.5 36q-78 0 -133.5 -63.5t-55.5 -155.5z" />
<glyph unicode="9" d="M70 276q0 37 2 60h233q0 -76 25.5 -111t83.5 -35q90 0 157.5 94.5t114.5 321.5q-100 -129 -252 -129q-133 0 -212 92.5t-79 249.5q0 258 143.5 446.5t360.5 188.5q158 0 241 -107.5t83 -310.5q0 -231 -70 -487t-166 -383q-156 -205 -364 -205q-135 0 -218 87t-83 228z M385 868q0 -162 133 -161q98 0 164 96t66 239q0 176 -140 177q-98 0 -160.5 -97.5t-62.5 -253.5z" />
<glyph unicode=":" horiz-adv-x="559" d="M92 0l51 299h254l-53 -299h-252zM223 750l53 299h252l-51 -299h-254z" />
<glyph unicode=";" horiz-adv-x="559" d="M33 -344l18 108q78 29 118 81.5t64 154.5h-141l53 299h252l-45 -258q-33 -172 -124 -272.5t-195 -112.5zM223 750l53 299h252l-51 -299h-254z" />
<glyph unicode="&#x3c;" horiz-adv-x="980" d="M209 453v118l579 652v-267l-395 -444l395 -444v-267z" />
<glyph unicode="=" horiz-adv-x="980" d="M158 240v176h747v-176h-747zM158 608v176h747v-176h-747z" />
<glyph unicode="&#x3e;" horiz-adv-x="980" d="M209 68l395 444l-395 444v267l579 -652v-118l-579 -652v267z" />
<glyph unicode="?" horiz-adv-x="1026" d="M215 1010q51 238 179 358.5t311 120.5q160 0 260 -87t100 -245q0 -150 -60.5 -254t-218.5 -227q-72 -55 -99.5 -102.5t-45.5 -147.5h-221q27 164 73 241.5t169 174.5q145 111 145 260q0 70 -36 107.5t-101 37.5q-76 0 -132.5 -57t-78.5 -148l-6 -32h-238zM338 0l51 289 h244l-49 -289h-246z" />
<glyph unicode="@" horiz-adv-x="1638" d="M250 573q0 178 66.5 351.5t176 300.5t257 205.5t301.5 78.5q211 0 350 -144t139 -364q0 -266 -176 -493t-373 -227q-31 0 -52 23.5t-21 57.5q0 8 4 33q-113 -115 -203 -114.5t-151.5 80t-61.5 196.5q0 205 143.5 395.5t313.5 190.5q129 0 178 -133l41 108h147l-188 -522 q-29 -80 -29 -104.5t21 -24.5q96 0 180 152.5t84 333t-101.5 287t-273.5 106.5q-244 0 -424 -227.5t-180 -534.5q0 -209 110.5 -334t296.5 -125q197 0 383 166h150q-143 -178 -279.5 -254t-292.5 -76q-238 0 -387 171t-149 441zM694 614q0 -59 28 -94t77 -35q90 0 172 105.5 t82 224.5q0 57 -30 93t-77 36q-90 0 -171 -105.5t-81 -224.5z" />
<glyph unicode="A" horiz-adv-x="1212" d="M-29 0l688 1470h291l168 -1470h-274l-25 303h-444l-137 -303h-267zM485 557h308l-48 588z" />
<glyph unicode="B" horiz-adv-x="1212" d="M66 0l256 1470h587q150 0 231 -76.5t81 -217.5q0 -266 -207 -383q74 -43 104.5 -99.5t30.5 -148.5q0 -225 -145 -387q-82 -90 -172.5 -124t-256.5 -34h-509zM352 254h310q106 0 169.5 73.5t63.5 182.5q0 63 -41 100t-113 37h-321zM463 895h297q96 0 153.5 56.5 t57.5 150.5q0 115 -162 115h-289z" />
<glyph unicode="C" horiz-adv-x="1212" d="M119 494q0 276 93 508.5t258 369.5t366 137q193 0 310.5 -122.5t117.5 -323.5q0 -41 -2 -74h-254q-6 131 -57.5 192.5t-155.5 61.5q-178 0 -296 -204.5t-118 -493.5q0 -152 59.5 -235t167.5 -83q104 0 181 65.5t135 211.5h252q-199 -543 -617 -543q-209 0 -324.5 138.5 t-115.5 394.5z" />
<glyph unicode="D" horiz-adv-x="1212" d="M66 0l256 1470h534q188 0 287.5 -121.5t99.5 -353.5q0 -254 -82 -481t-234.5 -370.5t-338.5 -143.5h-522zM356 254h246q109 0 198 102.5t135 260t46 329.5q0 270 -213 271h-244z" />
<glyph unicode="E" horiz-adv-x="1120" d="M66 0l256 1470h886l-45 -260h-641l-53 -309h588l-45 -260h-588l-66 -381h668l-45 -260h-915z" />
<glyph unicode="F" horiz-adv-x="1026" d="M66 0l256 1470h858l-45 -260h-607l-57 -331h530l-45 -261h-530l-109 -618h-251z" />
<glyph unicode="G" horiz-adv-x="1306" d="M121 510q0 262 94 490.5t267 368.5t384 140q201 0 323 -118.5t122 -315.5q0 -35 -2 -61h-252v12q0 96 -65.5 162.5t-160.5 66.5q-190 0 -320 -208.5t-130 -497.5q0 -156 70.5 -242t197.5 -86q231 0 359 324h-281l43 248h506l-139 -793h-168l6 184q-109 -125 -201 -174 t-213 -49q-203 0 -321.5 147.5t-118.5 401.5z" />
<glyph unicode="H" horiz-adv-x="1212" d="M57 0l256 1470h252l-96 -557h471l96 557h252l-256 -1470h-252l115 659h-471l-115 -659h-252z" />
<glyph unicode="I" horiz-adv-x="466" d="M45 0l258 1470h252l-258 -1470h-252z" />
<glyph unicode="J" d="M39 274q0 86 33 281h235q-25 -156 -24 -215q0 -68 27.5 -98.5t86.5 -30.5q76 0 115 47t61 168l183 1044h252l-183 -1044q-80 -463 -460 -463q-166 0 -246 76.5t-80 234.5z" />
<glyph unicode="K" horiz-adv-x="1212" d="M84 0l256 1470h252l-105 -598l566 598h325l-598 -602l371 -868h-326l-260 645l-143 -147l-86 -498h-252z" />
<glyph unicode="L" horiz-adv-x="1026" d="M66 0l256 1470h251l-208 -1204h600l-47 -266h-852z" />
<glyph unicode="M" horiz-adv-x="1398" d="M55 0l256 1470h383v-1167l420 1167h365l-256 -1470h-236l217 1247l-444 -1247h-252v1247l-217 -1247h-236z" />
<glyph unicode="N" horiz-adv-x="1212" d="M55 0l256 1470h264l304 -1032l178 1032h235l-256 -1470h-252l-311 1055l-182 -1055h-236z" />
<glyph unicode="O" horiz-adv-x="1306" d="M119 502q0 279 96 510t266 364t377 133q203 0 333 -139t130 -399q0 -430 -211 -720t-526 -290q-215 0 -340 145.5t-125 395.5zM377 555q0 -156 67.5 -245t188.5 -89q182 0 307 202t125 492q0 156 -67.5 245t-186.5 89q-186 0 -310 -206.5t-124 -487.5z" />
<glyph unicode="P" horiz-adv-x="1120" d="M66 0l256 1470h550q143 0 224.5 -90t81.5 -252q0 -238 -138.5 -418t-341.5 -180h-288l-93 -530h-251zM455 784h233q111 0 172.5 80t61.5 211q0 74 -46.5 108t-146.5 34h-199z" />
<glyph unicode="Q" horiz-adv-x="1306" d="M119 500q0 430 211 719.5t528 289.5q207 0 335 -141t128 -399q0 -446 -238 -758l105 -152l-162 -165l-115 165q-168 -98 -329 -98q-207 0 -335 139.5t-128 399.5zM377 555q0 -158 67.5 -246t186.5 -88q66 0 143 39l-98 139l160 166l102 -145q125 221 125 491 q0 160 -66.5 249t-187.5 89q-184 0 -308 -203.5t-124 -490.5z" />
<glyph unicode="R" horiz-adv-x="1212" d="M66 0l256 1470h610q150 0 231.5 -85t81.5 -240q0 -143 -67.5 -265t-186.5 -175q59 -37 83 -77t24 -108q0 -80 -39 -299q-12 -70 -12 -117q0 -45 34 -65l-6 -39h-280l-2 55q-2 37 22.5 205t24.5 191q0 70 -38 97t-130 27h-260l-101 -575h-245zM457 823h295q119 0 176 69 t57 183q0 141 -147 142h-314z" />
<glyph unicode="S" horiz-adv-x="1120" d="M74 332q0 39 10 121h242q-4 -45 -4 -56q0 -88 58 -135t165 -47q127 0 203.5 60.5t76.5 160.5q0 53 -41 86t-147 66l-123 37q-195 57 -256 124.5t-61 198.5q0 240 152.5 400.5t391.5 160.5q193 0 297.5 -102t104.5 -268q0 -47 -8 -105h-240v43q0 86 -53.5 132t-151.5 46 q-111 0 -179.5 -59t-68.5 -154q0 -47 23.5 -72.5t81.5 -43.5l278 -88q135 -43 194.5 -114t59.5 -187q0 -248 -162.5 -412t-418.5 -164q-199 0 -311.5 100.5t-112.5 270.5z" />
<glyph unicode="T" horiz-adv-x="1026" d="M172 1210l45 260h981l-45 -260h-365l-210 -1210h-252l211 1210h-365z" />
<glyph unicode="U" horiz-adv-x="1212" d="M135 346q0 76 12 150l170 974h256l-165 -954q-8 -41 -9 -90q0 -205 183 -205q231 0 280 281l170 968h256l-166 -956q-47 -268 -196.5 -410.5t-384.5 -142.5q-195 0 -300.5 100.5t-105.5 284.5z" />
<glyph unicode="V" horiz-adv-x="1120" d="M227 1470h334v-1122l459 1122h262l-666 -1470h-239z" />
<glyph unicode="W" horiz-adv-x="1585" d="M221 0v1470h273v-800v-287l358 1087h260v-1087l387 1087h256l-596 -1470h-227v1157l-391 -1157h-320z" />
<glyph unicode="X" horiz-adv-x="1120" d="M-39 0l520 752l-241 718h301l131 -475l303 475h291l-492 -706l260 -764h-307l-141 502l-330 -502h-295z" />
<glyph unicode="Y" horiz-adv-x="1120" d="M219 1470h297l139 -639l351 639h286l-565 -919l-94 -551h-254l98 555z" />
<glyph unicode="Z" horiz-adv-x="1026" d="M-20 0l45 260l790 950h-608l45 260h924l-43 -241l-801 -969h637l-47 -260h-942z" />
<glyph unicode="[" horiz-adv-x="559" d="M-27 -401l328 1880h414l-35 -197h-207l-260 -1487h209l-35 -196h-414z" />
<glyph unicode="\" horiz-adv-x="466" d="M145 1509h197l113 -1548h-197z" />
<glyph unicode="]" horiz-adv-x="559" d="M-90 -401l35 196h207l258 1487h-207l35 197h411l-327 -1880h-412z" />
<glyph unicode="^" horiz-adv-x="980" d="M158 662l436 768h168l168 -768h-185l-108 538l-297 -538h-182z" />
<glyph unicode="_" d="M-106 -256l18 102h934l-19 -102h-933z" />
<glyph unicode="`" horiz-adv-x="559" d="M154 1532h258l106 -299h-170z" />
<glyph unicode="a" d="M31 207q0 168 90 285.5t237 144.5l220 39q100 18 100 117q0 96 -127 96q-74 0 -115 -35t-65 -117h-226q59 209 164 295t291 86q152 0 235 -64.5t83 -183.5q0 -35 -7 -67l-102 -590q-10 -66 -10 -100q0 -51 32 -70l-8 -43h-254q-2 33 -2 59q0 31 4 70q-84 -86 -154.5 -122 t-156.5 -36q-109 0 -169 62.5t-60 173.5zM272 272q0 -45 25 -70.5t68 -25.5q86 0 158.5 63.5t86.5 151.5l25 139q-45 -35 -170 -59q-100 -20 -146.5 -67.5t-46.5 -131.5z" />
<glyph unicode="b" horiz-adv-x="1026" d="M41 0l256 1470h235l-92 -528q70 94 137.5 135t153.5 41q135 0 213 -103.5t78 -281.5q0 -195 -62.5 -369t-178 -283.5t-253.5 -109.5q-174 0 -231 172l-27 -143h-229zM348 416q0 -98 42 -153.5t118 -55.5q111 0 187.5 137t76.5 318q0 209 -154 208q-121 0 -195.5 -139 t-74.5 -315z" />
<glyph unicode="c" d="M72 348q0 319 151.5 544.5t388.5 225.5q152 0 242 -90t90 -240q0 -23 -4 -88h-238q-2 92 -29.5 134.5t-90.5 42.5q-117 0 -191 -143.5t-74 -346.5q0 -86 36 -133t100 -47q66 0 120 52t74 138h240q-63 -207 -187.5 -316.5t-296.5 -109.5q-162 0 -246.5 97.5t-84.5 279.5z " />
<glyph unicode="d" horiz-adv-x="1026" d="M76 369q0 311 142 530t345 219q86 0 139.5 -41t90.5 -135l92 528h235l-256 -1470h-231l26 143q-119 -172 -294 -172q-137 0 -213 105t-76 293zM322 428q0 -221 147 -221q117 0 195.5 129t78.5 321q0 213 -153 213q-117 0 -192.5 -135t-75.5 -307z" />
<glyph unicode="e" d="M57 367q0 322 154 536.5t385 214.5q164 0 251 -102.5t87 -296.5q0 -80 -19 -201l-8 -51h-612q-6 -45 -6 -80q0 -90 43 -138t121 -48q121 0 176 118h241q-158 -348 -460 -348q-172 0 -262.5 101.5t-90.5 294.5zM334 653h364l2 54q2 80 -40 128t-107 48q-78 0 -131 -55.5 t-88 -174.5z" />
<glyph unicode="f" horiz-adv-x="559" d="M84 0l154 885h-129l36 205h129l15 88q27 160 107.5 235.5t224.5 75.5q45 0 106 -4l-41 -232h-65q-55 0 -70.5 -19.5t-32.5 -100.5l-8 -43h154l-37 -205h-154l-154 -885h-235z" />
<glyph unicode="g" horiz-adv-x="1026" d="M2 -172q0 35 2 55h256q0 -61 32 -85.5t105 -24.5q100 0 157.5 59t80.5 191l24 141q-63 -94 -122.5 -132t-149.5 -38q-143 0 -223 101.5t-80 281.5q0 307 143.5 524t345.5 217q94 0 147.5 -47t80.5 -149l30 168h226l-180 -1033q-47 -270 -177.5 -385.5t-345.5 -115.5 q-166 0 -259 71.5t-93 200.5zM330 434q0 -94 38 -146t107 -52q115 0 188.5 124.5t73.5 292.5q0 100 -41 158.5t-112 58.5q-102 0 -178 -129t-76 -307z" />
<glyph unicode="h" horiz-adv-x="1026" d="M47 0l256 1470h236l-93 -530q102 178 297 178q117 0 184.5 -72.5t67.5 -199.5q0 -49 -8 -92l-131 -754h-235l114 662q10 61 10 92q0 57 -32.5 90t-89.5 33q-86 0 -148.5 -68t-83.5 -184l-108 -625h-236z" />
<glyph unicode="i" horiz-adv-x="466" d="M55 0l191 1090h233l-190 -1090h-234zM276 1266l41 235h234l-41 -235h-234z" />
<glyph unicode="j" horiz-adv-x="466" d="M-133 -438l41 229h41q70 0 86 100l209 1199h235l-209 -1205q-33 -182 -107.5 -252.5t-236.5 -70.5h-59zM276 1266l41 235h234l-41 -235h-234z" />
<glyph unicode="k" d="M55 0l256 1470h236l-139 -794l366 414h289l-389 -422l209 -668h-283l-131 467l-119 -123l-59 -344h-236z" />
<glyph unicode="l" horiz-adv-x="466" d="M55 0l256 1470h236l-256 -1470h-236z" />
<glyph unicode="m" horiz-adv-x="1492" d="M45 0l191 1090h225l-29 -166q66 104 133.5 149t161.5 45q86 0 131 -37t84 -137q72 96 133.5 135t143.5 39q113 0 180 -73.5t67 -198.5q0 -49 -8 -92l-131 -754h-235l114 662q8 57 8 83q0 131 -102 132q-76 0 -126 -58.5t-68 -165.5l-115 -653h-236l115 655q12 66 12 109 q0 113 -114 113q-147 0 -185 -213l-114 -664h-236z" />
<glyph unicode="n" horiz-adv-x="1026" d="M47 0l191 1090h225l-29 -166q72 104 141.5 149t163.5 45q121 0 188.5 -72.5t67.5 -199.5q0 -49 -8 -92l-131 -754h-235l114 662q10 61 10 92q0 57 -32.5 90t-89.5 33q-86 0 -148.5 -68t-83.5 -184l-108 -625h-236z" />
<glyph unicode="o" horiz-adv-x="1026" d="M76 389q0 309 165 519t406 210q172 0 271.5 -111.5t99.5 -306.5q0 -305 -166 -517t-406 -212q-172 0 -271 111.5t-99 306.5zM319 428q0 -215 170 -215q127 0 205 133t78 318q0 213 -170 213q-127 0 -205 -135.5t-78 -313.5z" />
<glyph unicode="p" horiz-adv-x="1026" d="M-31 -424l264 1514h226l-29 -164q74 106 141.5 149t159.5 43q135 0 213 -102.5t78 -282.5q0 -303 -143.5 -532.5t-352.5 -229.5q-90 0 -141 40t-82 134l-98 -569h-236zM350 414q0 -98 41 -152.5t117 -54.5q111 0 187.5 139t76.5 313q0 211 -154 211q-123 0 -195.5 -142 t-72.5 -314z" />
<glyph unicode="q" horiz-adv-x="1026" d="M74 367q0 291 147.5 521t356.5 230q88 0 138 -44t85 -152l28 168h226l-264 -1514h-236l100 565q-61 -90 -127.5 -130t-158.5 -40q-139 0 -217 105t-78 291zM317 403q0 -190 156 -190q113 0 189.5 128t76.5 316q0 98 -42 155.5t-113 57.5q-117 0 -192 -143.5t-75 -323.5z " />
<glyph unicode="r" horiz-adv-x="653" d="M45 0l191 1090h225l-35 -195q82 129 142.5 176t146.5 47q4 0 19.5 -2t25.5 -2l-51 -291q-23 4 -60 4q-225 0 -270 -260l-98 -567h-236z" />
<glyph unicode="s" d="M45 264q0 23 4 84h242q-2 -16 -2 -41q0 -119 164 -119q78 0 128 36t50 91q0 72 -176 107q-309 57 -310 264q0 193 127 312.5t316 119.5q332 0 332 -291q0 -41 -2 -69h-232v37q0 106 -137 106q-72 0 -116 -32.5t-44 -86.5q0 -70 174 -104q315 -63 316 -268 q0 -186 -131.5 -312.5t-337.5 -126.5q-170 0 -267.5 78t-97.5 215z" />
<glyph unicode="t" horiz-adv-x="559" d="M106 139q0 45 9 84l114 662h-120l34 205h123l51 294h236l-51 -294h145l-35 -205h-147l-103 -592q-6 -29 -6 -47q0 -41 86 -41q2 0 52 4l-39 -217l-142 -4q-106 0 -156.5 36.5t-50.5 114.5z" />
<glyph unicode="u" horiz-adv-x="1026" d="M102 246q0 74 11 127l127 717h235l-119 -676q-6 -33 -6 -70q0 -131 121 -131q86 0 146.5 66.5t80.5 181.5l111 629h235l-190 -1090h-225l28 160q-70 -100 -142.5 -144.5t-168.5 -44.5q-117 0 -180.5 72t-63.5 203z" />
<glyph unicode="v" d="M150 1090h307v-811l334 811h249l-512 -1090h-247z" />
<glyph unicode="w" horiz-adv-x="1306" d="M145 0v1090h254v-793l265 793h237v-793l277 793h241l-446 -1090h-242v805l-282 -805h-304z" />
<glyph unicode="x" d="M-37 0l402 555l-201 535h287l96 -318l203 318h276l-387 -535l207 -555h-291l-96 328l-211 -328h-285z" />
<glyph unicode="y" d="M8 -434l41 229q29 -4 49 -4q74 0 110 32t68 132l-131 1135h263l51 -811l325 811h250l-495 -1072l-102 -211q-36 -72 -72.5 -130t-71.5 -77.5t-73 -28.5t-101 -9z" />
<glyph unicode="z" horiz-adv-x="839" d="M-29 0l39 223l570 637h-426l39 230h725l-41 -236l-560 -618h469l-43 -236h-772z" />
<glyph unicode="{" horiz-adv-x="653" d="M96 444l33 189q74 2 123 45t61 110l72 410q23 121 103.5 201t181.5 80h139l-31 -181h-76q-51 0 -78.5 -31.5t-39.5 -103.5l-70 -401q-20 -90 -87 -151.5t-153 -71.5q166 -33 166 -191q0 -8 -4 -33l-69 -401q-6 -35 -7 -57q0 -78 76 -78h76l-31 -180h-139q-84 0 -138 60 t-54 155q0 31 6 65l71 410q4 25 4 33q0 112 -135 122z" />
<glyph unicode="|" horiz-adv-x="471" d="M188 -401v1880h177v-1880h-177z" />
<glyph unicode="}" horiz-adv-x="653" d="M-90 -401l31 180h75q94 0 117 135l70 401q23 90 88 152.5t151 71.5q-164 33 -163 190q0 23 2 33l69 401q6 31 6 58q0 78 -75 77h-76l33 181h137q84 0 138 -60.5t54 -154.5q0 -31 -6 -66l-72 -410q-2 -12 -2 -32q0 -113 134 -123l-33 -189q-74 -2 -123 -45t-62 -110 l-71 -410q-23 -121 -102.5 -200.5t-180.5 -79.5h-139z" />
<glyph unicode="~" horiz-adv-x="980" d="M131 496q70 104 127 148t127 44q35 0 150.5 -52t158.5 -52q68 0 127 73l86 -110q-70 -104 -126 -148.5t-126 -44.5q-37 0 -153.5 52.5t-157.5 52.5t-67.5 -15.5t-59.5 -60.5z" />
<glyph unicode="&#xa1;" horiz-adv-x="559" d="M23 -381l65 375l186 688h125l-53 -688l-65 -375h-258zM236 801l49 289h245l-51 -289h-243z" />
<glyph unicode="&#xa2;" d="M72 344q0 324 152.5 549t393.5 225q37 0 76 -6l70 174h88l-82 -201q174 -92 174 -299q0 -20 -4 -86h-238q0 98 -32 140l-254 -625q14 -8 37 -8q66 0 120 52t74 138h240q-63 -207 -187.5 -316.5t-296.5 -109.5q-51 0 -84 9l-90 -222h-86l99 246q-170 100 -170 340z M317 393q0 -74 31 -129l250 613h-20q-115 0 -188 -144.5t-73 -339.5z" />
<glyph unicode="&#xa3;" d="M23 176q104 63 173.5 158.5t69.5 208.5q0 61 -12 114h-154l21 123h98q-29 141 -29 195q0 203 141.5 349t336.5 146q156 0 246 -90t90 -245q0 -45 -11 -138h-221q2 31 2 76q0 168 -139 168q-84 0 -145.5 -66.5t-61.5 -160.5q0 -39 37 -234h240l-21 -123h-201 q-4 -150 -57 -246t-195 -210q141 59 215 59q35 0 111 -25.5t88 -25.5q72 0 182 74l29 -224q-143 -92 -266 -92q-78 0 -199 53q-63 29 -115 29q-33 0 -66.5 -12t-131.5 -60z" />
<glyph unicode="&#xa4;" d="M123 544.5q0 102.5 57 200.5l-26 27l122 125l29 -29q90 57 199 58q111 0 201 -58l26 29l125 -125l-27 -27q55 -94 55.5 -200.5t-55.5 -200.5l27 -27l-125 -124l-26 28q-90 -57 -201 -57q-109 0 -199 57l-29 -28l-122 124l26 27q-57 98 -57 200.5zM299 545 q0 -84 60.5 -144.5t144.5 -60.5q86 0 145.5 60.5t59.5 144.5t-59.5 144.5t-145.5 60.5q-84 0 -144.5 -60.5t-60.5 -144.5z" />
<glyph unicode="&#xa5;" d="M39 430l20 123h342l-41 154h-272l21 122h219l-156 601h252l137 -603l338 603h238l-357 -601h226l-23 -122h-276l-91 -154h340l-20 -123h-342l-76 -430h-213l74 430h-340z" />
<glyph unicode="&#xa6;" horiz-adv-x="471" d="M188 350h177v-751h-177v751zM188 727v752h177v-752h-177z" />
<glyph unicode="&#xa7;" d="M41 -72q0 27 6 78h221q-2 -14 -2 -39q0 -59 31 -93t88 -34q61 0 106.5 51.5t45.5 120.5q0 57 -78 113l-230 160q-74 51 -104.5 105t-30.5 132q0 119 49.5 204t163.5 159q-53 78 -53 170q0 174 123 304t289 130q129 0 203.5 -73t74.5 -199q0 -41 -6 -103h-213q2 16 2 43 q0 53 -27.5 84t-76.5 31q-59 0 -102.5 -42t-43.5 -100q0 -49 47 -81l244 -166q152 -104 152 -254q0 -104 -58.5 -200.5t-156.5 -154.5q63 -86 63 -194q0 -188 -130 -322.5t-310 -134.5q-133 0 -210 82t-77 223zM307 639q0 -57 60 -100l233 -172q96 66 96 153q0 61 -73 113 l-220 151q-41 -20 -68.5 -61t-27.5 -84z" />
<glyph unicode="&#xa8;" horiz-adv-x="559" d="M172 1266l41 235h197l-41 -235h-197zM510 1266l41 235h197l-41 -235h-197z" />
<glyph unicode="&#xa9;" horiz-adv-x="1236" d="M82 674q0 289 163 500.5t414.5 211.5t414.5 -211.5t163 -500.5t-163 -501t-414.5 -212t-414.5 212t-163 501zM197 673.5q0 -241.5 128 -419.5t334.5 -178t334.5 178t128 419.5t-128 420t-334.5 178.5t-334.5 -178.5t-128 -420zM338 553q-4 215 110.5 365.5t284.5 150.5 q109 0 177.5 -63.5t70.5 -167.5q0 -29 -2 -56h-166q-6 125 -104 125q-90 0 -145.5 -94t-53.5 -229q4 -143 113 -144q102 0 153 138h168q-106 -297 -352 -297q-119 0 -185.5 70.5t-68.5 201.5z" />
<glyph unicode="&#xaa;" horiz-adv-x="620" d="M92 565l29 164h504l-29 -164h-504zM147 967q0 98 59.5 169.5t153.5 88.5l142 22q63 8 63 62q0 55 -82 55q-49 0 -75.5 -18.5t-40.5 -65.5h-148q37 123 104.5 176t188.5 53q100 0 153.5 -39.5t53.5 -111.5q0 -14 -4 -39l-62 -354q-6 -35 -6 -56q0 -37 25 -45l-4 -26h-166 q-2 16 -2 34q0 20 2 43q-96 -94 -201 -94q-72 0 -113 39t-41 107zM309 1003.5q0 -57.5 60 -57.5q55 0 101 38t54 91l15 82q-27 -18 -90.5 -32.5t-101.5 -39t-38 -82z" />
<glyph unicode="&#xab;" d="M166 451l43 245l332 295l-43 -237l-199 -181l137 -180l-41 -237zM522 451l43 245l332 295l-41 -237l-199 -181l136 -180l-41 -237z" />
<glyph unicode="&#xac;" horiz-adv-x="980" d="M158 608v176h747v-456h-176v280h-571z" />
<glyph unicode="&#xad;" horiz-adv-x="559" d="M61 440l48 267h466l-47 -267h-467z" />
<glyph unicode="&#xae;" horiz-adv-x="1236" d="M82 674q0 289 163 500.5t414.5 211.5t414.5 -211.5t163 -500.5t-163 -501t-414.5 -212t-414.5 212t-163 501zM197 673.5q0 -241.5 128 -419.5t334.5 -178t334.5 178t128 419.5t-128 420t-334.5 178.5t-334.5 -178.5t-128 -420zM330 299l129 752h344q88 0 136 -45t50 -127 q0 -150 -117 -220q41 -31 41 -88q2 -33 -18 -149q-4 -20 -4 -53q0 -16 20 -25l-8 -45h-178l-2 39q-2 20 10 102t12 92q-2 49 -79 50h-125l-49 -283h-162zM569 733h144q109 0 104 105q0 57 -67 57h-154z" />
<glyph unicode="&#xaf;" horiz-adv-x="559" d="M156 1307l26 151h580l-27 -151h-579z" />
<glyph unicode="&#xb0;" horiz-adv-x="671" d="M231 1104q0 137 91.5 245.5t205.5 108.5q84 0 139.5 -65.5t55.5 -165.5q0 -137 -91 -246t-206 -109q-84 0 -139.5 66t-55.5 166zM328 1126q0 -59 33.5 -99t84.5 -40q70 0 125.5 66.5t55.5 148.5q0 61 -34 101t-85 40q-70 0 -125 -66.5t-55 -150.5z" />
<glyph unicode="&#xb1;" horiz-adv-x="980" d="M158 0v176h747v-176h-747zM158 600v176h286v287h177v-287h284v-176h-284v-266h-177v266h-286z" />
<glyph unicode="&#xb2;" horiz-adv-x="559" d="M55 580q29 133 92.5 212.5t225.5 194.5q160 113 159 227q0 45 -23.5 74t-62.5 29q-104 0 -137 -174h-147q66 336 311 336q100 0 159.5 -64.5t59.5 -173.5q0 -145 -94 -256q-18 -23 -32.5 -35t-46.5 -35l-91 -63q-90 -66 -127 -104h313l-30 -168h-529z" />
<glyph unicode="&#xb3;" horiz-adv-x="559" d="M92 776q0 43 6 94h150q-4 -37 -4 -45q0 -117 92 -116q57 0 95 51t38 131q0 49 -33 69.5t-114 20.5l22 131h25q145 0 145 137q0 76 -76 76q-102 0 -127 -127h-143q61 281 301 281q96 0 152.5 -50.5t56.5 -138.5q0 -160 -131 -225q90 -39 90 -152q0 -147 -96.5 -252.5 t-231.5 -105.5q-100 0 -158.5 59.5t-58.5 161.5z" />
<glyph unicode="&#xb4;" horiz-adv-x="559" d="M348 1233l211 299h258l-299 -299h-170z" />
<glyph unicode="&#xb5;" horiz-adv-x="1026" d="M-25 -424l265 1514h235l-119 -676q-6 -33 -6 -70q0 -131 121 -131q86 0 147.5 66.5t81.5 181.5l109 629h235l-190 -1090h-225l28 160q-127 -188 -256 -189q-74 0 -112 54l-78 -449h-236z" />
<glyph unicode="&#xb6;" d="M102 983q0 207 121 329t361 122h510l-320 -1825h-188l288 1651h-169l-289 -1651h-189l193 1102q-166 8 -242 75.5t-76 196.5z" />
<glyph unicode="&#xb7;" horiz-adv-x="466" d="M147 512q0 53 37 90t90.5 37t90 -37t36.5 -90t-36.5 -90t-90 -37t-90.5 37t-37 90z" />
<glyph unicode="&#xb8;" horiz-adv-x="559" d="M-123 -416l53 99q90 -33 123 -33q39 0 69 28.5t30 67.5q0 27 -16.5 42t-41.5 15q-20 0 -69 -16l-29 41l123 176h112l-65 -108h18q55 0 94 -35t39 -88q0 -98 -77.5 -169t-184.5 -71q-72 0 -178 51z" />
<glyph unicode="&#xb9;" horiz-adv-x="559" d="M186 1176l23 127h22q174 0 215 151h144l-154 -874h-168l103 596h-185z" />
<glyph unicode="&#xba;" horiz-adv-x="612" d="M92 565l29 164h504l-29 -164h-504zM145 1087q0 174 107.5 298t257.5 124q115 0 179.5 -71.5t64.5 -196.5q0 -174 -106.5 -297t-258.5 -123q-115 0 -179.5 70.5t-64.5 195.5zM311 1108q0 -66 28 -102.5t77 -36.5q70 0 121 75.5t51 178.5q0 63 -29 101t-76 38 q-70 0 -121 -76t-51 -178z" />
<glyph unicode="&#xbb;" d="M113 156l41 237l200 180l-137 181l41 237l229 -295l-43 -245zM471 156l41 237l199 180l-136 181l41 237l230 -295l-43 -245z" />
<glyph unicode="&#xbc;" horiz-adv-x="1400" d="M158 -51l981 1505h131l-979 -1505h-133zM186 1176l23 127h22q174 0 215 151h144l-152 -874h-170l103 596h-185zM707 184l26 152l377 532h182l-94 -542h84l-25 -142h-83l-33 -184h-160l33 184h-307zM850 322h194l70 380z" />
<glyph unicode="&#xbd;" horiz-adv-x="1400" d="M158 -51l981 1505h131l-979 -1505h-133zM186 1176l23 127h22q174 0 215 151h144l-152 -874h-170l103 596h-185zM743 0q27 131 90.5 212t227.5 196q160 113 160 227q0 45 -23.5 73.5t-62.5 28.5q-104 0 -138 -174h-147q63 336 311 336q100 0 159.5 -64.5t59.5 -172.5 q0 -145 -94 -256q-27 -33 -47 -48.5t-123 -85.5q-86 -59 -127 -104h314l-31 -168h-529z" />
<glyph unicode="&#xbe;" horiz-adv-x="1400" d="M106 774q0 41 7 96h151q-6 -31 -6 -49q0 -113 92 -112q57 0 94 51t37 131q0 49 -32.5 69.5t-112.5 20.5l22 131h25q145 0 145 137q0 76 -75 76q-102 0 -127 -127h-144q61 281 301 281q96 0 152.5 -50.5t56.5 -138.5q0 -160 -131 -225q88 -39 88 -152q0 -147 -96 -252.5 t-229 -105.5q-100 0 -159 59.5t-59 159.5zM231 -51l981 1505h131l-978 -1505h-134zM762 184l26 152l377 532h183l-95 -542h84l-24 -142h-84l-33 -184h-160l33 184h-307zM905 326h189l67 368z" />
<glyph unicode="&#xbf;" horiz-adv-x="1026" d="M29 -68q0 150 60.5 254.5t217.5 227.5q72 55 99.5 102t46.5 148h221q-27 -164 -73 -242t-169 -174q-145 -111 -145 -260q0 -70 35.5 -108t101.5 -38q76 0 132 57.5t79 147.5l6 33h238q-51 -238 -179.5 -358.5t-310.5 -120.5q-160 0 -260 86.5t-100 244.5zM461 801l49 289 h246l-51 -289h-244z" />
<glyph unicode="&#xc0;" horiz-adv-x="1212" d="M-29 0l688 1470h291l168 -1470h-274l-25 303h-444l-137 -303h-267zM485 557h308l-48 588zM545 1872h258l112 -258h-170z" />
<glyph unicode="&#xc1;" horiz-adv-x="1212" d="M-29 0l688 1470h291l168 -1470h-274l-25 303h-444l-137 -303h-267zM485 557h308l-48 588zM743 1614l205 258h258l-293 -258h-170z" />
<glyph unicode="&#xc2;" horiz-adv-x="1212" d="M-29 0l688 1470h291l168 -1470h-274l-25 303h-444l-137 -303h-267zM485 557h308l-48 588zM512 1614l256 258h211l166 -258h-191l-104 127l-148 -127h-190z" />
<glyph unicode="&#xc3;" horiz-adv-x="1212" d="M-29 0l688 1470h291l168 -1470h-274l-25 303h-444l-137 -303h-267zM485 557h308l-48 588zM522 1614q47 131 105.5 191.5t140.5 60.5q14 0 107.5 -37t105.5 -37q61 0 94 82h109q-82 -246 -226 -246q-18 0 -116.5 37t-118.5 37q-59 0 -94 -88h-107z" />
<glyph unicode="&#xc4;" horiz-adv-x="1212" d="M-29 0l688 1470h291l168 -1470h-274l-25 303h-444l-137 -303h-267zM485 557h308l-48 588zM565 1626l41 236h197l-41 -236h-197zM903 1626l41 236h197l-41 -236h-197z" />
<glyph unicode="&#xc5;" horiz-adv-x="1212" d="M-29 0l688 1470h291l168 -1470h-274l-25 303h-444l-137 -303h-267zM485 557h308l-48 588zM647 1786q12 72 86 125t158 53t139 -54.5t43 -127.5q-12 -72 -86 -126t-160 -54t-139 54t-41 130zM754 1784q-6 -37 19.5 -62.5t70.5 -25.5t81 25.5t42 60.5q6 37 -20.5 62.5 t-72.5 25.5q-43 0 -78.5 -25.5t-41.5 -60.5z" />
<glyph unicode="&#xc6;" horiz-adv-x="1679" d="M-53 0l696 1470h1143l-45 -260h-625l-53 -309h561l-45 -260h-561l-66 -381h635l-45 -260h-883l56 313h-363l-141 -313h-264zM461 555h295l114 655h-108z" />
<glyph unicode="&#xc7;" horiz-adv-x="1212" d="M119 494q0 276 93 508.5t258 369.5t366 137q193 0 310.5 -122.5t117.5 -323.5q0 -41 -2 -74h-254q-6 131 -57.5 192.5t-155.5 61.5q-178 0 -296 -204.5t-118 -493.5q0 -152 59.5 -235t167.5 -83q104 0 181 65.5t135 211.5h252q-184 -506 -560 -541l-41 -67h19 q55 0 94 -35t39 -88q0 -98 -78 -169t-184 -71q-72 0 -178 51l53 99q90 -33 123 -33q39 0 68.5 28.5t29.5 67.5q0 27 -16.5 42t-40.5 15q-20 0 -70 -16l-28 41l94 135q-180 20 -280.5 157.5t-100.5 373.5z" />
<glyph unicode="&#xc8;" horiz-adv-x="1120" d="M66 0l256 1470h886l-45 -260h-641l-53 -309h588l-45 -260h-588l-66 -381h668l-45 -260h-915zM504 1872h258l112 -258h-169z" />
<glyph unicode="&#xc9;" horiz-adv-x="1120" d="M66 0l256 1470h886l-45 -260h-641l-53 -309h588l-45 -260h-588l-66 -381h668l-45 -260h-915zM702 1614l205 258h258l-293 -258h-170z" />
<glyph unicode="&#xca;" horiz-adv-x="1120" d="M66 0l256 1470h886l-45 -260h-641l-53 -309h588l-45 -260h-588l-66 -381h668l-45 -260h-915zM471 1614l256 258h211l166 -258h-191l-104 127l-147 -127h-191z" />
<glyph unicode="&#xcb;" horiz-adv-x="1120" d="M66 0l256 1470h886l-45 -260h-641l-53 -309h588l-45 -260h-588l-66 -381h668l-45 -260h-915zM524 1626l41 236h197l-41 -236h-197zM862 1626l41 236h197l-41 -236h-197z" />
<glyph unicode="&#xcc;" horiz-adv-x="466" d="M45 0l258 1470h252l-258 -1470h-252zM209 1872h258l113 -258h-170z" />
<glyph unicode="&#xcd;" horiz-adv-x="466" d="M45 0l258 1470h252l-258 -1470h-252zM326 1614l204 258h258l-292 -258h-170z" />
<glyph unicode="&#xce;" horiz-adv-x="466" d="M45 0l258 1470h252l-258 -1470h-252zM135 1614l256 258h211l166 -258h-190l-105 127l-147 -127h-191z" />
<glyph unicode="&#xcf;" horiz-adv-x="466" d="M45 0l258 1470h252l-258 -1470h-252zM188 1626l41 236h197l-41 -236h-197zM526 1626l41 236h197l-41 -236h-197z" />
<glyph unicode="&#xd0;" horiz-adv-x="1212" d="M43 647l45 254h135l101 569h532q188 0 287.5 -121.5t99.5 -355.5q0 -252 -82 -478t-234.5 -370.5t-336.5 -144.5h-524l112 647h-135zM358 254h244q162 0 270.5 211t108.5 481.5t-213 270.5h-242l-55 -316h279l-45 -254h-279z" />
<glyph unicode="&#xd1;" horiz-adv-x="1212" d="M55 0l256 1470h264l304 -1032l178 1032h235l-256 -1470h-252l-311 1055l-182 -1055h-236zM518 1614q47 131 105.5 191.5t140.5 60.5q14 0 107.5 -37t105.5 -37q61 0 94 82h109q-82 -246 -226 -246q-18 0 -116.5 37t-118.5 37q-59 0 -94 -88h-107z" />
<glyph unicode="&#xd2;" horiz-adv-x="1306" d="M119 502q0 279 96 510t266 364t377 133q203 0 333 -139t130 -399q0 -430 -211 -720t-526 -290q-215 0 -340 145.5t-125 395.5zM377 555q0 -156 67.5 -245t188.5 -89q182 0 307 202t125 492q0 156 -67.5 245t-186.5 89q-186 0 -310 -206.5t-124 -487.5zM590 1872h258 l113 -258h-170z" />
<glyph unicode="&#xd3;" horiz-adv-x="1306" d="M119 502q0 279 96 510t266 364t377 133q203 0 333 -139t130 -399q0 -430 -211 -720t-526 -290q-215 0 -340 145.5t-125 395.5zM377 555q0 -156 67.5 -245t188.5 -89q182 0 307 202t125 492q0 156 -67.5 245t-186.5 89q-186 0 -310 -206.5t-124 -487.5zM791 1614l204 258 h258l-292 -258h-170z" />
<glyph unicode="&#xd4;" horiz-adv-x="1306" d="M119 502q0 279 96 510t266 364t377 133q203 0 333 -139t130 -399q0 -430 -211 -720t-526 -290q-215 0 -340 145.5t-125 395.5zM377 555q0 -156 67.5 -245t188.5 -89q182 0 307 202t125 492q0 156 -67.5 245t-186.5 89q-186 0 -310 -206.5t-124 -487.5zM559 1614l256 258 h211l166 -258h-191l-104 127l-147 -127h-191z" />
<glyph unicode="&#xd5;" horiz-adv-x="1306" d="M119 502q0 279 96 510t266 364t377 133q203 0 333 -139t130 -399q0 -430 -211 -720t-526 -290q-215 0 -340 145.5t-125 395.5zM377 555q0 -156 67.5 -245t188.5 -89q182 0 307 202t125 492q0 156 -67.5 245t-186.5 89q-186 0 -310 -206.5t-124 -487.5zM567 1614 q47 131 105.5 191.5t140.5 60.5q14 0 107.5 -37t105.5 -37q61 0 94 82h109q-82 -246 -225 -246q-18 0 -117 37t-119 37q-59 0 -94 -88h-107z" />
<glyph unicode="&#xd6;" horiz-adv-x="1306" d="M119 502q0 279 96 510t266 364t377 133q203 0 333 -139t130 -399q0 -430 -211 -720t-526 -290q-215 0 -340 145.5t-125 395.5zM377 555q0 -156 67.5 -245t188.5 -89q182 0 307 202t125 492q0 156 -67.5 245t-186.5 89q-186 0 -310 -206.5t-124 -487.5zM610 1626l41 236 h197l-41 -236h-197zM948 1626l41 236h197l-41 -236h-197z" />
<glyph unicode="&#xd7;" horiz-adv-x="980" d="M205 311l203 203l-203 201l125 125l202 -203l201 203l125 -125l-201 -201l201 -203l-125 -125l-201 203l-202 -203z" />
<glyph unicode="&#xd8;" horiz-adv-x="1306" d="M-2 23l176 190q-55 139 -55 291q0 424 212 714.5t521 290.5q213 0 362 -166l168 183l58 -78l-174 -188q55 -137 55 -291q0 -279 -96.5 -510.5t-265 -364.5t-373.5 -133q-221 0 -361 168l-170 -184zM377 561q0 -53 10 -115l629 682q-78 121 -207 121t-231.5 -106.5 t-151.5 -262t-49 -319.5zM422 344q76 -123 207 -123q133 0 234.5 108.5t150.5 262t49 317.5q0 57 -12 117z" />
<glyph unicode="&#xd9;" horiz-adv-x="1212" d="M135 346q0 76 12 150l170 974h256l-165 -954q-8 -41 -9 -90q0 -205 183 -205q231 0 280 281l170 968h256l-166 -956q-47 -268 -196.5 -410.5t-384.5 -142.5q-195 0 -300.5 100.5t-105.5 284.5zM543 1872h258l112 -258h-170z" />
<glyph unicode="&#xda;" horiz-adv-x="1212" d="M135 346q0 76 12 150l170 974h256l-165 -954q-8 -41 -9 -90q0 -205 183 -205q231 0 280 281l170 968h256l-166 -956q-47 -268 -196.5 -410.5t-384.5 -142.5q-195 0 -300.5 100.5t-105.5 284.5zM741 1614l205 258h258l-293 -258h-170z" />
<glyph unicode="&#xdb;" horiz-adv-x="1212" d="M135 346q0 76 12 150l170 974h256l-165 -954q-8 -41 -9 -90q0 -205 183 -205q231 0 280 281l170 968h256l-166 -956q-47 -268 -196.5 -410.5t-384.5 -142.5q-195 0 -300.5 100.5t-105.5 284.5zM510 1614l256 258h211l166 -258h-191l-104 127l-148 -127h-190z" />
<glyph unicode="&#xdc;" horiz-adv-x="1212" d="M135 346q0 76 12 150l170 974h256l-165 -954q-8 -41 -9 -90q0 -205 183 -205q231 0 280 281l170 968h256l-166 -956q-47 -268 -196.5 -410.5t-384.5 -142.5q-195 0 -300.5 100.5t-105.5 284.5zM563 1626l41 236h197l-41 -236h-197zM901 1626l41 236h197l-41 -236h-197z " />
<glyph unicode="&#xdd;" horiz-adv-x="1120" d="M219 1470h297l139 -639l351 639h286l-565 -919l-94 -551h-254l98 555zM700 1614l205 258h258l-293 -258h-170z" />
<glyph unicode="&#xde;" horiz-adv-x="1120" d="M66 0l256 1470h251l-34 -200h299q145 0 225 -91.5t80 -254.5q0 -238 -138.5 -418t-340.5 -180h-289l-58 -326h-251zM418 580h235q111 0 172.5 79.5t61.5 210.5q0 145 -193 146h-198z" />
<glyph unicode="&#xdf;" horiz-adv-x="1026" d="M55 0l193 1104q31 180 156.5 286.5t306.5 106.5q160 0 245.5 -78t85.5 -221q0 -250 -176 -356q76 -53 107 -110.5t31 -147.5q0 -248 -145.5 -430.5t-358.5 -182.5q-35 0 -94 13l38 225h7q8 -2 43 -2q125 0 196.5 90t71.5 235q0 90 -48 129t-171 50l35 198q129 6 176 63.5 t47 166.5q0 61 -36 95t-101 34q-72 0 -121 -49.5t-64 -133.5l-188 -1085h-236z" />
<glyph unicode="&#xe0;" d="M31 207q0 168 90 285.5t237 144.5l220 39q100 18 100 117q0 96 -127 96q-74 0 -115 -35t-65 -117h-226q59 209 164 295t291 86q152 0 235 -64.5t83 -183.5q0 -35 -7 -67l-102 -590q-10 -66 -10 -100q0 -51 32 -70l-8 -43h-254q-2 33 -2 59q0 31 4 70q-84 -86 -154.5 -122 t-156.5 -36q-109 0 -169 62.5t-60 173.5zM272 272q0 -45 25 -70.5t68 -25.5q86 0 158.5 63.5t86.5 151.5l25 139q-45 -35 -170 -59q-100 -20 -146.5 -67.5t-46.5 -131.5zM340 1532h258l107 -299h-170z" />
<glyph unicode="&#xe1;" d="M31 207q0 168 90 285.5t237 144.5l220 39q100 18 100 117q0 96 -127 96q-74 0 -115 -35t-65 -117h-226q59 209 164 295t291 86q152 0 235 -64.5t83 -183.5q0 -35 -7 -67l-102 -590q-10 -66 -10 -100q0 -51 32 -70l-8 -43h-254q-2 33 -2 59q0 31 4 70q-84 -86 -154.5 -122 t-156.5 -36q-109 0 -169 62.5t-60 173.5zM272 272q0 -45 25 -70.5t68 -25.5q86 0 158.5 63.5t86.5 151.5l25 139q-45 -35 -170 -59q-100 -20 -146.5 -67.5t-46.5 -131.5zM535 1233l210 299h259l-299 -299h-170z" />
<glyph unicode="&#xe2;" d="M31 207q0 168 90 285.5t237 144.5l220 39q100 18 100 117q0 96 -127 96q-74 0 -115 -35t-65 -117h-226q59 209 164 295t291 86q152 0 235 -64.5t83 -183.5q0 -35 -7 -67l-102 -590q-10 -66 -10 -100q0 -51 32 -70l-8 -43h-254q-2 33 -2 59q0 31 4 70q-84 -86 -154.5 -122 t-156.5 -36q-109 0 -169 62.5t-60 173.5zM272 272q0 -45 25 -70.5t68 -25.5q86 0 158.5 63.5t86.5 151.5l25 139q-45 -35 -170 -59q-100 -20 -146.5 -67.5t-46.5 -131.5zM324 1233l243 299h211l140 -299h-191l-78 168l-135 -168h-190z" />
<glyph unicode="&#xe3;" d="M31 207q0 168 90 285.5t237 144.5l220 39q100 18 100 117q0 96 -127 96q-74 0 -115 -35t-65 -117h-226q59 209 164 295t291 86q152 0 235 -64.5t83 -183.5q0 -35 -7 -67l-102 -590q-10 -66 -10 -100q0 -51 32 -70l-8 -43h-254q-2 33 -2 59q0 31 4 70q-84 -86 -154.5 -122 t-156.5 -36q-109 0 -169 62.5t-60 173.5zM272 272q0 -45 25 -70.5t68 -25.5q86 0 158.5 63.5t86.5 151.5l25 139q-45 -35 -170 -59q-100 -20 -146.5 -67.5t-46.5 -131.5zM313 1253q47 131 105.5 191.5t140.5 60.5q14 0 107.5 -36.5t105.5 -36.5q61 0 94 81h109 q-82 -246 -225 -245q-18 0 -116.5 36.5t-119.5 36.5q-59 0 -94 -88h-107z" />
<glyph unicode="&#xe4;" d="M31 207q0 168 90 285.5t237 144.5l220 39q100 18 100 117q0 96 -127 96q-74 0 -115 -35t-65 -117h-226q59 209 164 295t291 86q152 0 235 -64.5t83 -183.5q0 -35 -7 -67l-102 -590q-10 -66 -10 -100q0 -51 32 -70l-8 -43h-254q-2 33 -2 59q0 31 4 70q-84 -86 -154.5 -122 t-156.5 -36q-109 0 -169 62.5t-60 173.5zM272 272q0 -45 25 -70.5t68 -25.5q86 0 158.5 63.5t86.5 151.5l25 139q-45 -35 -170 -59q-100 -20 -146.5 -67.5t-46.5 -131.5zM358 1266l41 235h197l-41 -235h-197zM696 1266l41 235h197l-41 -235h-197z" />
<glyph unicode="&#xe5;" d="M31 207q0 168 90 285.5t237 144.5l220 39q100 18 100 117q0 96 -127 96q-74 0 -115 -35t-65 -117h-226q59 209 164 295t291 86q152 0 235 -64.5t83 -183.5q0 -35 -7 -67l-102 -590q-10 -66 -10 -100q0 -51 32 -70l-8 -43h-254q-2 33 -2 59q0 31 4 70q-84 -86 -154.5 -122 t-156.5 -36q-109 0 -169 62.5t-60 173.5zM272 272q0 -45 25 -70.5t68 -25.5q86 0 158.5 63.5t86.5 151.5l25 139q-45 -35 -170 -59q-100 -20 -146.5 -67.5t-46.5 -131.5zM434 1386q12 72 86 125.5t158 53.5t139 -54.5t41 -128.5q-12 -72 -85 -126t-159 -54t-140 54t-40 130z M539 1384q-6 -37 20.5 -62.5t71.5 -25.5t79.5 26t41.5 60q6 37 -19.5 62.5t-70.5 25.5q-43 0 -80 -25.5t-43 -60.5z" />
<glyph unicode="&#xe6;" horiz-adv-x="1492" d="M33 215q0 156 78.5 265.5t210.5 135.5l229 46q94 18 117.5 45.5t23.5 97.5q0 84 -135 84q-150 0 -178 -154h-232q53 197 165 290t296 93q164 0 264 -121q84 68 148.5 94.5t142.5 26.5q156 0 241 -105.5t85 -293.5q0 -80 -19 -201l-8 -51h-614q-4 -61 -4 -82 q0 -88 43 -136t121 -48q123 0 176 118h241q-158 -348 -467 -348q-115 0 -179 39t-109 137q-133 -176 -371 -176q-266 0 -266 244zM274 272q0 -45 29 -70.5t76 -25.5q80 0 152.5 63.5t86.5 145.5l23 137q-37 -35 -184 -61q-106 -20 -144.5 -65.5t-38.5 -123.5zM889 653h364 l2 52q2 82 -38.5 130t-108.5 48q-151 -1 -219 -230z" />
<glyph unicode="&#xe7;" d="M72 348q0 319 151.5 544.5t388.5 225.5q152 0 242 -90t90 -240q0 -23 -4 -88h-238q-2 92 -29.5 134.5t-90.5 42.5q-117 0 -191 -143.5t-74 -346.5q0 -86 36 -133t100 -47q66 0 120 52t74 138h240q-59 -188 -169 -296.5t-259 -125.5l-47 -79h18q55 0 94 -35t39 -88 q0 -98 -77.5 -169t-184.5 -71q-72 0 -178 51l53 99q90 -33 123 -33q39 0 68.5 28.5t29.5 67.5q0 27 -16 42t-41 15q-20 0 -70 -16l-28 41l102 147q-133 16 -202.5 111.5t-69.5 261.5z" />
<glyph unicode="&#xe8;" d="M57 367q0 322 154 536.5t385 214.5q164 0 251 -102.5t87 -296.5q0 -80 -19 -201l-8 -51h-612q-6 -45 -6 -80q0 -90 43 -138t121 -48q121 0 176 118h241q-158 -348 -460 -348q-172 0 -262.5 101.5t-90.5 294.5zM334 653h364l2 54q2 80 -40 128t-107 48q-78 0 -131 -55.5 t-88 -174.5zM342 1532h258l107 -299h-170z" />
<glyph unicode="&#xe9;" d="M57 367q0 322 154 536.5t385 214.5q164 0 251 -102.5t87 -296.5q0 -80 -19 -201l-8 -51h-612q-6 -45 -6 -80q0 -90 43 -138t121 -48q121 0 176 118h241q-158 -348 -460 -348q-172 0 -262.5 101.5t-90.5 294.5zM334 653h364l2 54q2 80 -40 128t-107 48q-78 0 -131 -55.5 t-88 -174.5zM535 1233l210 299h259l-299 -299h-170z" />
<glyph unicode="&#xea;" d="M57 367q0 322 154 536.5t385 214.5q164 0 251 -102.5t87 -296.5q0 -80 -19 -201l-8 -51h-612q-6 -45 -6 -80q0 -90 43 -138t121 -48q121 0 176 118h241q-158 -348 -460 -348q-172 0 -262.5 101.5t-90.5 294.5zM324 1233l243 299h211l140 -299h-191l-78 168l-135 -168 h-190zM334 653h364l2 54q2 80 -40 128t-107 48q-78 0 -131 -55.5t-88 -174.5z" />
<glyph unicode="&#xeb;" d="M57 367q0 322 154 536.5t385 214.5q164 0 251 -102.5t87 -296.5q0 -80 -19 -201l-8 -51h-612q-6 -45 -6 -80q0 -90 43 -138t121 -48q121 0 176 118h241q-158 -348 -460 -348q-172 0 -262.5 101.5t-90.5 294.5zM334 653h364l2 54q2 80 -40 128t-107 48q-78 0 -131 -55.5 t-88 -174.5zM358 1266l41 235h197l-41 -235h-197zM696 1266l41 235h197l-41 -235h-197z" />
<glyph unicode="&#xec;" horiz-adv-x="466" d="M55 0l191 1090h233l-190 -1090h-234zM139 1532h258l107 -299h-170z" />
<glyph unicode="&#xed;" horiz-adv-x="466" d="M55 0l191 1090h233l-190 -1090h-234zM270 1233l211 299h258l-299 -299h-170z" />
<glyph unicode="&#xee;" horiz-adv-x="466" d="M55 0l191 1090h233l-190 -1090h-234zM90 1233l244 299h211l139 -299h-190l-78 168l-135 -168h-191z" />
<glyph unicode="&#xef;" horiz-adv-x="466" d="M55 0l191 1090h233l-190 -1090h-234zM125 1266l41 235h196l-40 -235h-197zM463 1266l41 235h196l-41 -235h-196z" />
<glyph unicode="&#xf0;" horiz-adv-x="1026" d="M76 387q0 279 152.5 481.5t363.5 202.5q72 0 118 -29.5t83 -99.5q-31 141 -125 268l-197 -96l-88 107l199 96q-63 63 -107 92l199 100q66 -39 117 -90l186 90l86 -106l-184 -90q84 -133 118.5 -252t34.5 -266q0 -342 -168 -583t-418 -241q-172 0 -271 111.5t-99 304.5z M319 430q0 -104 45.5 -160.5t127.5 -56.5q119 0 197.5 127t78.5 276q0 100 -45 156.5t-123 56.5q-117 0 -199 -116.5t-82 -282.5z" />
<glyph unicode="&#xf1;" horiz-adv-x="1026" d="M47 0l191 1090h225l-29 -166q72 104 141.5 149t163.5 45q121 0 188.5 -72.5t67.5 -199.5q0 -49 -8 -92l-131 -754h-235l114 662q10 61 10 92q0 57 -32.5 90t-89.5 33q-86 0 -148.5 -68t-83.5 -184l-108 -625h-236zM360 1253q47 131 105.5 191.5t140.5 60.5 q14 0 107.5 -36.5t105.5 -36.5q61 0 94 81h109q-82 -246 -225 -245q-18 0 -116.5 36.5t-119.5 36.5q-59 0 -94 -88h-107z" />
<glyph unicode="&#xf2;" horiz-adv-x="1026" d="M76 389q0 309 165 519t406 210q172 0 271.5 -111.5t99.5 -306.5q0 -305 -166 -517t-406 -212q-172 0 -271 111.5t-99 306.5zM319 428q0 -215 170 -215q127 0 205 133t78 318q0 213 -170 213q-127 0 -205 -135.5t-78 -313.5zM387 1532h258l107 -299h-170z" />
<glyph unicode="&#xf3;" horiz-adv-x="1026" d="M76 389q0 309 165 519t406 210q172 0 271.5 -111.5t99.5 -306.5q0 -305 -166 -517t-406 -212q-172 0 -271 111.5t-99 306.5zM319 428q0 -215 170 -215q127 0 205 133t78 318q0 213 -170 213q-127 0 -205 -135.5t-78 -313.5zM582 1233l211 299h258l-299 -299h-170z" />
<glyph unicode="&#xf4;" horiz-adv-x="1026" d="M76 389q0 309 165 519t406 210q172 0 271.5 -111.5t99.5 -306.5q0 -305 -166 -517t-406 -212q-172 0 -271 111.5t-99 306.5zM319 428q0 -215 170 -215q127 0 205 133t78 318q0 213 -170 213q-127 0 -205 -135.5t-78 -313.5zM371 1233l243 299h211l140 -299h-191l-78 168 l-135 -168h-190z" />
<glyph unicode="&#xf5;" horiz-adv-x="1026" d="M76 389q0 309 165 519t406 210q172 0 271.5 -111.5t99.5 -306.5q0 -305 -166 -517t-406 -212q-172 0 -271 111.5t-99 306.5zM319 428q0 -215 170 -215q127 0 205 133t78 318q0 213 -170 213q-127 0 -205 -135.5t-78 -313.5zM360 1253q47 131 105.5 191.5t140.5 60.5 q14 0 107.5 -36.5t105.5 -36.5q61 0 94 81h109q-82 -246 -225 -245q-18 0 -116.5 36.5t-119.5 36.5q-59 0 -94 -88h-107z" />
<glyph unicode="&#xf6;" horiz-adv-x="1026" d="M76 389q0 309 165 519t406 210q172 0 271.5 -111.5t99.5 -306.5q0 -305 -166 -517t-406 -212q-172 0 -271 111.5t-99 306.5zM319 428q0 -215 170 -215q127 0 205 133t78 318q0 213 -170 213q-127 0 -205 -135.5t-78 -313.5zM406 1266l40 235h197l-41 -235h-196zM743 1266 l41 235h197l-41 -235h-197z" />
<glyph unicode="&#xf7;" horiz-adv-x="980" d="M158 424v176h747v-176h-747zM406 145.5q0 53.5 36.5 90t90 36.5t90 -37.5t36.5 -89.5q0 -53 -36.5 -90t-90 -37t-90 37t-36.5 90.5zM406 880.5q0 53.5 36.5 90.5t90 37t90 -37t36.5 -90.5t-36.5 -90t-90 -36.5t-90 36.5t-36.5 90z" />
<glyph unicode="&#xf8;" horiz-adv-x="1026" d="M-25 0l150 158q-49 113 -49 233q0 303 166 515t405 212q166 0 281 -121l141 150l47 -66l-145 -151q47 -113 47 -232q0 -301 -165 -514t-407 -213q-166 0 -276 119l-141 -149zM322 430q0 -2 4 -63l417 438q-49 72 -137 72q-123 0 -203.5 -128.5t-80.5 -318.5zM354 283 q43 -70 133 -70q125 0 205 129t80 317q0 31 -2 60z" />
<glyph unicode="&#xf9;" horiz-adv-x="1026" d="M102 246q0 74 11 127l127 717h235l-119 -676q-6 -33 -6 -70q0 -131 121 -131q86 0 146.5 66.5t80.5 181.5l111 629h235l-190 -1090h-225l28 160q-70 -100 -142.5 -144.5t-168.5 -44.5q-117 0 -180.5 72t-63.5 203zM387 1532h258l107 -299h-170z" />
<glyph unicode="&#xfa;" horiz-adv-x="1026" d="M102 246q0 74 11 127l127 717h235l-119 -676q-6 -33 -6 -70q0 -131 121 -131q86 0 146.5 66.5t80.5 181.5l111 629h235l-190 -1090h-225l28 160q-70 -100 -142.5 -144.5t-168.5 -44.5q-117 0 -180.5 72t-63.5 203zM582 1233l211 299h258l-299 -299h-170z" />
<glyph unicode="&#xfb;" horiz-adv-x="1026" d="M102 246q0 74 11 127l127 717h235l-119 -676q-6 -33 -6 -70q0 -131 121 -131q86 0 146.5 66.5t80.5 181.5l111 629h235l-190 -1090h-225l28 160q-70 -100 -142.5 -144.5t-168.5 -44.5q-117 0 -180.5 72t-63.5 203zM371 1233l243 299h211l140 -299h-191l-78 168l-135 -168 h-190z" />
<glyph unicode="&#xfc;" horiz-adv-x="1026" d="M102 246q0 74 11 127l127 717h235l-119 -676q-6 -33 -6 -70q0 -131 121 -131q86 0 146.5 66.5t80.5 181.5l111 629h235l-190 -1090h-225l28 160q-70 -100 -142.5 -144.5t-168.5 -44.5q-117 0 -180.5 72t-63.5 203zM406 1266l40 235h197l-41 -235h-196zM743 1266l41 235 h197l-41 -235h-197z" />
<glyph unicode="&#xfd;" d="M8 -434l41 229q29 -4 49 -4q74 0 110 32t68 132l-131 1135h263l51 -811l325 811h250l-495 -1072l-102 -211q-36 -72 -72.5 -130t-71.5 -77.5t-73 -28.5t-101 -9zM535 1233l210 299h259l-299 -299h-170z" />
<glyph unicode="&#xfe;" horiz-adv-x="1026" d="M-31 -424l330 1894h236l-93 -526q70 94 136.5 134t152.5 40q135 0 213 -103.5t78 -281.5q0 -195 -62.5 -369t-178 -283.5t-253.5 -109.5q-92 0 -143 40t-82 134l-98 -569h-236zM350 414q0 -98 41 -152.5t117 -54.5q111 0 187.5 140t76.5 310q0 213 -154 213 q-84 0 -147 -73.5t-92 -175t-29 -207.5z" />
<glyph unicode="&#xff;" d="M8 -434l41 229q29 -4 49 -4q74 0 110 32t68 132l-131 1135h263l51 -811l325 811h250l-495 -1072l-102 -211q-36 -72 -72.5 -130t-71.5 -77.5t-73 -28.5t-101 -9zM358 1266l41 235h197l-41 -235h-197zM696 1266l41 235h197l-41 -235h-197z" />
<glyph unicode="&#x100;" horiz-adv-x="1212" d="M-29 0l688 1470h291l168 -1470h-274l-25 303h-444l-137 -303h-267zM485 557h308l-48 588zM549 1667l26 152h580l-27 -152h-579z" />
<glyph unicode="&#x101;" d="M31 207q0 168 90 285.5t237 144.5l220 39q100 18 100 117q0 96 -127 96q-74 0 -115 -35t-65 -117h-226q59 209 164 295t291 86q152 0 235 -64.5t83 -183.5q0 -35 -7 -67l-102 -590q-10 -66 -10 -100q0 -51 32 -70l-8 -43h-254q-2 33 -2 59q0 31 4 70q-84 -86 -154.5 -122 t-156.5 -36q-109 0 -169 62.5t-60 173.5zM272 272q0 -45 25 -70.5t68 -25.5q86 0 158.5 63.5t86.5 151.5l25 139q-45 -35 -170 -59q-100 -20 -146.5 -67.5t-46.5 -131.5zM342 1307l27 151h579l-26 -151h-580z" />
<glyph unicode="&#x102;" horiz-adv-x="1212" d="M-29 0l688 1470h291l168 -1470h-274l-25 303h-444l-137 -303h-267zM485 557h308l-48 588zM569 1872h111q23 -51 61.5 -75.5t116.5 -24.5t121 24.5t70 75.5h129q-111 -258 -359 -258q-234 0 -250 258z" />
<glyph unicode="&#x103;" d="M31 207q0 168 90 285.5t237 144.5l220 39q100 18 100 117q0 96 -127 96q-74 0 -115 -35t-65 -117h-226q59 209 164 295t291 86q152 0 235 -64.5t83 -183.5q0 -35 -7 -67l-102 -590q-10 -66 -10 -100q0 -51 32 -70l-8 -43h-254q-2 33 -2 59q0 31 4 70q-84 -86 -154.5 -122 t-156.5 -36q-109 0 -169 62.5t-60 173.5zM272 272q0 -45 25 -70.5t68 -25.5q86 0 158.5 63.5t86.5 151.5l25 139q-45 -35 -170 -59q-100 -20 -146.5 -67.5t-46.5 -131.5zM387 1475q0 33 2 57h111v-12q0 -70 34.5 -100.5t112.5 -30.5q82 0 125 30.5t74 112.5h108 q-84 -299 -344 -299q-109 0 -166 62.5t-57 179.5z" />
<glyph unicode="&#x104;" horiz-adv-x="1212" d="M-29 0l688 1470h291l168 -1470q-125 -10 -211 -109q-55 -61 -55 -131q0 -86 127 -86h82l-33 -186h-82q-123 0 -210 50t-87 147q0 90 53 168q63 90 142 147l-25 303h-444l-137 -303h-267zM485 557h308l-48 588z" />
<glyph unicode="&#x105;" d="M31 207q0 168 90 285.5t237 144.5l220 39q100 18 100 117q0 96 -127 96q-74 0 -115 -35t-65 -117h-226q59 209 164 295t291 86q152 0 235 -64.5t83 -183.5q0 -35 -7 -67l-102 -590q-10 -66 -10 -100q0 -51 32 -70l-8 -43q-123 -10 -209 -109q-55 -61 -55 -131 q0 -86 127 -86h82l-33 -186h-82q-123 0 -210 50t-87 147q0 90 54 168q63 92 159 147q-2 33 -2 59q0 31 4 70q-84 -86 -154.5 -122t-156.5 -36q-109 0 -169 62.5t-60 173.5zM272 272q0 -45 25 -70.5t68 -25.5q86 0 158.5 63.5t86.5 151.5l25 139q-45 -35 -170 -59 q-100 -20 -146.5 -67.5t-46.5 -131.5z" />
<glyph unicode="&#x106;" horiz-adv-x="1212" d="M119 494q0 276 93 508.5t258 369.5t366 137q193 0 310.5 -122.5t117.5 -323.5q0 -41 -2 -74h-254q-6 131 -57.5 192.5t-155.5 61.5q-178 0 -296 -204.5t-118 -493.5q0 -152 59.5 -235t167.5 -83q104 0 181 65.5t135 211.5h252q-199 -543 -617 -543q-209 0 -324.5 138.5 t-115.5 394.5zM768 1614l205 258h258l-293 -258h-170z" />
<glyph unicode="&#x107;" d="M72 348q0 319 151.5 544.5t388.5 225.5q152 0 242 -90t90 -240q0 -23 -4 -88h-238q-2 92 -29.5 134.5t-90.5 42.5q-117 0 -191 -143.5t-74 -346.5q0 -86 36 -133t100 -47q66 0 120 52t74 138h240q-63 -207 -187.5 -316.5t-296.5 -109.5q-162 0 -246.5 97.5t-84.5 279.5z M535 1233l210 299h259l-299 -299h-170z" />
<glyph unicode="&#x108;" horiz-adv-x="1212" d="M119 494q0 276 93 508.5t258 369.5t366 137q193 0 310.5 -122.5t117.5 -323.5q0 -41 -2 -74h-254q-6 131 -57.5 192.5t-155.5 61.5q-178 0 -296 -204.5t-118 -493.5q0 -152 59.5 -235t167.5 -83q104 0 181 65.5t135 211.5h252q-199 -543 -617 -543q-209 0 -324.5 138.5 t-115.5 394.5zM537 1614l256 258h211l165 -258h-190l-105 127l-147 -127h-190z" />
<glyph unicode="&#x109;" d="M72 348q0 319 151.5 544.5t388.5 225.5q152 0 242 -90t90 -240q0 -23 -4 -88h-238q-2 92 -29.5 134.5t-90.5 42.5q-117 0 -191 -143.5t-74 -346.5q0 -86 36 -133t100 -47q66 0 120 52t74 138h240q-63 -207 -187.5 -316.5t-296.5 -109.5q-162 0 -246.5 97.5t-84.5 279.5z M324 1233l243 299h211l140 -299h-191l-78 168l-135 -168h-190z" />
<glyph unicode="&#x10a;" horiz-adv-x="1212" d="M119 494q0 276 93 508.5t258 369.5t366 137q193 0 310.5 -122.5t117.5 -323.5q0 -41 -2 -74h-254q-6 131 -57.5 192.5t-155.5 61.5q-178 0 -296 -204.5t-118 -493.5q0 -152 59.5 -235t167.5 -83q104 0 181 65.5t135 211.5h252q-199 -543 -617 -543q-209 0 -324.5 138.5 t-115.5 394.5zM739 1626l41 236h234l-41 -236h-234z" />
<glyph unicode="&#x10b;" d="M72 348q0 319 151.5 544.5t388.5 225.5q152 0 242 -90t90 -240q0 -23 -4 -88h-238q-2 92 -29.5 134.5t-90.5 42.5q-117 0 -191 -143.5t-74 -346.5q0 -86 36 -133t100 -47q66 0 120 52t74 138h240q-63 -207 -187.5 -316.5t-296.5 -109.5q-162 0 -246.5 97.5t-84.5 279.5z M510 1266l41 235h233l-41 -235h-233z" />
<glyph unicode="&#x10c;" horiz-adv-x="1212" d="M119 494q0 276 93 508.5t258 369.5t366 137q193 0 310.5 -122.5t117.5 -323.5q0 -41 -2 -74h-254q-6 131 -57.5 192.5t-155.5 61.5q-178 0 -296 -204.5t-118 -493.5q0 -152 59.5 -235t167.5 -83q104 0 181 65.5t135 211.5h252q-199 -543 -617 -543q-209 0 -324.5 138.5 t-115.5 394.5zM582 1872h190l105 -127l147 127h190l-256 -258h-210z" />
<glyph unicode="&#x10d;" d="M72 348q0 319 151.5 544.5t388.5 225.5q152 0 242 -90t90 -240q0 -23 -4 -88h-238q-2 92 -29.5 134.5t-90.5 42.5q-117 0 -191 -143.5t-74 -346.5q0 -86 36 -133t100 -47q66 0 120 52t74 138h240q-63 -207 -187.5 -316.5t-296.5 -109.5q-162 0 -246.5 97.5t-84.5 279.5z M375 1532h190l78 -168l135 168h191l-244 -299h-211z" />
<glyph unicode="&#x10e;" horiz-adv-x="1212" d="M66 0l256 1470h534q188 0 287.5 -121.5t99.5 -353.5q0 -254 -82 -481t-234.5 -370.5t-338.5 -143.5h-522zM356 254h246q109 0 198 102.5t135 260t46 329.5q0 270 -213 271h-244zM565 1872h191l104 -127l148 127h190l-256 -258h-211z" />
<glyph unicode="&#x10f;" horiz-adv-x="1026" d="M76 369q0 311 142 530t345 219q86 0 139.5 -41t90.5 -135l92 528h235l-256 -1470h-231l26 143q-119 -172 -294 -172q-137 0 -213 105t-76 293zM322 428q0 -221 147 -221q117 0 195.5 129t78.5 321q0 213 -153 213q-117 0 -192.5 -135t-75.5 -307zM1151 983l16 88 q59 12 98.5 61.5t47.5 118.5h-115l39 219h201l-35 -194q-14 -119 -85 -201t-167 -92z" />
<glyph unicode="&#x110;" horiz-adv-x="1212" d="M43 647l45 254h135l101 569h532q188 0 287.5 -121.5t99.5 -355.5q0 -252 -82 -478t-234.5 -370.5t-336.5 -144.5h-524l112 647h-135zM358 254h244q162 0 270.5 211t108.5 481.5t-213 270.5h-242l-55 -316h279l-45 -254h-279z" />
<glyph unicode="&#x111;" horiz-adv-x="1042" d="M76 369q0 311 142 530t345 219q86 0 139.5 -41t90.5 -135l45 262h-226l27 152h225l21 114h235l-20 -114h119l-27 -152h-119l-209 -1204h-231l26 143q-119 -172 -294 -172q-137 0 -213 105t-76 293zM322 428q0 -221 147 -221q117 0 195.5 129t78.5 321q0 213 -153 213 q-117 0 -192.5 -135t-75.5 -307z" />
<glyph unicode="&#x112;" horiz-adv-x="1120" d="M66 0l256 1470h886l-45 -260h-641l-53 -309h588l-45 -260h-588l-66 -381h668l-45 -260h-915zM508 1667l27 152h579l-27 -152h-579z" />
<glyph unicode="&#x113;" d="M57 367q0 322 154 536.5t385 214.5q164 0 251 -102.5t87 -296.5q0 -80 -19 -201l-8 -51h-612q-6 -45 -6 -80q0 -90 43 -138t121 -48q121 0 176 118h241q-158 -348 -460 -348q-172 0 -262.5 101.5t-90.5 294.5zM334 653h364l2 54q2 80 -40 128t-107 48q-78 0 -131 -55.5 t-88 -174.5zM342 1307l27 151h579l-26 -151h-580z" />
<glyph unicode="&#x114;" horiz-adv-x="1120" d="M66 0l256 1470h886l-45 -260h-641l-53 -309h588l-45 -260h-588l-66 -381h668l-45 -260h-915zM528 1872h111q23 -51 61.5 -75.5t116.5 -24.5t121 24.5t70 75.5h129q-111 -258 -359 -258q-234 0 -250 258z" />
<glyph unicode="&#x115;" d="M57 367q0 322 154 536.5t385 214.5q164 0 251 -102.5t87 -296.5q0 -80 -19 -201l-8 -51h-612q-6 -45 -6 -80q0 -90 43 -138t121 -48q121 0 176 118h241q-158 -348 -460 -348q-172 0 -262.5 101.5t-90.5 294.5zM334 653h364l2 54q2 80 -40 128t-107 48q-78 0 -131 -55.5 t-88 -174.5zM387 1475q0 33 2 57h111v-12q0 -70 34.5 -100.5t112.5 -30.5q82 0 125 30.5t74 112.5h108q-84 -299 -344 -299q-109 0 -166 62.5t-57 179.5z" />
<glyph unicode="&#x116;" horiz-adv-x="1120" d="M66 0l256 1470h886l-45 -260h-641l-53 -309h588l-45 -260h-588l-66 -381h668l-45 -260h-915zM676 1626l41 236h233l-41 -236h-233z" />
<glyph unicode="&#x117;" d="M57 367q0 322 154 536.5t385 214.5q164 0 251 -102.5t87 -296.5q0 -80 -19 -201l-8 -51h-612q-6 -45 -6 -80q0 -90 43 -138t121 -48q121 0 176 118h241q-158 -348 -460 -348q-172 0 -262.5 101.5t-90.5 294.5zM334 653h364l2 54q2 80 -40 128t-107 48q-78 0 -131 -55.5 t-88 -174.5zM510 1266l41 235h233l-41 -235h-233z" />
<glyph unicode="&#x118;" horiz-adv-x="1120" d="M66 0l256 1470h886l-45 -260h-641l-53 -309h588l-45 -260h-588l-66 -381h668l-45 -260q-125 -10 -211 -109q-55 -61 -55 -131q0 -86 127 -86h82l-33 -186h-82q-123 0 -210 50t-87 147q0 90 50 162.5t155 152.5h-651z" />
<glyph unicode="&#x119;" d="M57 367q0 322 154 536.5t385 214.5q164 0 251 -102.5t87 -296.5q0 -80 -19 -201l-8 -51h-612q-6 -45 -6 -80q0 -90 43 -138t121 -48q121 0 176 118h241q-80 -178 -200 -268q-98 -72 -178 -160q-55 -61 -56 -131q0 -86 127 -86h82l-33 -186h-82q-123 0 -210 50t-87 147 q0 150 168 286q-168 2 -256 102.5t-88 293.5zM334 653h364l2 54q2 80 -40 128t-107 48q-78 0 -131 -55.5t-88 -174.5z" />
<glyph unicode="&#x11a;" horiz-adv-x="1120" d="M66 0l256 1470h886l-45 -260h-641l-53 -309h588l-45 -260h-588l-66 -381h668l-45 -260h-915zM518 1872h191l104 -127l148 127h190l-256 -258h-211z" />
<glyph unicode="&#x11b;" d="M57 367q0 322 154 536.5t385 214.5q164 0 251 -102.5t87 -296.5q0 -80 -19 -201l-8 -51h-612q-6 -45 -6 -80q0 -90 43 -138t121 -48q121 0 176 118h241q-158 -348 -460 -348q-172 0 -262.5 101.5t-90.5 294.5zM334 653h364l2 54q2 80 -40 128t-107 48q-78 0 -131 -55.5 t-88 -174.5zM375 1532h190l78 -168l135 168h191l-244 -299h-211z" />
<glyph unicode="&#x11c;" horiz-adv-x="1306" d="M121 510q0 262 94 490.5t267 368.5t384 140q201 0 323 -118.5t122 -315.5q0 -35 -2 -61h-252v12q0 96 -65.5 162.5t-160.5 66.5q-190 0 -320 -208.5t-130 -497.5q0 -156 70.5 -242t197.5 -86q231 0 359 324h-281l43 248h506l-139 -793h-168l6 184q-109 -125 -201 -174 t-213 -49q-203 0 -321.5 147.5t-118.5 401.5zM567 1614l256 258h211l166 -258h-190l-105 127l-147 -127h-191z" />
<glyph unicode="&#x11d;" horiz-adv-x="1026" d="M2 -172q0 35 2 55h256q0 -61 32 -85.5t105 -24.5q100 0 157.5 59t80.5 191l24 141q-63 -94 -122.5 -132t-149.5 -38q-143 0 -223 101.5t-80 281.5q0 307 143.5 524t345.5 217q94 0 147.5 -47t80.5 -149l30 168h226l-180 -1033q-47 -270 -177.5 -385.5t-345.5 -115.5 q-166 0 -259 71.5t-93 200.5zM330 434q0 -94 38 -146t107 -52q115 0 188.5 124.5t73.5 292.5q0 100 -41 158.5t-112 58.5q-102 0 -178 -129t-76 -307zM371 1233l243 299h211l140 -299h-191l-78 168l-135 -168h-190z" />
<glyph unicode="&#x11e;" horiz-adv-x="1306" d="M121 510q0 262 94 490.5t267 368.5t384 140q201 0 323 -118.5t122 -315.5q0 -35 -2 -61h-252v12q0 96 -65.5 162.5t-160.5 66.5q-190 0 -320 -208.5t-130 -497.5q0 -156 70.5 -242t197.5 -86q231 0 359 324h-281l43 248h506l-139 -793h-168l6 184q-109 -125 -201 -174 t-213 -49q-203 0 -321.5 147.5t-118.5 401.5zM625 1872h110q23 -51 62 -75.5t116.5 -24.5t120.5 24.5t70 75.5h129q-111 -258 -359 -258q-233 0 -249 258z" />
<glyph unicode="&#x11f;" horiz-adv-x="1026" d="M2 -172q0 35 2 55h256q0 -61 32 -85.5t105 -24.5q100 0 157.5 59t80.5 191l24 141q-63 -94 -122.5 -132t-149.5 -38q-143 0 -223 101.5t-80 281.5q0 307 143.5 524t345.5 217q94 0 147.5 -47t80.5 -149l30 168h226l-180 -1033q-47 -270 -177.5 -385.5t-345.5 -115.5 q-166 0 -259 71.5t-93 200.5zM330 434q0 -94 38 -146t107 -52q115 0 188.5 124.5t73.5 292.5q0 100 -41 158.5t-112 58.5q-102 0 -178 -129t-76 -307zM434 1475q0 33 2 57h111v-12q0 -70 34.5 -100.5t112.5 -30.5q82 0 125 30.5t74 112.5h108q-84 -299 -344 -299 q-109 0 -166 62.5t-57 179.5z" />
<glyph unicode="&#x120;" horiz-adv-x="1306" d="M121 510q0 262 94 490.5t267 368.5t384 140q201 0 323 -118.5t122 -315.5q0 -35 -2 -61h-252v12q0 96 -65.5 162.5t-160.5 66.5q-190 0 -320 -208.5t-130 -497.5q0 -156 70.5 -242t197.5 -86q231 0 359 324h-281l43 248h506l-139 -793h-168l6 184q-109 -125 -201 -174 t-213 -49q-203 0 -321.5 147.5t-118.5 401.5zM770 1626l41 236h233l-40 -236h-234z" />
<glyph unicode="&#x121;" horiz-adv-x="1026" d="M2 -172q0 35 2 55h256q0 -61 32 -85.5t105 -24.5q100 0 157.5 59t80.5 191l24 141q-63 -94 -122.5 -132t-149.5 -38q-143 0 -223 101.5t-80 281.5q0 307 143.5 524t345.5 217q94 0 147.5 -47t80.5 -149l30 168h226l-180 -1033q-47 -270 -177.5 -385.5t-345.5 -115.5 q-166 0 -259 71.5t-93 200.5zM330 434q0 -94 38 -146t107 -52q115 0 188.5 124.5t73.5 292.5q0 100 -41 158.5t-112 58.5q-102 0 -178 -129t-76 -307zM557 1266l41 235h233l-40 -235h-234z" />
<glyph unicode="&#x122;" horiz-adv-x="1306" d="M121 510q0 262 94 490.5t267 368.5t384 140q201 0 323 -118.5t122 -315.5q0 -35 -2 -61h-252v12q0 96 -65.5 162.5t-160.5 66.5q-190 0 -320 -208.5t-130 -497.5q0 -156 70.5 -242t197.5 -86q231 0 359 324h-281l43 248h506l-139 -793h-168l6 184q-109 -125 -201 -174 t-213 -49q-203 0 -321.5 147.5t-118.5 401.5zM395 -610l17 88q59 12 98 61t47 119h-115l39 219h201l-35 -194q-14 -119 -85 -201t-167 -92z" />
<glyph unicode="&#x123;" horiz-adv-x="1026" d="M2 -172q0 35 2 55h256q0 -61 32 -85.5t105 -24.5q100 0 157.5 59t80.5 191l24 141q-63 -94 -122.5 -132t-149.5 -38q-143 0 -223 101.5t-80 281.5q0 307 143.5 524t345.5 217q94 0 147.5 -47t80.5 -149l30 168h226l-180 -1033q-47 -270 -177.5 -385.5t-345.5 -115.5 q-166 0 -259 71.5t-93 200.5zM330 434q0 -94 38 -146t107 -52q115 0 188.5 124.5t73.5 292.5q0 100 -41 158.5t-112 58.5q-102 0 -178 -129t-76 -307zM561 1198l35 195q14 119 85 200.5t167 92.5l-17 -89q-59 -12 -98 -61t-47 -119h115l-39 -219h-201z" />
<glyph unicode="&#x124;" horiz-adv-x="1212" d="M57 0l256 1470h252l-96 -557h471l96 557h252l-256 -1470h-252l115 659h-471l-115 -659h-252zM508 1614l256 258h211l166 -258h-191l-104 127l-148 -127h-190z" />
<glyph unicode="&#x125;" horiz-adv-x="1026" d="M47 0l256 1470h236l-93 -530q102 178 297 178q117 0 184.5 -72.5t67.5 -199.5q0 -49 -8 -92l-131 -754h-235l114 662q10 61 10 92q0 57 -32.5 90t-89.5 33q-86 0 -148.5 -68t-83.5 -184l-108 -625h-236zM416 1614l256 258h211l166 -258h-191l-104 127l-148 -127h-190z " />
<glyph unicode="&#x126;" horiz-adv-x="1212" d="M57 0l193 1104h-125l25 145h124l39 221h252l-39 -221h471l39 221h252l-39 -221h125l-24 -145h-125l-193 -1104h-252l115 659h-471l-115 -659h-252zM469 913h471l33 191h-471z" />
<glyph unicode="&#x127;" horiz-adv-x="1159" d="M172 0l184 1055l-125 -43l27 155l125 43l45 260h236l-31 -176l180 64l-27 -156l-180 -61l-35 -201q102 178 297 178q117 0 184.5 -72.5t67.5 -199.5q0 -49 -8 -92l-131 -754h-236l115 662q10 61 10 92q0 57 -31.5 90t-90.5 33q-86 0 -148.5 -68t-83.5 -184l-108 -625 h-236z" />
<glyph unicode="&#x128;" horiz-adv-x="466" d="M45 0l258 1470h252l-258 -1470h-252zM145 1614q47 131 105.5 191.5t140.5 60.5q14 0 107.5 -37t105.5 -37q61 0 94 82h109q-82 -246 -225 -246q-18 0 -116.5 37t-119.5 37q-59 0 -94 -88h-107z" />
<glyph unicode="&#x129;" horiz-adv-x="466" d="M55 0l191 1090h233l-190 -1090h-234zM80 1253q47 131 105.5 191.5t140.5 60.5q14 0 107 -36.5t106 -36.5q61 0 94 81h108q-82 -246 -225 -245q-18 0 -116.5 36.5t-118.5 36.5q-59 0 -95 -88h-106z" />
<glyph unicode="&#x12a;" horiz-adv-x="466" d="M45 0l258 1470h252l-258 -1470h-252zM172 1667l27 152h579l-26 -152h-580z" />
<glyph unicode="&#x12b;" horiz-adv-x="466" d="M55 0l191 1090h233l-190 -1090h-234zM109 1307l26 151h580l-27 -151h-579z" />
<glyph unicode="&#x12c;" horiz-adv-x="466" d="M45 0l258 1470h252l-258 -1470h-252zM193 1872h110q23 -51 61.5 -75.5t116.5 -24.5t121 24.5t70 75.5h129q-111 -258 -359 -258q-233 0 -249 258z" />
<glyph unicode="&#x12d;" horiz-adv-x="466" d="M55 0l191 1090h233l-190 -1090h-234zM154 1475q0 33 2 57h110v-12q0 -70 35 -100.5t113 -30.5q82 0 125 30.5t73 112.5h109q-84 -299 -344 -299q-109 0 -166 62.5t-57 179.5z" />
<glyph unicode="&#x12e;" horiz-adv-x="466" d="M-129 -315q0 90 50 162.5t155 152.5h-31l258 1470h252l-258 -1470q-96 -29 -168 -109q-55 -61 -55 -131q0 -86 127 -86h82l-33 -186h-82q-123 0 -210 50.5t-87 146.5z" />
<glyph unicode="&#x12f;" horiz-adv-x="466" d="M-119 -315q0 90 50.5 162.5t154.5 152.5h-31l191 1090h233l-190 -1090q-84 -37 -150 -109q-55 -66 -55 -131q0 -86 127 -86h82l-33 -186h-82q-123 0 -210 50.5t-87 146.5zM276 1266l41 235h234l-41 -235h-234z" />
<glyph unicode="&#x130;" horiz-adv-x="466" d="M45 0l258 1470h252l-258 -1470h-252zM340 1626l41 236h233l-41 -236h-233z" />
<glyph unicode="&#x131;" horiz-adv-x="466" d="M55 0l191 1090h233l-190 -1090h-234z" />
<glyph unicode="&#x134;" d="M39 274q0 86 33 281h235q-25 -156 -24 -215q0 -68 27.5 -98.5t86.5 -30.5q76 0 115 47t61 168l183 1044h252l-183 -1044q-80 -463 -460 -463q-166 0 -246 76.5t-80 234.5zM588 1614l256 258h211l166 -258h-191l-104 127l-148 -127h-190z" />
<glyph unicode="&#x135;" horiz-adv-x="466" d="M-133 -438l41 229h41q70 0 86 100l209 1199h235l-209 -1205q-33 -182 -107.5 -252.5t-236.5 -70.5h-59zM90 1233l244 299h211l139 -299h-190l-78 168l-135 -168h-191z" />
<glyph unicode="&#x136;" horiz-adv-x="1212" d="M84 0l256 1470h252l-105 -598l566 598h325l-598 -602l371 -868h-326l-260 645l-143 -147l-86 -498h-252zM334 -610l16 88q59 12 98 61t48 119h-115l39 219h201l-35 -194q-14 -119 -85 -201t-167 -92z" />
<glyph unicode="&#x137;" d="M55 0l256 1470h236l-139 -794l366 414h289l-389 -422l209 -668h-283l-131 467l-119 -123l-59 -344h-236zM199 -610l16 88q59 12 98 61t47 119h-114l39 219h200l-34 -194q-14 -119 -85 -201t-167 -92z" />
<glyph unicode="&#x139;" horiz-adv-x="1026" d="M66 0l256 1470h251l-208 -1204h600l-47 -266h-852zM346 1614l205 258h258l-293 -258h-170z" />
<glyph unicode="&#x13a;" horiz-adv-x="466" d="M55 0l256 1470h236l-256 -1470h-236zM336 1614l205 258h258l-293 -258h-170z" />
<glyph unicode="&#x13b;" horiz-adv-x="1026" d="M66 0l256 1470h251l-208 -1204h600l-47 -266h-852zM285 -610l16 88q59 12 98 61t47 119h-114l39 219h200l-34 -194q-14 -119 -85 -201t-167 -92z" />
<glyph unicode="&#x13c;" horiz-adv-x="466" d="M-35 -610l17 88q59 12 98 61t47 119h-115l39 219h201l-35 -194q-14 -119 -85 -201t-167 -92zM55 0l256 1470h236l-256 -1470h-236z" />
<glyph unicode="&#x13d;" horiz-adv-x="1026" d="M66 0l256 1470h251l-208 -1204h600l-47 -266h-852zM604 983l17 88q59 12 98 61.5t47 118.5h-115l39 219h201l-35 -194q-14 -119 -85 -201t-167 -92z" />
<glyph unicode="&#x13e;" horiz-adv-x="466" d="M55 0l256 1470h236l-256 -1470h-236zM578 983l16 88q59 12 98 61.5t47 118.5h-114l39 219h200l-35 -194q-14 -119 -84.5 -201t-166.5 -92z" />
<glyph unicode="&#x13f;" horiz-adv-x="1026" d="M66 0l256 1470h251l-208 -1204h600l-47 -266h-852zM702 657l41 236h234l-41 -236h-234z" />
<glyph unicode="&#x140;" horiz-adv-x="700" d="M55 0l256 1470h236l-256 -1470h-236zM522 657l41 236h234l-41 -236h-234z" />
<glyph unicode="&#x141;" horiz-adv-x="1265" d="M113 346l37 219l217 142l133 763h252l-105 -598l301 197l-39 -219l-299 -197l-67 -387h600l-47 -266h-852l84 487z" />
<glyph unicode="&#x142;" horiz-adv-x="823" d="M125 633l35 205l241 131l88 501h236l-66 -380l244 133l-35 -205l-245 -133l-154 -885h-236l134 764z" />
<glyph unicode="&#x143;" horiz-adv-x="1212" d="M55 0l256 1470h264l304 -1032l178 1032h235l-256 -1470h-252l-311 1055l-182 -1055h-236zM739 1614l205 258h258l-293 -258h-170z" />
<glyph unicode="&#x144;" horiz-adv-x="1026" d="M47 0l191 1090h225l-29 -166q72 104 141.5 149t163.5 45q121 0 188.5 -72.5t67.5 -199.5q0 -49 -8 -92l-131 -754h-235l114 662q10 61 10 92q0 57 -32.5 90t-89.5 33q-86 0 -148.5 -68t-83.5 -184l-108 -625h-236zM582 1233l211 299h258l-299 -299h-170z" />
<glyph unicode="&#x145;" horiz-adv-x="1212" d="M55 0l256 1470h264l304 -1032l178 1032h235l-256 -1470h-252l-311 1055l-182 -1055h-236zM338 -610l16 88q59 12 98.5 61t47.5 119h-115l39 219h201l-35 -194q-14 -119 -85 -201t-167 -92z" />
<glyph unicode="&#x146;" horiz-adv-x="1026" d="M47 0l191 1090h225l-29 -166q72 104 141.5 149t163.5 45q121 0 188.5 -72.5t67.5 -199.5q0 -49 -8 -92l-131 -754h-235l114 662q10 61 10 92q0 57 -32.5 90t-89.5 33q-86 0 -148.5 -68t-83.5 -184l-108 -625h-236zM246 -610l16 88q59 12 98 61t48 119h-115l39 219h200 l-34 -194q-14 -119 -85 -201t-167 -92z" />
<glyph unicode="&#x147;" horiz-adv-x="1212" d="M55 0l256 1470h264l304 -1032l178 1032h235l-256 -1470h-252l-311 1055l-182 -1055h-236zM555 1872h190l105 -127l147 127h191l-256 -258h-211z" />
<glyph unicode="&#x148;" horiz-adv-x="1026" d="M47 0l191 1090h225l-29 -166q72 104 141.5 149t163.5 45q121 0 188.5 -72.5t67.5 -199.5q0 -49 -8 -92l-131 -754h-235l114 662q10 61 10 92q0 57 -32.5 90t-89.5 33q-86 0 -148.5 -68t-83.5 -184l-108 -625h-236zM422 1532h190l78 -168l135 168h191l-244 -299h-211z" />
<glyph unicode="&#x14a;" horiz-adv-x="1212" d="M55 0l256 1470h264l304 -1032l178 1032h235l-264 -1517q-80 -463 -461 -463q-166 0 -245.5 77t-79.5 234l243 66q0 -68 28 -98.5t87 -30.5q63 0 117.5 42t64.5 103l15 78l-324 1094l-182 -1055h-236z" />
<glyph unicode="&#x14b;" horiz-adv-x="1026" d="M47 0l191 1090h225l-29 -166q72 104 141.5 149t163.5 45q121 0 188.5 -72.5t67.5 -199.5q0 -49 -8 -92l-151 -869q-33 -182 -108 -252.5t-236 -70.5h-60l41 229h41q70 0 86 100l135 771q10 61 10 92q0 57 -32.5 90t-89.5 33q-86 0 -148.5 -68t-83.5 -184l-108 -625h-236z " />
<glyph unicode="&#x14c;" horiz-adv-x="1306" d="M119 502q0 279 96 510t266 364t377 133q203 0 333 -139t130 -399q0 -430 -211 -720t-526 -290q-215 0 -340 145.5t-125 395.5zM377 555q0 -156 67.5 -245t188.5 -89q182 0 307 202t125 492q0 156 -67.5 245t-186.5 89q-186 0 -310 -206.5t-124 -487.5zM594 1667l27 152 h579l-26 -152h-580z" />
<glyph unicode="&#x14d;" horiz-adv-x="1026" d="M76 389q0 309 165 519t406 210q172 0 271.5 -111.5t99.5 -306.5q0 -305 -166 -517t-406 -212q-172 0 -271 111.5t-99 306.5zM319 428q0 -215 170 -215q127 0 205 133t78 318q0 213 -170 213q-127 0 -205 -135.5t-78 -313.5zM389 1307l27 151h579l-26 -151h-580z" />
<glyph unicode="&#x14e;" horiz-adv-x="1306" d="M119 502q0 279 96 510t266 364t377 133q203 0 333 -139t130 -399q0 -430 -211 -720t-526 -290q-215 0 -340 145.5t-125 395.5zM377 555q0 -156 67.5 -245t188.5 -89q182 0 307 202t125 492q0 156 -67.5 245t-186.5 89q-186 0 -310 -206.5t-124 -487.5zM616 1872h111 q23 -51 61.5 -75.5t116.5 -24.5t121 24.5t70 75.5h129q-111 -258 -359 -258q-234 0 -250 258z" />
<glyph unicode="&#x14f;" horiz-adv-x="1026" d="M76 389q0 309 165 519t406 210q172 0 271.5 -111.5t99.5 -306.5q0 -305 -166 -517t-406 -212q-172 0 -271 111.5t-99 306.5zM319 428q0 -215 170 -215q127 0 205 133t78 318q0 213 -170 213q-127 0 -205 -135.5t-78 -313.5zM434 1475q0 33 2 57h111v-12 q0 -70 34.5 -100.5t112.5 -30.5q82 0 125 30.5t74 112.5h108q-84 -299 -344 -299q-109 0 -166 62.5t-57 179.5z" />
<glyph unicode="&#x150;" horiz-adv-x="1306" d="M119 502q0 279 96 510t266 364t377 133q203 0 333 -139t130 -399q0 -430 -211 -720t-526 -290q-215 0 -340 145.5t-125 395.5zM377 555q0 -156 67.5 -245t188.5 -89q182 0 307 202t125 492q0 156 -67.5 245t-186.5 89q-186 0 -310 -206.5t-124 -487.5zM612 1614l209 299 h258l-297 -299h-170zM956 1614l209 299h258l-299 -299h-168z" />
<glyph unicode="&#x151;" horiz-adv-x="1026" d="M76 389q0 309 165 519t406 210q172 0 271.5 -111.5t99.5 -306.5q0 -305 -166 -517t-406 -212q-172 0 -271 111.5t-99 306.5zM319 428q0 -215 170 -215q127 0 205 133t78 318q0 213 -170 213q-127 0 -205 -135.5t-78 -313.5zM403 1233l209 299h258l-297 -299h-170z M748 1233l208 299h258l-299 -299h-167z" />
<glyph unicode="&#x152;" horiz-adv-x="1679" d="M104 475q0 270 84 507t238 382t338 145q86 0 140 -28.5t100 -96.5l14 86h790l-45 -260h-559l-55 -309h522l-45 -260h-522l-66 -381h559l-45 -260h-790l18 102q-76 -82 -136 -111.5t-146 -29.5q-184 0 -289 136t-105 378zM356 551q0 -162 55.5 -249t155.5 -87 q88 0 161 55.5t87 130.5l117 666q4 29 4 37q0 66 -49 108.5t-131 42.5q-115 0 -209 -108.5t-142.5 -268t-48.5 -327.5z" />
<glyph unicode="&#x153;" horiz-adv-x="1585" d="M76 389q0 307 165 518t402 211q182 0 283 -164q94 94 162.5 129t160.5 35q158 0 244 -104.5t86 -294.5q0 -80 -18 -201l-9 -51h-614q-4 -61 -4 -82q0 -88 43 -136t121 -48q121 0 176 118h242q-158 -348 -461 -348q-106 0 -172 35t-117 117q-133 -152 -320 -152 q-172 0 -271 111.5t-99 306.5zM319 426q0 -213 170 -213q127 0 206 134t79 315q0 215 -170 215q-127 0 -206 -135.5t-79 -315.5zM977 653h366l3 54q2 80 -40 128t-108 48q-153 -1 -221 -230z" />
<glyph unicode="&#x154;" horiz-adv-x="1212" d="M66 0l256 1470h610q150 0 231.5 -85t81.5 -240q0 -143 -67.5 -265t-186.5 -175q59 -37 83 -77t24 -108q0 -80 -39 -299q-12 -70 -12 -117q0 -45 34 -65l-6 -39h-280l-2 55q-2 37 22.5 205t24.5 191q0 70 -38 97t-130 27h-260l-101 -575h-245zM457 823h295q119 0 176 69 t57 183q0 141 -147 142h-314zM700 1614l205 258h258l-293 -258h-170z" />
<glyph unicode="&#x155;" horiz-adv-x="653" d="M45 0l191 1090h225l-35 -195q82 129 142.5 176t146.5 47q4 0 19.5 -2t25.5 -2l-51 -291q-23 4 -60 4q-225 0 -270 -260l-98 -567h-236zM410 1233l211 299h258l-299 -299h-170z" />
<glyph unicode="&#x156;" horiz-adv-x="1212" d="M66 0l256 1470h610q150 0 231.5 -85t81.5 -240q0 -143 -67.5 -265t-186.5 -175q59 -37 83 -77t24 -108q0 -80 -39 -299q-12 -70 -12 -117q0 -45 34 -65l-6 -39h-280l-2 55q-2 37 22.5 205t24.5 191q0 70 -38 97t-130 27h-260l-101 -575h-245zM299 -610l16 88 q59 12 98.5 61t47.5 119h-115l39 219h201l-35 -194q-14 -119 -85 -201t-167 -92zM457 823h295q119 0 176 69t57 183q0 141 -147 142h-314z" />
<glyph unicode="&#x157;" horiz-adv-x="653" d="M-43 -610l16 88q59 12 98.5 61t47.5 119h-115l39 219h201l-35 -194q-14 -119 -85 -201t-167 -92zM45 0l191 1090h225l-35 -195q82 129 142.5 176t146.5 47q4 0 19.5 -2t25.5 -2l-51 -291q-23 4 -60 4q-225 0 -270 -260l-98 -567h-236z" />
<glyph unicode="&#x158;" horiz-adv-x="1212" d="M66 0l256 1470h610q150 0 231.5 -85t81.5 -240q0 -143 -67.5 -265t-186.5 -175q59 -37 83 -77t24 -108q0 -80 -39 -299q-12 -70 -12 -117q0 -45 34 -65l-6 -39h-280l-2 55q-2 37 22.5 205t24.5 191q0 70 -38 97t-130 27h-260l-101 -575h-245zM457 823h295q119 0 176 69 t57 183q0 141 -147 142h-314zM516 1872h191l104 -127l147 127h191l-256 -258h-211z" />
<glyph unicode="&#x159;" horiz-adv-x="653" d="M45 0l191 1090h225l-35 -195q82 129 142.5 176t146.5 47q4 0 19.5 -2t25.5 -2l-51 -291q-23 4 -60 4q-225 0 -270 -260l-98 -567h-236zM250 1532h190l78 -168l135 168h191l-244 -299h-211z" />
<glyph unicode="&#x15a;" horiz-adv-x="1120" d="M74 332q0 39 10 121h242q-4 -45 -4 -56q0 -88 58 -135t165 -47q127 0 203.5 60.5t76.5 160.5q0 53 -41 86t-147 66l-123 37q-195 57 -256 124.5t-61 198.5q0 240 152.5 400.5t391.5 160.5q193 0 297.5 -102t104.5 -268q0 -47 -8 -105h-240v43q0 86 -53.5 132t-151.5 46 q-111 0 -179.5 -59t-68.5 -154q0 -47 23.5 -72.5t81.5 -43.5l278 -88q135 -43 194.5 -114t59.5 -187q0 -248 -162.5 -412t-418.5 -164q-199 0 -311.5 100.5t-112.5 270.5zM686 1614l205 258h258l-293 -258h-170z" />
<glyph unicode="&#x15b;" d="M45 264q0 23 4 84h242q-2 -16 -2 -41q0 -119 164 -119q78 0 128 36t50 91q0 72 -176 107q-309 57 -310 264q0 193 127 312.5t316 119.5q332 0 332 -291q0 -41 -2 -69h-232v37q0 106 -137 106q-72 0 -116 -32.5t-44 -86.5q0 -70 174 -104q315 -63 316 -268 q0 -186 -131.5 -312.5t-337.5 -126.5q-170 0 -267.5 78t-97.5 215zM535 1233l210 299h259l-299 -299h-170z" />
<glyph unicode="&#x15c;" horiz-adv-x="1120" d="M74 332q0 39 10 121h242q-4 -45 -4 -56q0 -88 58 -135t165 -47q127 0 203.5 60.5t76.5 160.5q0 53 -41 86t-147 66l-123 37q-195 57 -256 124.5t-61 198.5q0 240 152.5 400.5t391.5 160.5q193 0 297.5 -102t104.5 -268q0 -47 -8 -105h-240v43q0 86 -53.5 132t-151.5 46 q-111 0 -179.5 -59t-68.5 -154q0 -47 23.5 -72.5t81.5 -43.5l278 -88q135 -43 194.5 -114t59.5 -187q0 -248 -162.5 -412t-418.5 -164q-199 0 -311.5 100.5t-112.5 270.5zM455 1614l256 258h211l165 -258h-190l-104 127l-148 -127h-190z" />
<glyph unicode="&#x15d;" d="M45 264q0 23 4 84h242q-2 -16 -2 -41q0 -119 164 -119q78 0 128 36t50 91q0 72 -176 107q-309 57 -310 264q0 193 127 312.5t316 119.5q332 0 332 -291q0 -41 -2 -69h-232v37q0 106 -137 106q-72 0 -116 -32.5t-44 -86.5q0 -70 174 -104q315 -63 316 -268 q0 -186 -131.5 -312.5t-337.5 -126.5q-170 0 -267.5 78t-97.5 215zM324 1233l243 299h211l140 -299h-191l-78 168l-135 -168h-190z" />
<glyph unicode="&#x15e;" horiz-adv-x="1120" d="M74 332q0 39 10 121h242q-4 -45 -4 -56q0 -88 58 -135t165 -47q127 0 203.5 60.5t76.5 160.5q0 53 -41 86t-147 66l-123 37q-195 57 -256 124.5t-61 198.5q0 240 152.5 400.5t391.5 160.5q193 0 297.5 -102t104.5 -268q0 -47 -8 -105h-240v43q0 86 -53.5 132t-151.5 46 q-111 0 -179.5 -59t-68.5 -154q0 -47 23.5 -72.5t81.5 -43.5l278 -88q135 -43 194.5 -114t59.5 -187q0 -231 -145.5 -392t-378.5 -182l-41 -67h18q55 0 94.5 -35t39.5 -88q0 -98 -78 -169t-185 -71q-72 0 -178 51l54 99q90 -33 122 -33q39 0 69 28.5t30 67.5q0 27 -16.5 42 t-41.5 15q-20 0 -69 -16l-29 41l94 135q-172 14 -268 112.5t-96 256.5z" />
<glyph unicode="&#x15f;" d="M45 264q0 23 4 84h242q-2 -16 -2 -41q0 -119 164 -119q78 0 128 36t50 91q0 72 -176 107q-309 57 -310 264q0 193 127 312.5t316 119.5q332 0 332 -291q0 -41 -2 -69h-232v37q0 106 -137 106q-72 0 -116 -32.5t-44 -86.5q0 -70 174 -104q315 -63 316 -268 q0 -176 -116 -299t-304 -138l-47 -77h18q55 0 94 -35t39 -88q0 -98 -77.5 -169t-184.5 -71q-72 0 -178 51l53 99q90 -33 123 -33q39 0 68.5 28.5t29.5 67.5q0 27 -16 42t-41 15q-20 0 -70 -16l-28 41l102 147q-141 14 -220 90t-79 199z" />
<glyph unicode="&#x160;" horiz-adv-x="1120" d="M74 332q0 39 10 121h242q-4 -45 -4 -56q0 -88 58 -135t165 -47q127 0 203.5 60.5t76.5 160.5q0 53 -41 86t-147 66l-123 37q-195 57 -256 124.5t-61 198.5q0 240 152.5 400.5t391.5 160.5q193 0 297.5 -102t104.5 -268q0 -47 -8 -105h-240v43q0 86 -53.5 132t-151.5 46 q-111 0 -179.5 -59t-68.5 -154q0 -47 23.5 -72.5t81.5 -43.5l278 -88q135 -43 194.5 -114t59.5 -187q0 -248 -162.5 -412t-418.5 -164q-199 0 -311.5 100.5t-112.5 270.5zM502 1872h190l105 -127l147 127h191l-256 -258h-211z" />
<glyph unicode="&#x161;" d="M45 264q0 23 4 84h242q-2 -16 -2 -41q0 -119 164 -119q78 0 128 36t50 91q0 72 -176 107q-309 57 -310 264q0 193 127 312.5t316 119.5q332 0 332 -291q0 -41 -2 -69h-232v37q0 106 -137 106q-72 0 -116 -32.5t-44 -86.5q0 -70 174 -104q315 -63 316 -268 q0 -186 -131.5 -312.5t-337.5 -126.5q-170 0 -267.5 78t-97.5 215zM375 1532h190l78 -168l135 168h191l-244 -299h-211z" />
<glyph unicode="&#x162;" horiz-adv-x="1026" d="M164 -416l53 99q90 -33 123 -33q39 0 68.5 28.5t29.5 67.5q0 27 -16 42t-41 15q-20 0 -70 -16l-28 41l120 172h-77l211 1210h-365l45 260h981l-45 -260h-365l-210 -1210h-62l-63 -104h18q55 0 94 -35t39 -88q0 -98 -77.5 -169t-184.5 -71q-72 0 -178 51z" />
<glyph unicode="&#x163;" horiz-adv-x="559" d="M-41 -416l53 99q90 -33 123 -33q39 0 68.5 28.5t29.5 67.5q0 27 -16 42t-41 15q-20 0 -70 -16l-28 41l121 174q-92 33 -93 137q0 45 9 84l114 662h-120l34 205h123l51 294h236l-51 -294h145l-35 -205h-147l-103 -592q-6 -29 -6 -47q0 -41 86 -41q2 0 52 4l-39 -217 l-142 -4h-10l-55 -92h18q55 0 94 -35t39 -88q0 -98 -77.5 -169t-184.5 -71q-72 0 -178 51z" />
<glyph unicode="&#x164;" horiz-adv-x="1026" d="M172 1210l45 260h981l-45 -260h-365l-210 -1210h-252l211 1210h-365zM463 1872h190l105 -127l147 127h191l-256 -258h-211z" />
<glyph unicode="&#x165;" horiz-adv-x="559" d="M106 139q0 45 9 84l114 662h-120l34 205h123l51 294h236l-51 -294h145l-35 -205h-147l-103 -592q-6 -29 -6 -47q0 -41 86 -41q2 0 52 4l-39 -217l-142 -4q-106 0 -156.5 36.5t-50.5 114.5zM571 1149l17 88q59 12 98 61.5t47 118.5h-115l39 219h201l-35 -194 q-14 -119 -85 -201t-167 -92z" />
<glyph unicode="&#x168;" horiz-adv-x="1212" d="M135 346q0 76 12 150l170 974h256l-165 -954q-8 -41 -9 -90q0 -205 183 -205q231 0 280 281l170 968h256l-166 -956q-47 -268 -196.5 -410.5t-384.5 -142.5q-195 0 -300.5 100.5t-105.5 284.5zM520 1614q47 131 105.5 191.5t140.5 60.5q14 0 107.5 -37t105.5 -37 q61 0 94 82h109q-84 -246 -226 -246q-18 0 -116.5 37t-118.5 37q-59 0 -94 -88h-107z" />
<glyph unicode="&#x169;" horiz-adv-x="1026" d="M102 246q0 74 11 127l127 717h235l-119 -676q-6 -33 -6 -70q0 -131 121 -131q86 0 146.5 66.5t80.5 181.5l111 629h235l-190 -1090h-225l28 160q-70 -100 -142.5 -144.5t-168.5 -44.5q-117 0 -180.5 72t-63.5 203zM360 1253q47 131 105.5 191.5t140.5 60.5 q14 0 107.5 -36.5t105.5 -36.5q61 0 94 81h109q-82 -246 -225 -245q-18 0 -116.5 36.5t-119.5 36.5q-59 0 -94 -88h-107z" />
<glyph unicode="&#x16a;" horiz-adv-x="1212" d="M135 346q0 76 12 150l170 974h256l-165 -954q-8 -41 -9 -90q0 -205 183 -205q231 0 280 281l170 968h256l-166 -956q-47 -268 -196.5 -410.5t-384.5 -142.5q-195 0 -300.5 100.5t-105.5 284.5zM547 1667l26 152h580l-27 -152h-579z" />
<glyph unicode="&#x16b;" horiz-adv-x="1026" d="M102 246q0 74 11 127l127 717h235l-119 -676q-6 -33 -6 -70q0 -131 121 -131q86 0 146.5 66.5t80.5 181.5l111 629h235l-190 -1090h-225l28 160q-70 -100 -142.5 -144.5t-168.5 -44.5q-117 0 -180.5 72t-63.5 203zM389 1307l27 151h579l-26 -151h-580z" />
<glyph unicode="&#x16c;" horiz-adv-x="1212" d="M135 346q0 76 12 150l170 974h256l-165 -954q-8 -41 -9 -90q0 -205 183 -205q231 0 280 281l170 968h256l-166 -956q-47 -268 -196.5 -410.5t-384.5 -142.5q-195 0 -300.5 100.5t-105.5 284.5zM567 1872h111q23 -51 61.5 -75.5t116.5 -24.5t121 24.5t70 75.5h129 q-111 -258 -359 -258q-234 0 -250 258z" />
<glyph unicode="&#x16d;" horiz-adv-x="1026" d="M102 246q0 74 11 127l127 717h235l-119 -676q-6 -33 -6 -70q0 -131 121 -131q86 0 146.5 66.5t80.5 181.5l111 629h235l-190 -1090h-225l28 160q-70 -100 -142.5 -144.5t-168.5 -44.5q-117 0 -180.5 72t-63.5 203zM434 1475q0 33 2 57h111v-12q0 -70 34.5 -100.5 t112.5 -30.5q82 0 125 30.5t74 112.5h108q-84 -299 -344 -299q-109 0 -166 62.5t-57 179.5z" />
<glyph unicode="&#x16e;" horiz-adv-x="1212" d="M135 346q0 76 12 150l170 974h256l-165 -954q-8 -41 -9 -90q0 -205 183 -205q231 0 280 281l170 968h256l-166 -956q-47 -268 -196.5 -410.5t-384.5 -142.5q-195 0 -300.5 100.5t-105.5 284.5zM645 1786q12 72 86 125t158 53t139 -54.5t43 -127.5q-12 -72 -86 -126 t-160 -54t-139 54t-41 130zM752 1784q-6 -37 19.5 -62.5t70.5 -25.5t80.5 25.5t42.5 60.5q6 37 -20.5 62.5t-72.5 25.5q-43 0 -78.5 -25.5t-41.5 -60.5z" />
<glyph unicode="&#x16f;" horiz-adv-x="1026" d="M102 246q0 74 11 127l127 717h235l-119 -676q-6 -33 -6 -70q0 -131 121 -131q86 0 146.5 66.5t80.5 181.5l111 629h235l-190 -1090h-225l28 160q-70 -100 -142.5 -144.5t-168.5 -44.5q-117 0 -180.5 72t-63.5 203zM481 1386q12 72 86 125.5t158 53.5q86 0 140.5 -54.5 t39.5 -128.5q-12 -72 -84.5 -126t-159 -54t-140.5 54t-40 130zM586 1384q-6 -37 20.5 -62.5t71.5 -25.5t80 26t41 60q6 37 -19.5 62.5t-70.5 25.5q-43 0 -80 -25.5t-43 -60.5z" />
<glyph unicode="&#x170;" horiz-adv-x="1212" d="M135 346q0 76 12 150l170 974h256l-165 -954q-8 -41 -9 -90q0 -205 183 -205q231 0 280 281l170 968h256l-166 -956q-47 -268 -196.5 -410.5t-384.5 -142.5q-195 0 -300.5 100.5t-105.5 284.5zM563 1614l209 299h258l-297 -299h-170zM907 1614l209 299h258l-299 -299 h-168z" />
<glyph unicode="&#x171;" horiz-adv-x="1026" d="M102 246q0 74 11 127l127 717h235l-119 -676q-6 -33 -6 -70q0 -131 121 -131q86 0 146.5 66.5t80.5 181.5l111 629h235l-190 -1090h-225l28 160q-70 -100 -142.5 -144.5t-168.5 -44.5q-117 0 -180.5 72t-63.5 203zM403 1233l209 299h258l-297 -299h-170zM748 1233 l208 299h258l-299 -299h-167z" />
<glyph unicode="&#x172;" horiz-adv-x="1212" d="M135 346q0 76 12 150l170 974h256l-165 -954q-8 -41 -9 -90q0 -205 183 -205q231 0 280 281l170 968h256l-166 -956q-72 -406 -366 -516q-53 -20 -127 -107q-55 -61 -56 -131q0 -86 127 -86h82l-32 -186h-82q-123 0 -210 50t-87 147q0 143 157 276q-188 2 -290.5 102.5 t-102.5 282.5z" />
<glyph unicode="&#x173;" horiz-adv-x="1026" d="M102 246q0 74 11 127l127 717h235l-119 -676q-6 -33 -6 -70q0 -131 121 -131q86 0 146.5 66.5t80.5 181.5l111 629h235l-190 -1090q-96 -29 -170 -109q-55 -66 -55 -131q0 -86 127 -86h82l-33 -186h-82q-123 0 -210 50t-87 147q0 90 53 168q63 90 150 147l28 160 q-70 -100 -142.5 -144.5t-168.5 -44.5q-117 0 -180.5 72t-63.5 203z" />
<glyph unicode="&#x174;" horiz-adv-x="1585" d="M221 0v1470h273v-800v-287l358 1087h260v-1087l387 1087h256l-596 -1470h-227v1157l-391 -1157h-320zM688 1614l256 258h211l166 -258h-191l-104 127l-147 -127h-191z" />
<glyph unicode="&#x175;" horiz-adv-x="1306" d="M145 0v1090h254v-793l265 793h237v-793l277 793h241l-446 -1090h-242v805l-282 -805h-304zM510 1233l244 299h211l139 -299h-191l-77 168l-136 -168h-190z" />
<glyph unicode="&#x176;" horiz-adv-x="1120" d="M219 1470h297l139 -639l351 639h286l-565 -919l-94 -551h-254l98 555zM469 1614l256 258h211l166 -258h-191l-104 127l-148 -127h-190z" />
<glyph unicode="&#x177;" d="M8 -434l41 229q29 -4 49 -4q74 0 110 32t68 132l-131 1135h263l51 -811l325 811h250l-495 -1072l-102 -211q-36 -72 -72.5 -130t-71.5 -77.5t-73 -28.5t-101 -9zM324 1233l243 299h211l140 -299h-191l-78 168l-135 -168h-190z" />
<glyph unicode="&#x178;" horiz-adv-x="1120" d="M219 1470h297l139 -639l351 639h286l-565 -919l-94 -551h-254l98 555zM522 1626l41 236h197l-41 -236h-197zM860 1626l41 236h197l-41 -236h-197z" />
<glyph unicode="&#x179;" horiz-adv-x="1026" d="M-20 0l45 260l790 950h-608l45 260h924l-43 -241l-801 -969h637l-47 -260h-942zM651 1614l205 258h258l-293 -258h-170z" />
<glyph unicode="&#x17a;" horiz-adv-x="839" d="M-29 0l39 223l570 637h-426l39 230h725l-41 -236l-560 -618h469l-43 -236h-772zM487 1233l211 299h258l-299 -299h-170z" />
<glyph unicode="&#x17b;" horiz-adv-x="1026" d="M-20 0l45 260l790 950h-608l45 260h924l-43 -241l-801 -969h637l-47 -260h-942zM625 1626l41 236h233l-41 -236h-233z" />
<glyph unicode="&#x17c;" horiz-adv-x="839" d="M-29 0l39 223l570 637h-426l39 230h725l-41 -236l-560 -618h469l-43 -236h-772zM463 1266l41 235h233l-41 -235h-233z" />
<glyph unicode="&#x17d;" horiz-adv-x="1026" d="M-20 0l45 260l790 950h-608l45 260h924l-43 -241l-801 -969h637l-47 -260h-942zM467 1872h190l105 -127l147 127h191l-256 -258h-211z" />
<glyph unicode="&#x17e;" horiz-adv-x="839" d="M-29 0l39 223l570 637h-426l39 230h725l-41 -236l-560 -618h469l-43 -236h-772zM328 1532h190l78 -168l135 168h191l-244 -299h-211z" />
<glyph unicode="&#x17f;" horiz-adv-x="559" d="M84 0l205 1178q27 160 107.5 235.5t224.5 75.5q45 0 106 -4l-41 -232h-65q-55 0 -70.5 -19.5t-32.5 -100.5l-199 -1133h-235z" />
<glyph unicode="&#x18e;" horiz-adv-x="1120" d="M66 0l45 260h667l68 381h-588l45 260h588l55 309h-641l45 260h887l-256 -1470h-915z" />
<glyph unicode="&#x192;" d="M-145 -387l79 227q45 -35 82 -35q57 0 90 53.5t91 235.5l215 684h-205l35 199h229l64 178q66 184 150.5 269t207.5 85q72 0 168 -39l-80 -221q-47 31 -88 31q-92 0 -131 -123l-57 -180h200l-33 -199h-225l-227 -735q-76 -244 -174.5 -358.5t-231.5 -114.5q-55 0 -159 43z " />
<glyph unicode="&#x1a0;" horiz-adv-x="1306" d="M119 502q0 279 96 510t266 364t377 133q264 0 387 -215q51 63 72 179h-117l41 235h234l-41 -235q-31 -178 -142 -289q29 -98 29 -213q0 -430 -211 -720t-526 -290q-215 0 -340 145.5t-125 395.5zM377 555q0 -156 67.5 -245t188.5 -89q182 0 307 202t125 492 q0 156 -67.5 245t-186.5 89q-186 0 -310 -206.5t-124 -487.5z" />
<glyph unicode="&#x1a1;" horiz-adv-x="1048" d="M76 389q0 309 165 519t406 210q225 0 320 -182q43 66 55 156h-117l41 235h234l-41 -235q-27 -166 -131 -281q10 -57 10 -111q0 -305 -166 -517t-406 -212q-172 0 -271 111.5t-99 306.5zM319 428q0 -215 170 -215q127 0 205 133t78 318q0 213 -170 213q-127 0 -205 -135.5 t-78 -313.5z" />
<glyph unicode="&#x1af;" horiz-adv-x="1404" d="M135 346q0 76 12 150l170 974h256l-165 -954q-8 -41 -9 -90q0 -205 183 -205q231 0 280 281l170 968h256l-43 -251q78 0 130 74.5t71 179.5h-117l41 235h234l-41 -235q-29 -154 -122 -267.5t-218 -113.5l-101 -578q-47 -268 -196.5 -410.5t-384.5 -142.5 q-195 0 -300.5 100.5t-105.5 284.5z" />
<glyph unicode="&#x1b0;" horiz-adv-x="1226" d="M102 246q0 74 11 127l127 717h235l-119 -676q-6 -33 -6 -70q0 -131 121 -131q86 0 146.5 66.5t80.5 181.5l111 629h235l-43 -252q76 0 129.5 75.5t69.5 178.5h-117l41 235h234l-41 -235q-27 -154 -120 -267.5t-218 -113.5l-125 -711h-225l28 160q-70 -100 -142.5 -144.5 t-168.5 -44.5q-117 0 -180.5 72t-63.5 203z" />
<glyph unicode="&#x1dd;" d="M57 371q0 80 19 200l8 52h612q6 45 6 79q0 90 -43 138.5t-120 48.5q-121 0 -177 -119h-241q158 348 461 348q172 0 262 -101.5t90 -293.5q0 -322 -153.5 -537t-385.5 -215q-164 0 -251 102.5t-87 297.5zM291 383q-2 -80 40 -128t107 -48q78 0 131.5 55t87.5 174h-364z " />
<glyph unicode="&#x1e6;" horiz-adv-x="1306" d="M121 510q0 262 94 490.5t267 368.5t384 140q201 0 323 -118.5t122 -315.5q0 -35 -2 -61h-252v12q0 96 -65.5 162.5t-160.5 66.5q-190 0 -320 -208.5t-130 -497.5q0 -156 70.5 -242t197.5 -86q231 0 359 324h-281l43 248h506l-139 -793h-168l6 184q-109 -125 -201 -174 t-213 -49q-203 0 -321.5 147.5t-118.5 401.5zM612 1872h191l104 -127l148 127h190l-256 -258h-211z" />
<glyph unicode="&#x1e7;" horiz-adv-x="1026" d="M2 -172q0 35 2 55h256q0 -61 32 -85.5t105 -24.5q100 0 157.5 59t80.5 191l24 141q-63 -94 -122.5 -132t-149.5 -38q-143 0 -223 101.5t-80 281.5q0 307 143.5 524t345.5 217q94 0 147.5 -47t80.5 -149l30 168h226l-180 -1033q-47 -270 -177.5 -385.5t-345.5 -115.5 q-166 0 -259 71.5t-93 200.5zM330 434q0 -94 38 -146t107 -52q115 0 188.5 124.5t73.5 292.5q0 100 -41 158.5t-112 58.5q-102 0 -178 -129t-76 -307zM422 1532h190l78 -168l135 168h191l-244 -299h-211z" />
<glyph unicode="&#x1ea;" horiz-adv-x="1306" d="M119 502q0 279 96 510t266 364t377 133q203 0 333 -139t130 -399q0 -319 -121 -569t-323 -363q-113 -63 -189 -148q-55 -61 -55 -131q0 -86 127 -86h82l-33 -186h-82q-123 0 -210 50t-87 147q0 143 156 276h-2q-215 0 -340 145.5t-125 395.5zM377 555q0 -156 67.5 -245 t188.5 -89q182 0 307 202t125 492q0 156 -67.5 245t-186.5 89q-186 0 -310 -206.5t-124 -487.5z" />
<glyph unicode="&#x1eb;" horiz-adv-x="1026" d="M76 389q0 309 165 519t406 210q172 0 271.5 -111.5t99.5 -306.5q0 -211 -83 -384t-222 -265q-113 -72 -191 -160q-55 -66 -55 -131q0 -86 127 -86h82l-33 -186h-82q-123 0 -210 50t-87 147q0 150 170 286q-168 4 -263 116t-95 302zM319 428q0 -215 170 -215 q127 0 205 133t78 318q0 213 -170 213q-127 0 -205 -135.5t-78 -313.5z" />
<glyph unicode="&#x1f4;" horiz-adv-x="1306" d="M121 510q0 262 94 490.5t267 368.5t384 140q201 0 323 -118.5t122 -315.5q0 -35 -2 -61h-252v12q0 96 -65.5 162.5t-160.5 66.5q-190 0 -320 -208.5t-130 -497.5q0 -156 70.5 -242t197.5 -86q231 0 359 324h-281l43 248h506l-139 -793h-168l6 184q-109 -125 -201 -174 t-213 -49q-203 0 -321.5 147.5t-118.5 401.5zM799 1614l205 258h258l-293 -258h-170z" />
<glyph unicode="&#x1f5;" horiz-adv-x="1026" d="M2 -172q0 35 2 55h256q0 -61 32 -85.5t105 -24.5q100 0 157.5 59t80.5 191l24 141q-63 -94 -122.5 -132t-149.5 -38q-143 0 -223 101.5t-80 281.5q0 307 143.5 524t345.5 217q94 0 147.5 -47t80.5 -149l30 168h226l-180 -1033q-47 -270 -177.5 -385.5t-345.5 -115.5 q-166 0 -259 71.5t-93 200.5zM330 434q0 -94 38 -146t107 -52q115 0 188.5 124.5t73.5 292.5q0 100 -41 158.5t-112 58.5q-102 0 -178 -129t-76 -307zM582 1233l211 299h258l-299 -299h-170z" />
<glyph unicode="&#x1fa;" horiz-adv-x="1212" d="M-29 0l688 1470h291l168 -1470h-274l-25 303h-444l-137 -303h-267zM485 557h308l-48 588zM647 1786q12 72 86 125t158 53t139 -54.5t43 -127.5q-12 -72 -86 -126t-160 -54t-139 54t-41 130zM754 1784q-6 -37 19.5 -62.5t70.5 -25.5t81 25.5t42 60.5q6 37 -20.5 62.5 t-72.5 25.5q-43 0 -78.5 -25.5t-41.5 -60.5zM813 2005l203 258h258l-291 -258h-170z" />
<glyph unicode="&#x1fb;" d="M31 207q0 168 90 285.5t237 144.5l220 39q100 18 100 117q0 96 -127 96q-74 0 -115 -35t-65 -117h-226q59 209 164 295t291 86q152 0 235 -64.5t83 -183.5q0 -35 -7 -67l-102 -590q-10 -66 -10 -100q0 -51 32 -70l-8 -43h-254q-2 33 -2 59q0 31 4 70q-84 -86 -154.5 -122 t-156.5 -36q-109 0 -169 62.5t-60 173.5zM272 272q0 -45 25 -70.5t68 -25.5q86 0 158.5 63.5t86.5 151.5l25 139q-45 -35 -170 -59q-100 -20 -146.5 -67.5t-46.5 -131.5zM436 1405q12 72 86 125t158 53t139 -54t43 -128q-12 -72 -86 -126t-160 -54t-139 54t-41 130z M543 1403q-6 -37 19.5 -62.5t70.5 -25.5t81 25.5t42 60.5q6 37 -20.5 62.5t-71.5 25.5q-43 0 -79 -25.5t-42 -60.5zM602 1624l203 258h258l-291 -258h-170z" />
<glyph unicode="&#x1fc;" horiz-adv-x="1679" d="M-53 0l696 1470h1143l-45 -260h-625l-53 -309h561l-45 -260h-561l-66 -381h635l-45 -260h-883l56 313h-363l-141 -313h-264zM461 555h295l114 655h-108zM973 1614l205 258h258l-293 -258h-170z" />
<glyph unicode="&#x1fd;" horiz-adv-x="1492" d="M33 215q0 156 78.5 265.5t210.5 135.5l229 46q94 18 117.5 45.5t23.5 97.5q0 84 -135 84q-150 0 -178 -154h-232q53 197 165 290t296 93q164 0 264 -121q84 68 148.5 94.5t142.5 26.5q156 0 241 -105.5t85 -293.5q0 -80 -19 -201l-8 -51h-614q-4 -61 -4 -82 q0 -88 43 -136t121 -48q123 0 176 118h241q-158 -348 -467 -348q-115 0 -179 39t-109 137q-133 -176 -371 -176q-266 0 -266 244zM274 272q0 -45 29 -70.5t76 -25.5q80 0 152.5 63.5t86.5 145.5l23 137q-37 -35 -184 -61q-106 -20 -144.5 -65.5t-38.5 -123.5zM815 1233 l211 299h258l-299 -299h-170zM889 653h364l2 52q2 82 -38.5 130t-108.5 48q-151 -1 -219 -230z" />
<glyph unicode="&#x1fe;" horiz-adv-x="1306" d="M-2 23l176 190q-55 139 -55 291q0 424 212 714.5t521 290.5q213 0 362 -166l168 183l58 -78l-174 -188q55 -137 55 -291q0 -279 -96.5 -510.5t-265 -364.5t-373.5 -133q-221 0 -361 168l-170 -184zM377 561q0 -53 10 -115l629 682q-78 121 -207 121t-231.5 -106.5 t-151.5 -262t-49 -319.5zM422 344q76 -123 207 -123q133 0 234.5 108.5t150.5 262t49 317.5q0 57 -12 117zM786 1614l205 258h258l-293 -258h-170z" />
<glyph unicode="&#x1ff;" horiz-adv-x="1026" d="M-25 0l150 158q-49 113 -49 233q0 303 166 515t405 212q166 0 281 -121l141 150l47 -66l-145 -151q47 -113 47 -232q0 -301 -165 -514t-407 -213q-166 0 -276 119l-141 -149zM322 430q0 -2 4 -63l417 438q-49 72 -137 72q-123 0 -203.5 -128.5t-80.5 -318.5zM354 283 q43 -70 133 -70q125 0 205 129t80 317q0 31 -2 60zM582 1233l211 299h258l-299 -299h-170z" />
<glyph unicode="&#x200;" horiz-adv-x="1212" d="M-29 0l688 1470h291l168 -1470h-274l-25 303h-444l-137 -303h-267zM387 1913h258l105 -299h-168zM485 557h308l-48 588zM731 1913h258l105 -299h-170z" />
<glyph unicode="&#x201;" d="M31 207q0 168 90 285.5t237 144.5l220 39q100 18 100 117q0 96 -127 96q-74 0 -115 -35t-65 -117h-226q59 209 164 295t291 86q152 0 235 -64.5t83 -183.5q0 -35 -7 -67l-102 -590q-10 -66 -10 -100q0 -51 32 -70l-8 -43h-254q-2 33 -2 59q0 31 4 70q-84 -86 -154.5 -122 t-156.5 -36q-109 0 -169 62.5t-60 173.5zM176 1532h258l105 -299h-168zM272 272q0 -45 25 -70.5t68 -25.5q86 0 158.5 63.5t86.5 151.5l25 139q-45 -35 -170 -59q-100 -20 -146.5 -67.5t-46.5 -131.5zM520 1532h258l105 -299h-170z" />
<glyph unicode="&#x204;" horiz-adv-x="1120" d="M66 0l256 1470h886l-45 -260h-641l-53 -309h588l-45 -260h-588l-66 -381h668l-45 -260h-915zM346 1913h258l105 -299h-168zM690 1913h258l105 -299h-170z" />
<glyph unicode="&#x205;" d="M57 367q0 322 154 536.5t385 214.5q164 0 251 -102.5t87 -296.5q0 -80 -19 -201l-8 -51h-612q-6 -45 -6 -80q0 -90 43 -138t121 -48q121 0 176 118h241q-158 -348 -460 -348q-172 0 -262.5 101.5t-90.5 294.5zM178 1532h258l105 -299h-168zM334 653h364l2 54 q2 80 -40 128t-107 48q-78 0 -131 -55.5t-88 -174.5zM522 1532h258l105 -299h-170z" />
<glyph unicode="&#x208;" horiz-adv-x="466" d="M10 1913h258l105 -299h-168zM45 0l258 1470h252l-258 -1470h-252zM354 1913h258l105 -299h-170z" />
<glyph unicode="&#x209;" horiz-adv-x="466" d="M-55 1532h258l104 -299h-168zM55 0l191 1090h233l-190 -1090h-234zM289 1532h258l104 -299h-170z" />
<glyph unicode="&#x20c;" horiz-adv-x="1306" d="M119 502q0 279 96 510t266 364t377 133q203 0 333 -139t130 -399q0 -430 -211 -720t-526 -290q-215 0 -340 145.5t-125 395.5zM377 555q0 -156 67.5 -245t188.5 -89q182 0 307 202t125 492q0 156 -67.5 245t-186.5 89q-186 0 -310 -206.5t-124 -487.5zM432 1913h258 l105 -299h-168zM776 1913h258l105 -299h-170z" />
<glyph unicode="&#x20d;" horiz-adv-x="1026" d="M76 389q0 309 165 519t406 210q172 0 271.5 -111.5t99.5 -306.5q0 -305 -166 -517t-406 -212q-172 0 -271 111.5t-99 306.5zM223 1532h258l105 -299h-168zM319 428q0 -215 170 -215q127 0 205 133t78 318q0 213 -170 213q-127 0 -205 -135.5t-78 -313.5zM567 1532h258 l105 -299h-170z" />
<glyph unicode="&#x210;" horiz-adv-x="1212" d="M66 0l256 1470h610q150 0 231.5 -85t81.5 -240q0 -143 -67.5 -265t-186.5 -175q59 -37 83 -77t24 -108q0 -80 -39 -299q-12 -70 -12 -117q0 -45 34 -65l-6 -39h-280l-2 55q-2 37 22.5 205t24.5 191q0 70 -38 97t-130 27h-260l-101 -575h-245zM344 1913h258l105 -299h-168 zM457 823h295q119 0 176 69t57 183q0 141 -147 142h-314zM688 1913h258l105 -299h-170z" />
<glyph unicode="&#x211;" horiz-adv-x="653" d="M45 0l191 1090h225l-35 -195q82 129 142.5 176t146.5 47q4 0 19.5 -2t25.5 -2l-51 -291q-23 4 -60 4q-225 0 -270 -260l-98 -567h-236zM51 1532h258l105 -299h-168zM395 1532h258l105 -299h-170z" />
<glyph unicode="&#x214;" horiz-adv-x="1212" d="M135 346q0 76 12 150l170 974h256l-165 -954q-8 -41 -9 -90q0 -205 183 -205q231 0 280 281l170 968h256l-166 -956q-47 -268 -196.5 -410.5t-384.5 -142.5q-195 0 -300.5 100.5t-105.5 284.5zM385 1913h258l105 -299h-168zM729 1913h258l105 -299h-170z" />
<glyph unicode="&#x215;" horiz-adv-x="1026" d="M102 246q0 74 11 127l127 717h235l-119 -676q-6 -33 -6 -70q0 -131 121 -131q86 0 146.5 66.5t80.5 181.5l111 629h235l-190 -1090h-225l28 160q-70 -100 -142.5 -144.5t-168.5 -44.5q-117 0 -180.5 72t-63.5 203zM223 1532h258l105 -299h-168zM567 1532h258l105 -299 h-170z" />
<glyph unicode="&#x218;" horiz-adv-x="1120" d="M74 332q0 39 10 121h242q-4 -45 -4 -56q0 -88 58 -135t165 -47q127 0 203.5 60.5t76.5 160.5q0 53 -41 86t-147 66l-123 37q-195 57 -256 124.5t-61 198.5q0 240 152.5 400.5t391.5 160.5q193 0 297.5 -102t104.5 -268q0 -47 -8 -105h-240v43q0 86 -53.5 132t-151.5 46 q-111 0 -179.5 -59t-68.5 -154q0 -47 23.5 -72.5t81.5 -43.5l278 -88q135 -43 194.5 -114t59.5 -187q0 -248 -162.5 -412t-418.5 -164q-199 0 -311.5 100.5t-112.5 270.5zM285 -610l16 88q59 12 98 61t47 119h-114l39 219h200l-34 -194q-14 -119 -85 -201t-167 -92z" />
<glyph unicode="&#x219;" d="M45 264q0 23 4 84h242q-2 -16 -2 -41q0 -119 164 -119q78 0 128 36t50 91q0 72 -176 107q-309 57 -310 264q0 193 127 312.5t316 119.5q332 0 332 -291q0 -41 -2 -69h-232v37q0 106 -137 106q-72 0 -116 -32.5t-44 -86.5q0 -70 174 -104q315 -63 316 -268 q0 -186 -131.5 -312.5t-337.5 -126.5q-170 0 -267.5 78t-97.5 215zM199 -610l16 88q59 12 98 61t47 119h-114l39 219h200l-34 -194q-14 -119 -85 -201t-167 -92z" />
<glyph unicode="&#x21a;" horiz-adv-x="1026" d="M172 1210l45 260h981l-45 -260h-365l-210 -1210h-252l211 1210h-365zM246 -610l16 88q59 12 98 61t48 119h-115l39 219h200l-34 -194q-14 -119 -85 -201t-167 -92z" />
<glyph unicode="&#x21b;" horiz-adv-x="559" d="M106 139q0 45 9 84l114 662h-120l34 205h123l51 294h236l-51 -294h145l-35 -205h-147l-103 -592q-6 -29 -6 -47q0 -41 86 -41q2 0 52 4l-39 -217l-142 -4q-106 0 -156.5 36.5t-50.5 114.5zM109 -610l16 88q59 12 98 61t47 119h-114l39 219h200l-35 -194 q-14 -119 -84.5 -201t-166.5 -92z" />
<glyph unicode="&#x258;" d="M43 319h242q16 -119 135 -118q78 0 137 48t90 138q14 37 23 80h-613l11 51q20 111 51 201q68 195 190.5 297t286.5 102q231 0 310 -215t-34 -536q-68 -193 -192.5 -294.5t-296.5 -101.5q-305 0 -340 348zM332 653h364q6 119 -27.5 174.5t-111.5 55.5q-66 0 -125 -48.5 t-84 -127.5z" />
<glyph unicode="&#x259;" d="M57 371q0 80 19 200l8 52h612q6 45 6 79q0 90 -43 138.5t-120 48.5q-121 0 -177 -119h-241q158 348 461 348q172 0 262 -101.5t90 -293.5q0 -322 -153.5 -537t-385.5 -215q-164 0 -251 102.5t-87 297.5zM291 383q-2 -80 40 -128t107 -48q78 0 131.5 55t87.5 174h-364z " />
<glyph unicode="&#x2be;" horiz-adv-x="815" d="M213 864l4 62q0 18 21 18h157q12 0 13 -14q0 -104 65 -105q72 0 115 90.5t45 217.5q-4 106 -78 106q-39 0 -68.5 -30.5t-42.5 -80.5q-6 -16 -18 -16h-160q-18 0 -14 18q45 145 133 222.5t209 77.5q115 0 175 -69t58 -196q2 -221 -104.5 -377.5t-273.5 -156.5 q-106 0 -170 63.5t-66 169.5z" />
<glyph unicode="&#x2bf;" horiz-adv-x="815" d="M223 895q0 221 107.5 378t273.5 157q106 0 170 -63.5t66 -170.5l-4 -61q0 -18 -21 -19h-158q-10 0 -14 14q0 104 -65 105q-72 0 -114 -89t-44 -218q0 -106 78 -107q39 0 68.5 31t39.5 80q6 16 21 16h159q20 0 13 -18q-43 -145 -131 -222t-209 -77q-113 0 -174.5 68.5 t-61.5 195.5z" />
<glyph unicode="&#x2c6;" horiz-adv-x="559" d="M137 1233l244 299h211l139 -299h-190l-78 168l-135 -168h-191z" />
<glyph unicode="&#x2c7;" horiz-adv-x="559" d="M188 1532h191l78 -168l135 168h190l-243 -299h-211z" />
<glyph unicode="&#x2d8;" horiz-adv-x="559" d="M201 1475q0 33 2 57h110v-12q0 -70 35 -100.5t113 -30.5q82 0 125 30.5t73 112.5h109q-84 -299 -344 -299q-109 0 -166 62.5t-57 179.5z" />
<glyph unicode="&#x2d9;" horiz-adv-x="559" d="M324 1266l41 235h233l-41 -235h-233z" />
<glyph unicode="&#x2da;" horiz-adv-x="559" d="M248 1386q12 72 86 125.5t158 53.5q86 0 140 -54.5t40 -128.5q-12 -72 -85 -126t-159 -54t-140 54t-40 130zM352 1384q-6 -37 20.5 -62.5t71.5 -25.5t80 26t41 60q6 37 -19.5 62.5t-70.5 25.5q-43 0 -80 -25.5t-43 -60.5z" />
<glyph unicode="&#x2db;" horiz-adv-x="559" d="M49 -315q0 90 50.5 162.5t154.5 152.5h188q-92 -61 -141 -115.5t-49 -124.5q0 -86 127 -86h82l-33 -186h-82q-123 0 -210 50.5t-87 146.5z" />
<glyph unicode="&#x2dc;" horiz-adv-x="559" d="M127 1253q47 131 105.5 191.5t140.5 60.5q14 0 107 -36.5t106 -36.5q61 0 94 81h108q-84 -246 -225 -245q-18 0 -116.5 36.5t-118.5 36.5q-59 0 -95 -88h-106z" />
<glyph unicode="&#x2dd;" horiz-adv-x="559" d="M170 1233l209 299h258l-297 -299h-170zM514 1233l209 299h258l-299 -299h-168z" />
<glyph unicode="&#x300;" horiz-adv-x="0" d="M-592 1532h258l107 -299h-170z" />
<glyph unicode="&#x301;" horiz-adv-x="0" d="M-397 1233l211 299h258l-299 -299h-170z" />
<glyph unicode="&#x302;" horiz-adv-x="0" d="M-608 1233l243 299h211l140 -299h-191l-78 168l-135 -168h-190z" />
<glyph unicode="&#x303;" horiz-adv-x="0" d="M-618 1253q47 131 105 191.5t140 60.5q14 0 107.5 -36.5t105.5 -36.5q61 0 94 81h109q-82 -246 -225 -245q-18 0 -116.5 36.5t-119.5 36.5q-59 0 -94 -88h-106z" />
<glyph unicode="&#x304;" horiz-adv-x="0" d="M-590 1307l27 151h579l-26 -151h-580z" />
<glyph unicode="&#x306;" horiz-adv-x="0" d="M-545 1475q0 33 2 57h111v-12q0 -70 35 -100.5t112 -30.5q82 0 125 30.5t74 112.5h109q-84 -299 -345 -299q-109 0 -166 62.5t-57 179.5z" />
<glyph unicode="&#x307;" horiz-adv-x="0" d="M-422 1266l41 235h234l-41 -235h-234z" />
<glyph unicode="&#x308;" horiz-adv-x="0" d="M-573 1266l41 235h196l-41 -235h-196zM-236 1266l41 235h197l-41 -235h-197z" />
<glyph unicode="&#x309;" horiz-adv-x="0" d="M-514 1378q35 188 270 189q104 0 158.5 -38t42.5 -104q-6 -39 -32.5 -65.5t-90.5 -61.5q-51 -29 -65.5 -40t-18.5 -25l-8 -49h-127l10 55q6 37 33 61.5t96 57.5v-2q74 43 76 69q4 23 -21.5 37.5t-72.5 14.5q-70 0 -98 -29l2 2q-16 -14 -29 -72h-125z" />
<glyph unicode="&#x30a;" horiz-adv-x="0" d="M-498 1386q12 72 86 125.5t158 53.5q86 0 140.5 -54.5t39.5 -128.5q-12 -72 -84.5 -126t-158.5 -54t-140.5 54t-40.5 130zM-393 1384q-6 -37 20.5 -62.5t71.5 -25.5t80 26t41 60q6 37 -19.5 62.5t-70.5 25.5q-43 0 -80 -25.5t-43 -60.5z" />
<glyph unicode="&#x30b;" horiz-adv-x="0" d="M-575 1233l208 299h258l-297 -299h-169zM-231 1233l208 299h259l-299 -299h-168z" />
<glyph unicode="&#x30c;" horiz-adv-x="0" d="M-557 1532h190l78 -168l135 168h191l-244 -299h-211z" />
<glyph unicode="&#x30f;" horiz-adv-x="0" d="M-756 1532h258l105 -299h-168zM-412 1532h258l105 -299h-170z" />
<glyph unicode="&#x311;" horiz-adv-x="0" d="M-596 1233q84 299 344 299q109 0 166 -62.5t57 -179.5q0 -33 -2 -57h-110v12q0 70 -35 100.5t-113 30.5q-82 0 -125 -30.5t-73 -112.5h-109z" />
<glyph unicode="&#x323;" horiz-adv-x="0" d="M-715 -410l41 236h234l-41 -236h-234z" />
<glyph unicode="&#x326;" horiz-adv-x="0" d="M-735 -610l16 88q59 12 98 61t48 119h-115l39 219h200l-34 -194q-14 -119 -85 -201t-167 -92z" />
<glyph unicode="&#x32e;" horiz-adv-x="0" d="M-860 -164h110q25 -53 62 -76.5t115 -23.5q139 0 192 100h129q-111 -258 -358 -258q-234 0 -250 258z" />
<glyph unicode="&#x32f;" horiz-adv-x="0" d="M-905 -422q111 258 358 258q233 0 250 -258h-111q-25 53 -61.5 76.5t-114.5 23.5q-139 0 -192 -100h-129z" />
<glyph unicode="&#x330;" horiz-adv-x="0" d="M-911 -422q47 131 105 191.5t140 60.5q14 0 107.5 -37t105.5 -37q61 0 95 82h108q-82 -246 -225 -246q-18 0 -116.5 37t-119.5 37q-59 0 -94 -88h-106z" />
<glyph unicode="&#x331;" horiz-adv-x="0" d="M-883 -369l27 152h580l-27 -152h-580z" />
<glyph unicode="&#x332;" horiz-adv-x="0" d="M-883 -369l27 152h580l-27 -152h-580z" />
<glyph unicode="&#x391;" horiz-adv-x="1212" d="M-29 0l688 1470h291l168 -1470h-274l-25 303h-444l-137 -303h-267zM485 557h308l-48 588z" />
<glyph unicode="&#x392;" horiz-adv-x="1212" d="M66 0l256 1470h587q150 0 231 -76.5t81 -217.5q0 -266 -207 -383q74 -43 104.5 -99.5t30.5 -148.5q0 -225 -145 -387q-82 -90 -172.5 -124t-256.5 -34h-509zM352 254h310q106 0 169.5 73.5t63.5 182.5q0 63 -41 100t-113 37h-321zM463 895h297q96 0 153.5 56.5 t57.5 150.5q0 115 -162 115h-289z" />
<glyph unicode="&#x393;" horiz-adv-x="1026" d="M66 0l256 1470h858l-45 -260h-607l-211 -1210h-251z" />
<glyph unicode="&#x394;" horiz-adv-x="1028" d="M-47 0l635 1417h225l139 -1417h-999zM299 233h389l-72 711z" />
<glyph unicode="&#x395;" horiz-adv-x="1120" d="M66 0l256 1470h886l-45 -260h-641l-53 -309h588l-45 -260h-588l-66 -381h668l-45 -260h-915z" />
<glyph unicode="&#x396;" horiz-adv-x="1026" d="M-20 0l45 260l790 950h-608l45 260h924l-43 -241l-801 -969h637l-47 -260h-942z" />
<glyph unicode="&#x397;" horiz-adv-x="1212" d="M57 0l256 1470h252l-96 -557h471l96 557h252l-256 -1470h-252l115 659h-471l-115 -659h-252z" />
<glyph unicode="&#x398;" horiz-adv-x="1306" d="M119 502q0 279 96 510t266 364t377 133q203 0 333 -139t130 -399q0 -430 -211 -720t-526 -290q-215 0 -340 145.5t-125 395.5zM377 555q0 -156 67.5 -245t188.5 -89q182 0 307 202t125 492q0 156 -67.5 245t-186.5 89q-186 0 -310 -206.5t-124 -487.5zM479 618l41 234 h441l-39 -234h-443z" />
<glyph unicode="&#x399;" horiz-adv-x="466" d="M45 0l258 1470h252l-258 -1470h-252z" />
<glyph unicode="&#x39a;" horiz-adv-x="1212" d="M84 0l256 1470h252l-105 -598l566 598h325l-598 -602l371 -868h-326l-260 645l-143 -147l-86 -498h-252z" />
<glyph unicode="&#x39b;" horiz-adv-x="1212" d="M-29 0l688 1470h291l168 -1470h-274l-99 1145l-507 -1145h-267z" />
<glyph unicode="&#x39c;" horiz-adv-x="1398" d="M55 0l256 1470h383v-1167l420 1167h365l-256 -1470h-236l217 1247l-444 -1247h-252v1247l-217 -1247h-236z" />
<glyph unicode="&#x39d;" horiz-adv-x="1212" d="M55 0l256 1470h264l304 -1032l178 1032h235l-256 -1470h-252l-311 1055l-182 -1055h-236z" />
<glyph unicode="&#x39e;" horiz-adv-x="1212" d="M55 0l45 250h977l-43 -250h-979zM268 1221l45 249h977l-43 -249h-979zM418 618l41 234h469l-41 -234h-469z" />
<glyph unicode="&#x39f;" horiz-adv-x="1306" d="M119 502q0 279 96 510t266 364t377 133q203 0 333 -139t130 -399q0 -430 -211 -720t-526 -290q-215 0 -340 145.5t-125 395.5zM377 555q0 -156 67.5 -245t188.5 -89q182 0 307 202t125 492q0 156 -67.5 245t-186.5 89q-186 0 -310 -206.5t-124 -487.5z" />
<glyph unicode="&#x3a0;" horiz-adv-x="1212" d="M57 0l256 1470h975l-256 -1470h-252l211 1217h-471l-211 -1217h-252z" />
<glyph unicode="&#x3a1;" horiz-adv-x="1120" d="M66 0l256 1470h550q143 0 224.5 -90t81.5 -252q0 -238 -138.5 -418t-341.5 -180h-288l-93 -530h-251zM455 784h233q111 0 172.5 80t61.5 211q0 74 -46.5 108t-146.5 34h-199z" />
<glyph unicode="&#x3a3;" horiz-adv-x="1032" d="M0 0l49 276l447 459l-287 459l47 276h909l-43 -245h-618l307 -490l-477 -489h618l-43 -246h-909z" />
<glyph unicode="&#x3a4;" horiz-adv-x="1026" d="M172 1210l45 260h981l-45 -260h-365l-210 -1210h-252l211 1210h-365z" />
<glyph unicode="&#x3a5;" horiz-adv-x="1120" d="M219 1470h297l139 -639l351 639h286l-565 -919l-94 -551h-254l98 555z" />
<glyph unicode="&#x3a6;" horiz-adv-x="1312" d="M184.5 735q30.5 174 171 305t326.5 170l45 260h252l-45 -260q172 -39 266 -170t63.5 -305t-171 -305t-326.5 -170l-45 -260h-252l45 260q-172 39 -266 170t-63.5 305zM426 735q-14 -76 23.5 -135t109.5 -88l78 446q-82 -29 -139.5 -88t-71.5 -135zM811 512 q82 29 139.5 88t71.5 135t-23.5 135.5t-109.5 87.5z" />
<glyph unicode="&#x3a7;" horiz-adv-x="1120" d="M-39 0l520 752l-241 718h301l131 -475l303 475h291l-492 -706l260 -764h-307l-141 502l-330 -502h-295z" />
<glyph unicode="&#x3a8;" horiz-adv-x="1290" d="M246 1090l65 380h242l-66 -380q-23 -125 1 -230.5t92 -157.5l135 768h252l-136 -768q86 51 146.5 157t81.5 231l67 380h242l-68 -380q-39 -229 -181 -412.5t-333 -235.5l-77 -442h-252l78 442q-172 53 -250 236t-39 412z" />
<glyph unicode="&#x3a9;" horiz-adv-x="1298" d="M0 0l43 246h238l22 123q-109 143 -108 348q0 291 195.5 529.5t457.5 238.5q197 0 312.5 -144.5t115.5 -359.5q0 -174 -75 -337t-200 -275l-20 -123h238l-43 -246h-490l84 481q111 51 181.5 187.5t70.5 281.5q0 125 -56.5 207t-160.5 82q-150 0 -252 -154.5t-102 -334.5 q0 -203 122 -269l-84 -481h-489z" />
<glyph unicode="&#x3b1;" horiz-adv-x="1345" d="M143 506q45 254 212 440.5t382 186.5t305 -240q86 209 117 250l191 -107q-88 -127 -248 -532q6 -248 76 -451l-228 -106q-29 76 -47 211q-170 -201 -371 -201q-207 0 -317.5 163t-71.5 386zM377 506q-23 -123 32.5 -215t163.5 -92q182 0 314 309q-2 84 -8.5 140.5 t-24.5 117.5t-58 93t-102 32q-121 0 -205.5 -113.5t-111.5 -271.5z" />
<glyph unicode="&#x3b2;" horiz-adv-x="1005" d="M-86 -492l279 1596q31 180 156.5 286.5t305.5 106.5q160 0 246 -78t86 -221q0 -250 -176 -356q76 -53 106.5 -110.5t30.5 -147.5q0 -248 -145.5 -430.5t-358.5 -182.5q-113 0 -204 58l-90 -521h-236zM281 262q61 -55 157 -55q125 0 197 90t72 235q0 90 -48.5 129 t-171.5 50l35 198q129 6 176 63.5t47 166.5q0 61 -35.5 95t-101.5 34q-72 0 -121 -49.5t-63 -133.5z" />
<glyph unicode="&#x3b3;" horiz-adv-x="1179" d="M246 1090h246l104 -707l350 707h246l-551 -1110l-82 -472h-233l82 472z" />
<glyph unicode="&#x3b4;" horiz-adv-x="1026" d="M70 356q0 174 114.5 311.5t294.5 200.5q-72 66 -110.5 125.5t-38.5 132.5q0 147 129 245.5t295 98.5q178 0 297 -106l-146 -186q-86 57 -192 57q-76 0 -113 -16.5t-37 -73.5q0 -33 12.5 -60.5t40 -53t48 -41t63.5 -42t57 -37.5q94 -66 148.5 -165t54.5 -216q0 -49 -8 -90 q-33 -193 -188.5 -331t-344.5 -138q-166 0 -271 110.5t-105 274.5zM309 397q0 -82 49.5 -136t128.5 -54q90 0 165 68.5t91 164.5q4 20 5 60q0 145 -109 225q-123 0 -226.5 -99.5t-103.5 -228.5z" />
<glyph unicode="&#x3b5;" horiz-adv-x="1011" d="M117 352q29 156 198 248q-100 88 -77 223q27 150 138 259.5t249 109.5q160 0 350 -129l-127 -164q-80 51 -264 51q-41 0 -72 -38t-41 -89q-12 -72 55.5 -105.5t171.5 -33.5l-34 -192q-289 0 -314 -140q-16 -86 34 -148.5t136 -62.5q164 0 238 45l80 -157 q-213 -129 -361 -129q-184 0 -288.5 133t-71.5 319z" />
<glyph unicode="&#x3b6;" horiz-adv-x="968" d="M150 545q37 213 163.5 403.5t317.5 329.5h-352l32 192h793l-33 -192h-127q-219 -98 -368.5 -298t-192.5 -435q-23 -125 10 -216t127 -91h62q133 0 200.5 -109t42.5 -258q-25 -143 -131 -248.5t-237 -105.5l39 217q70 0 96 137q20 125 -51 125h-62q-188 0 -278 164 t-51 385z" />
<glyph unicode="&#x3b7;" horiz-adv-x="1026" d="M55 0l191 1090h233v-5q94 47 199 48q156 0 241 -120t56 -286l-213 -1219h-234l213 1219q10 68 -19.5 116t-86.5 48q-117 0 -205 -84l-141 -807h-234z" />
<glyph unicode="&#x3b8;" horiz-adv-x="980" d="M176 696q23 133 47.5 235.5t67.5 217.5t95 190.5t131 124.5t175 49t157.5 -49t87.5 -124.5t29 -190.5t-8.5 -217.5t-33.5 -235.5q-129 -739 -502 -739q-375 0 -246 739zM372.5 315.5q12.5 -116.5 90.5 -116.5q55 0 97 58t65.5 133t44.5 185h-281q-29 -143 -16.5 -259.5z M432 817h279q16 98 23 169t5 141.5t-24.5 107.5t-65.5 37q-135 0 -217 -455z" />
<glyph unicode="&#x3b9;" horiz-adv-x="778" d="M229 328l133 762h234l-133 -762q-10 -61 41 -95t131 -34l-43 -242q-174 0 -283 105.5t-80 265.5z" />
<glyph unicode="&#x3ba;" d="M55 0l191 1090h233l-71 -414l366 414h289l-389 -422l209 -668h-283l-131 467l-119 -123l-59 -344h-236z" />
<glyph unicode="&#x3bb;" horiz-adv-x="1304" d="M55 0l658 989l-11 60q-12 84 -59 140t-123 56l39 217q147 0 250.5 -93t128.5 -239l188 -1130h-245l-115 674l-449 -674h-262z" />
<glyph unicode="&#x3bc;" horiz-adv-x="1259" d="M86 -492l276 1582h234l-129 -738q18 -154 135 -153q119 0 191 153l129 738h233l-190 -1090h-234v6q-82 -49 -170 -49q-90 0 -155 49l-87 -498h-233z" />
<glyph unicode="&#x3bd;" horiz-adv-x="1056" d="M188 1090h246l123 -834q225 195 274 471q31 178 21 363h240q8 -158 -27 -363q-41 -233 -189.5 -438t-367.5 -330l-162 64z" />
<glyph unicode="&#x3be;" horiz-adv-x="1026" d="M137 467q37 215 234 350q-113 113 -86 279q18 102 92 182h-98l32 192h793l-33 -192h-356q-76 -20 -130.5 -68.5t-66.5 -113.5q-12 -74 43 -122t141 -48l-36 -217q-104 0 -191.5 -71t-103.5 -171q-16 -94 25.5 -161.5t123.5 -67.5h62q133 0 200.5 -109t42.5 -258 q-25 -143 -131 -248.5t-237 -105.5l39 217q70 0 96 137q20 125 -51 125h-62q-180 0 -278.5 139t-63.5 332z" />
<glyph unicode="&#x3bf;" horiz-adv-x="1026" d="M76 389q0 309 165 519t406 210q172 0 271.5 -111.5t99.5 -306.5q0 -305 -166 -517t-406 -212q-172 0 -271 111.5t-99 306.5zM319 428q0 -215 170 -215q127 0 205 133t78 318q0 213 -170 213q-127 0 -205 -135.5t-78 -313.5z" />
<glyph unicode="&#x3c0;" horiz-adv-x="1251" d="M113 641q41 236 178 342.5t385 106.5h643l-41 -236h-102l-150 -854h-233l149 854h-190l-150 -854h-233l149 854q-82 0 -116.5 -51t-53.5 -162h-235z" />
<glyph unicode="&#x3c1;" horiz-adv-x="1157" d="M-31 -492l181 1037q41 238 201.5 413t363.5 175t301 -175.5t57 -413t-200.5 -412.5t-362.5 -175q-123 0 -217 68l-90 -517h-234zM340 295q59 -96 211 -96q109 0 187.5 103.5t101.5 242.5q25 139 -17.5 242.5t-150.5 103.5q-106 0 -185 -103.5t-104 -242.5z" />
<glyph unicode="&#x3c2;" horiz-adv-x="1026" d="M154 565q41 229 187 398.5t337 169.5q150 0 234.5 -111t56.5 -264l-211 2q10 55 -27 93t-96 38q-96 0 -159.5 -95.5t-88.5 -230.5t6 -231t127 -96h62q133 0 200.5 -109t42.5 -258q-25 -143 -131 -248.5t-237 -105.5l39 217q70 0 96 137q20 125 -51 125h-62 q-129 0 -213 82t-111.5 211t-0.5 276z" />
<glyph unicode="&#x3c3;" horiz-adv-x="1239" d="M137 389q0 309 165 519t407 210q55 0 104 -12q180 25 416 131l67 -217q-123 -53 -268 -84q51 -98 51 -236q0 -305 -165.5 -517t-405.5 -212q-172 0 -271.5 111.5t-99.5 306.5zM381 428q0 -215 170 -215q127 0 205 133t78 318q0 213 -170 213q-127 0 -205 -135.5 t-78 -313.5z" />
<glyph unicode="&#x3c4;" horiz-adv-x="837" d="M205 852l41 242h588l-43 -242h-177l-92 -524q-10 -61 42 -95t130 -34l-41 -242q-174 0 -282.5 105.5t-81.5 265.5l92 524h-176z" />
<glyph unicode="&#x3c5;" horiz-adv-x="1026" d="M119 362l127 728h233l-127 -728q-12 -66 13.5 -114.5t80.5 -48.5q98 0 166 92t93 221q47 281 18 578h242q27 -266 -27 -578q-41 -225 -191.5 -390t-340.5 -165q-152 0 -234 119.5t-53 285.5z" />
<glyph unicode="&#x3c6;" horiz-adv-x="1540" d="M150 545q31 172 146.5 321.5t283.5 237.5l75 -184q-109 -57 -180.5 -157.5t-91.5 -217.5q-20 -123 50.5 -212t195.5 -120l53 299q29 162 90.5 298t168 229.5t235.5 93.5q123 0 198.5 -87.5t89 -218.5t-7.5 -282q-37 -219 -219 -380t-418 -198l-80 -459h-233l80 459 q-221 37 -347 198t-89 380zM862 213q137 31 238.5 120t122.5 212q12 74 17 125t1 107.5t-31.5 85t-76.5 28.5q-37 0 -67 -14.5t-51.5 -46t-35.5 -61.5t-27.5 -83t-19.5 -84l-17 -90z" />
<glyph unicode="&#x3c7;" horiz-adv-x="1189" d="M-31 -492l490 791l-213 791h258l133 -500l309 500h258l-489 -791l213 -791h-258l-133 500l-310 -500h-258z" />
<glyph unicode="&#x3c8;" horiz-adv-x="1306" d="M119 362l127 728h233l-127 -728q-12 -66 33 -103.5t127 -51.5l219 1263h234l-220 -1263q190 33 213 155l127 728h234l-127 -728q-27 -156 -165 -261t-325 -134l-79 -459h-234l80 459q-174 29 -275.5 134t-74.5 261z" />
<glyph unicode="&#x3c9;" horiz-adv-x="1357" d="M135 286.5q0 139.5 23 297.5q43 250 260 506h200q-176 -203 -227 -506q-10 -57 -15 -90t-11.5 -85.5t-5.5 -83t6.5 -63.5t21.5 -48t43 -15q100 0 154 147q2 150 43 381h233q-12 -76 -17 -104.5t-15.5 -99t-12.5 -103.5t-3 -84t6 -74.5t20.5 -43t35.5 -19.5q37 0 67 31.5 t50.5 100t30.5 116t27 137.5q53 305 -52 506h201q127 -254 84 -506q-20 -121 -56 -226.5t-89.5 -198.5t-131 -147.5t-171.5 -54.5q-152 0 -211 127q-96 -127 -236 -127q-123 0 -187.5 95t-64.5 234.5z" />
<glyph unicode="&#x3d1;" horiz-adv-x="1142" d="M119 362l63 365h234l-64 -365q-12 -70 27 -118.5t106 -48.5q70 0 125.5 49t67.5 118l76 433q-106 14 -187.5 39.5t-145 68.5t-90 110.5t-9.5 157.5q29 162 144.5 279t258.5 117q172 0 259 -142.5t54 -334.5l-20 -121h117l-35 -195l-117 2l-72 -414q-29 -166 -165 -283.5 t-302 -117.5q-164 0 -259 117.5t-66 283.5zM508 1171q-14 -88 60.5 -132t217.5 -58l19 109q20 119 -5.5 201.5t-107.5 82.5q-68 0 -119 -60.5t-65 -142.5z" />
<glyph unicode="&#x3d5;" horiz-adv-x="1439" d="M151.5 545q36.5 213 202.5 372.5t381 198.5l62 354h237l-61 -354q201 -39 311.5 -198.5t73.5 -372.5t-203 -373t-381 -199l-82 -465h-237l82 465q-203 39 -312.5 199t-73 373zM385.5 544.5q-20.5 -114.5 33.5 -204.5t159 -127l116 664q-117 -37 -202.5 -127.5t-106 -205z M815 213q117 37 203 127t106.5 204.5t-34 205t-158.5 127.5z" />
<glyph unicode="&#x3d6;" horiz-adv-x="1357" d="M135 286.5q0 139.5 23 297.5q43 250 260 506h200q-176 -203 -227 -506q-10 -57 -15 -90t-11.5 -85.5t-5.5 -83t6.5 -63.5t21.5 -48t43 -15q100 0 154 147q2 150 43 381h233q-12 -76 -17 -104.5t-15.5 -99t-12.5 -103.5t-3 -84t6 -74.5t20.5 -43t35.5 -19.5q37 0 67 31.5 t50.5 100t30.5 116t27 137.5q14 80 19 115l16 111q11 75 13.5 114t3.5 101t-6.5 96t-20.5 76t-35.5 63.5t-56.5 37t-79 15.5q-205 0 -407 -105l-60 144q242 129 496 129q137 0 225 -77t121 -209t34 -284.5t-30 -326.5q-20 -121 -56 -226.5t-89.5 -198.5t-131 -147.5 t-171.5 -54.5q-152 0 -211 127q-96 -127 -236 -127q-123 0 -187.5 95t-64.5 234.5z" />
<glyph unicode="&#x3f5;" d="M72 348q0 319 151.5 544.5t388.5 225.5q143 0 233.5 -82t98.5 -219h-262q-27 59 -100.5 59.5t-132 -60t-91.5 -163.5h318l-39 -217h-318l-2 -49q0 -86 36 -133t100 -47q74 0 133 65h254q-145 -301 -437 -301q-162 0 -246.5 97.5t-84.5 279.5z" />
<glyph unicode="&#x400;" horiz-adv-x="1120" d="M66 0l256 1470h886l-45 -260h-641l-53 -309h588l-45 -260h-588l-66 -381h668l-45 -260h-915zM659 1974h259l106 -299h-170z" />
<glyph unicode="&#x401;" horiz-adv-x="1120" d="M66 0l256 1470h886l-45 -260h-641l-53 -309h588l-45 -260h-588l-66 -381h668l-45 -260h-915zM514 1638l41 236h211l-41 -236h-211zM842 1638l41 236h211l-41 -236h-211z" />
<glyph unicode="&#x402;" horiz-adv-x="1331" d="M172 1210l45 260h817l-45 -260h-282l-58 -331q31 35 69 54t73.5 23.5t75.5 6.5t77 0q164 0 252 -72t88 -211q0 -43 -10 -105l-100 -575q-14 -78 -40 -129t-59 -82t-90 -46t-115.5 -20.5t-150.5 -5.5v162q92 0 142 34t61 87l100 567q2 8 2 23q0 55 -54.5 88t-148.5 33 q-199 0 -227 -154l-98 -557h-252l211 1210h-283z" />
<glyph unicode="&#x403;" horiz-adv-x="1026" d="M66 0l256 1470h858l-45 -260h-607l-211 -1210h-251zM406 1589l210 299h258l-299 -299h-169z" />
<glyph unicode="&#x404;" horiz-adv-x="1212" d="M141.5 731.5q63.5 358.5 251 568t445.5 209.5q143 0 244.5 -67.5t148.5 -192.5q41 -111 31 -260h-252q-4 98 -33 156q-49 98 -180 98q-117 0 -210 -89t-149 -253h424l-45 -260h-434q-18 -197 40 -305.5t185 -108.5q137 0 230 115q43 51 86 162h252q-47 -131 -89.5 -206 t-107.5 -146q-174 -190 -422 -191q-256 0 -367.5 206t-48 564.5z" />
<glyph unicode="&#x405;" horiz-adv-x="1120" d="M74 332q0 39 10 121h242q-4 -45 -4 -56q0 -88 58 -135t165 -47q127 0 203.5 60.5t76.5 160.5q0 53 -41 86t-147 66l-123 37q-184 55 -238 108q-80 76 -79 215q0 205 120 367q150 195 424 194q242 0 340 -151q61 -102 62 -219q0 -47 -8 -105h-240v43q0 86 -53.5 132 t-151.5 46q-111 0 -179.5 -59t-68.5 -154q0 -47 23.5 -72.5t81.5 -43.5l278 -88q135 -43 194.5 -114t59.5 -187q0 -115 -44 -226.5t-120 -187.5q-158 -162 -417 -162q-262 0 -367 162q-57 90 -57 209z" />
<glyph unicode="&#x406;" horiz-adv-x="466" d="M45 0l258 1470h252l-258 -1470h-252z" />
<glyph unicode="&#x407;" horiz-adv-x="466" d="M45 0l256 1470h252l-256 -1470h-252zM188 1638l41 236h211l-41 -236h-211zM516 1638l41 236h211l-41 -236h-211z" />
<glyph unicode="&#x408;" d="M39 274q0 86 33 281h235q-25 -156 -24 -215q0 -68 27.5 -98.5t86.5 -30.5q78 0 117 48t59 167l183 1044h252l-183 -1044q-80 -463 -460 -463q-166 0 -246 76.5t-80 234.5z" />
<glyph unicode="&#x409;" horiz-adv-x="1716" d="M-160 0l43 248q92 -2 205 236.5t162 519.5l82 466h839l-94 -532h289q147 0 230 -94t83 -260q0 -240 -135 -412t-332 -172h-550l217 1219h-340l-39 -226q-29 -170 -84.5 -337t-136 -318.5t-195.5 -244.5t-244 -93zM956 252h201q135 0 200.5 75.5t65.5 207.5 q0 152 -155 151h-234z" />
<glyph unicode="&#x40a;" horiz-adv-x="1789" d="M57 0l256 1470h252l-96 -557h471l96 557h254l-94 -532h289q147 0 230 -94t83 -260q0 -240 -135 -412t-332 -172h-551l115 659h-471l-115 -659h-252zM1075 252h201q135 0 200.5 75.5t65.5 207.5q0 152 -156 151h-233z" />
<glyph unicode="&#x40b;" horiz-adv-x="1331" d="M172 1210l45 260h817l-45 -260h-282l-58 -331q31 35 69 54t73.5 23.5t75.5 6.5t77 0q164 0 252 -72t88 -211q0 -43 -10 -105l-100 -575h-252l100 567q2 8 2 23q0 55 -54.5 88t-148.5 33q-199 0 -227 -154l-98 -557h-252l211 1210h-283z" />
<glyph unicode="&#x40c;" horiz-adv-x="1214" d="M84 0l258 1470h252l-92 -528l553 528h325l-733 -704l504 -766h-324l-389 582l-102 -582h-252zM406 1589l210 299h258l-299 -299h-169z" />
<glyph unicode="&#x40d;" horiz-adv-x="1220" d="M57 0l258 1470h234l-187 -1054l685 1054h249l-258 -1470h-233l182 1032l-665 -1032h-265zM686 1974h258l107 -299h-170z" />
<glyph unicode="&#x40e;" horiz-adv-x="1120" d="M115 0l362 578l-256 892h297l156 -593l334 593h284l-893 -1470h-284zM600 1860q0 33 2 57h111v-12q0 -70 34.5 -100.5t112.5 -30.5q82 0 125 30.5t74 112.5h108q-84 -299 -344 -299q-109 0 -166 62.5t-57 179.5z" />
<glyph unicode="&#x40f;" horiz-adv-x="1208" d="M55 0l258 1470h252l-215 -1218h471l215 1218h252l-258 -1470h-364l-43 -246h-220l43 246h-391z" />
<glyph unicode="&#x410;" horiz-adv-x="1212" d="M-29 0l688 1470h291l168 -1470h-274l-25 303h-444l-137 -303h-267zM485 557h308l-48 588z" />
<glyph unicode="&#x411;" horiz-adv-x="1212" d="M-63 0l258 1470h858l-45 -260h-617l-55 -315h295q109 0 187.5 -33t115.5 -73.5t58.5 -99t24.5 -89.5t3 -63q0 -238 -168 -406q-78 -76 -164 -103.5t-242 -27.5h-509zM221 252h309q104 0 170 72.5t66 181.5q0 66 -40 102.5t-114 36.5h-321z" />
<glyph unicode="&#x412;" horiz-adv-x="1212" d="M66 0l256 1470h587q150 0 231 -76.5t81 -217.5q0 -160 -82 -279q-41 -57 -125 -104q74 -43 104.5 -99.5t30.5 -148.5q0 -225 -145 -387q-80 -90 -171.5 -124t-257.5 -34h-509zM352 254h310q123 0 184 90q49 78 49 166q0 63 -41 100t-113 37h-321zM463 895h297 q96 0 153.5 56.5t57.5 150.5q0 115 -162 115h-289z" />
<glyph unicode="&#x413;" horiz-adv-x="1026" d="M66 0l256 1470h858l-45 -260h-607l-211 -1210h-251z" />
<glyph unicode="&#x414;" horiz-adv-x="1458" d="M-160 -246l86 492h133q92 0 204 237.5t161 520.5l82 466h844l-213 -1224h145l-86 -492h-219l43 246h-918l-43 -246h-219zM401 252h484l170 967h-340l-41 -226q-76 -454 -273 -741z" />
<glyph unicode="&#x415;" horiz-adv-x="1120" d="M66 0l256 1470h886l-45 -260h-641l-53 -309h588l-45 -260h-588l-66 -381h668l-45 -260h-915z" />
<glyph unicode="&#x416;" horiz-adv-x="1843" d="M-39 0l733 766l-446 704h325l328 -528l92 528h250l-92 -528l512 528h326l-693 -704l463 -766h-323l-349 582l-102 -582h-250l103 582l-553 -582h-324z" />
<glyph unicode="&#x417;" horiz-adv-x="1099" d="M61 453h242q-27 -240 219 -240q131 0 208 64.5t77 179.5q0 74 -43 124t-141 50h-162l43 239h196q92 0 141.5 68t49.5 156q0 72 -50 117.5t-136 45.5q-113 0 -180.5 -53t-100.5 -170h-242q53 229 197.5 352t361.5 123q184 0 285.5 -92t101.5 -258q0 -127 -45 -234.5 t-118 -168.5q94 -74 94 -211q0 -307 -158 -445.5t-426 -138.5q-326 0 -403 240q-34 100 -11 252z" />
<glyph unicode="&#x418;" horiz-adv-x="1220" d="M57 0l258 1470h234l-187 -1054l685 1054h249l-258 -1470h-233l182 1032l-665 -1032h-265z" />
<glyph unicode="&#x419;" horiz-adv-x="1220" d="M57 0l258 1470h234l-187 -1054l685 1054h249l-258 -1470h-233l182 1032l-665 -1032h-265zM625 1860q0 33 2 57h110v-12q0 -70 35 -100.5t113 -30.5q82 0 125 30.5t73 112.5h109q-84 -299 -344 -299q-109 0 -166 62.5t-57 179.5z" />
<glyph unicode="&#x41a;" horiz-adv-x="1214" d="M84 0l258 1470h252l-92 -528l553 528h325l-733 -704l504 -766h-324l-389 582l-102 -582h-252z" />
<glyph unicode="&#x41b;" horiz-adv-x="1212" d="M-160 0l43 248q92 -2 205 236.5t162 519.5l82 466h844l-258 -1470h-252l213 1219h-340l-39 -226q-29 -170 -84.5 -337t-136 -318.5t-195.5 -244.5t-244 -93z" />
<glyph unicode="&#x41c;" horiz-adv-x="1404" d="M57 0l256 1470h367l16 -1167l420 1167h365l-256 -1470h-236l217 1247l-444 -1247h-246l-6 1247l-217 -1247h-236z" />
<glyph unicode="&#x41d;" horiz-adv-x="1212" d="M57 0l256 1470h252l-96 -557h471l96 557h252l-256 -1470h-252l115 659h-471l-115 -659h-252z" />
<glyph unicode="&#x41e;" horiz-adv-x="1306" d="M119 502q0 195 62.5 402.5t158.5 332.5q98 129 234.5 200.5t283.5 71.5q197 0 330 -133t133 -405q0 -203 -60.5 -406t-158.5 -332t-234.5 -200.5t-283.5 -71.5q-215 0 -340 145.5t-125 395.5zM377 555q0 -156 67.5 -245t188.5 -89q182 0 307 202t125 492q0 156 -67.5 245 t-186.5 89q-98 0 -186 -63.5t-146 -175.5q-102 -201 -102 -455z" />
<glyph unicode="&#x41f;" horiz-adv-x="1208" d="M55 0l258 1470h975l-258 -1470h-252l215 1219h-471l-215 -1219h-252z" />
<glyph unicode="&#x420;" horiz-adv-x="1120" d="M66 0l256 1470h534q145 0 233.5 -91t88.5 -251q0 -256 -123 -427t-357 -171h-288l-93 -530h-251zM455 784h233q135 0 193 111q41 78 41 180q0 74 -46.5 108t-146.5 34h-199z" />
<glyph unicode="&#x421;" horiz-adv-x="1212" d="M119 494q0 207 62.5 412.5t164.5 340.5q201 262 490 262q193 0 310.5 -122.5t117.5 -323.5q0 -41 -2 -74h-254q-6 102 -33 156q-49 98 -180 98q-166 0 -277 -170q-59 -92 -98 -239.5t-39 -288.5q0 -152 59.5 -235t167.5 -83q137 0 230 115q45 55 86 162h252 q-47 -131 -89.5 -206t-107.5 -146q-174 -190 -420 -191q-195 0 -309 119q-59 63 -95 175t-36 239z" />
<glyph unicode="&#x422;" horiz-adv-x="1026" d="M172 1210l45 260h981l-45 -260h-365l-210 -1210h-252l211 1210h-365z" />
<glyph unicode="&#x423;" horiz-adv-x="1120" d="M115 0l362 578l-256 892h297l156 -593l334 593h284l-893 -1470h-284z" />
<glyph unicode="&#x424;" horiz-adv-x="1589" d="M51 743q20 115 91 222.5t175 183.5q184 133 480 160l28 161h254l-26 -159q281 -25 424 -162q166 -160 120 -414q-27 -158 -134 -289t-267 -202q-156 -68 -346 -82l-29 -162h-254l27 160q-285 29 -424 162q-166 159 -119 421zM309 739q-23 -133 64.5 -217t265.5 -106 l115 641q-195 -27 -299 -105q-123 -84 -146 -213zM893 414q186 23 304 107.5t140 213.5q23 131 -64 215t-265 107z" />
<glyph unicode="&#x425;" horiz-adv-x="1120" d="M-39 0l520 752l-241 718h301l131 -475l303 475h291l-492 -706l260 -764h-307l-141 502l-330 -502h-295z" />
<glyph unicode="&#x426;" horiz-adv-x="1337" d="M66 0l260 1470h252l-216 -1218h472l215 1218h251l-217 -1224h240l-86 -492h-219l43 246h-995z" />
<glyph unicode="&#x427;" horiz-adv-x="1007" d="M47 791q0 43 10 104l101 575h252l-101 -567q-2 -8 -2 -22q0 -55 54.5 -88t148.5 -33q174 0 227 153l99 557h251l-258 -1470h-251l104 592q-31 -35 -69 -54.5t-73.5 -23.5t-75.5 -6t-77 0q-164 0 -252 72t-88 211z" />
<glyph unicode="&#x428;" horiz-adv-x="1523" d="M66 0l258 1470h251l-215 -1218l275 2l213 1216h252l-213 -1216l250 -2l215 1218h252l-258 -1470h-1280z" />
<glyph unicode="&#x429;" horiz-adv-x="1642" d="M66 0l260 1470h252l-216 -1218h273l215 1218h252l-215 -1218h252l215 1218h252l-217 -1224h239l-86 -492h-219l43 246h-1300z" />
<glyph unicode="&#x42a;" horiz-adv-x="1296" d="M55 1210l45 260h699l-94 -532h288q147 0 230.5 -94t83.5 -260q0 -240 -135.5 -412t-331.5 -172h-551l213 1210h-447zM584 252h200q135 0 201 75.5t66 207.5q0 152 -156 151h-233z" />
<glyph unicode="&#x42b;" horiz-adv-x="1488" d="M66 0l258 1470h251l-94 -532h289q147 0 230 -94t83 -260q0 -240 -135 -412t-332 -172h-550zM360 252h201q135 0 200.5 75.5t65.5 207.5q0 152 -155 151h-234zM1059 0l258 1470h252l-258 -1470h-252z" />
<glyph unicode="&#x42c;" horiz-adv-x="1073" d="M66 0l258 1470h251l-94 -532h289q147 0 230 -94t83 -260q0 -240 -135 -412t-332 -172h-550zM360 252h201q135 0 200.5 75.5t65.5 207.5q0 152 -155 151h-234z" />
<glyph unicode="&#x42d;" horiz-adv-x="1241" d="M119 504h252q6 -106 28 -162q55 -115 189 -115q127 0 224 108.5t146 305.5h-432l45 260h424v14q0 158 -61.5 243t-173.5 85q-129 0 -217 -98q-47 -63 -86 -156h-252q43 152 121 260q193 260 487 260q213 0 328.5 -143t115.5 -401q0 -279 -83.5 -505.5t-247.5 -362.5 t-381 -136q-246 0 -352 191q-72 125 -74 352z" />
<glyph unicode="&#x42e;" horiz-adv-x="1871" d="M55 0l258 1470h252l-98 -557h281q78 254 225 402q195 195 457 194q115 0 213 -52t157 -142q86 -129 86 -346q0 -244 -83 -466t-208 -347q-90 -92 -208.5 -143.5t-239.5 -51.5q-158 0 -272.5 84t-161.5 231q-31 98 -31 228q0 66 10 158h-268l-117 -662h-252zM940 561 q0 -162 65.5 -251t188.5 -89q180 0 307 207t127 479q0 150 -55 236q-66 106 -195 106q-123 0 -225 -98t-157.5 -256t-55.5 -334z" />
<glyph unicode="&#x42f;" horiz-adv-x="1167" d="M-29 0l510 532q-133 8 -207.5 103.5t-74.5 247.5q0 242 135 414.5t332 172.5h551l-259 -1470h-251l94 532l-506 -532h-324zM455 936q0 -152 155 -152h234l78 435h-201q-135 0 -200.5 -76t-65.5 -207z" />
<glyph unicode="&#x430;" d="M31 207q0 168 90 285.5t237 144.5l220 39q100 18 100 117q0 96 -127 96q-74 0 -115 -35t-65 -117h-226q47 162 113 242q115 139 342 139q152 0 235 -64.5t83 -183.5q0 -35 -7 -67l-102 -590q-10 -66 -10 -100q0 -51 32 -70l-8 -43h-254q-2 33 -2 59q0 31 4 70 q-84 -86 -154.5 -122t-156.5 -36q-109 0 -169 62.5t-60 173.5zM272 272q0 -45 25 -70.5t68 -25.5q86 0 158.5 63.5t86.5 151.5l25 139q-51 -37 -170 -59q-102 -23 -147.5 -69t-45.5 -130z" />
<glyph unicode="&#x431;" horiz-adv-x="1017" d="M61 389q0 76 15 154q16 98 26.5 150t33 151.5t49 164t64.5 141.5t90 130t116 88q84 45 161.5 65.5t146 25.5t89.5 11q39 10 61.5 26.5t35 39.5t30.5 53h213q-29 -68 -43 -96.5t-50 -77.5t-83 -84q-49 -37 -101.5 -55.5t-118 -29.5t-102.5 -21q-102 -33 -150 -60.5 t-77 -77.5q80 31 172 31q170 0 267.5 -113.5t97.5 -310.5q0 -295 -168 -509t-406 -214q-174 0 -271.5 112.5t-97.5 305.5zM305 424q0 -211 168 -211q127 0 206 133t79 316q0 215 -166 215q-127 0 -207 -136.5t-80 -316.5z" />
<glyph unicode="&#x432;" horiz-adv-x="993" d="M41 0l192 1090h437q156 0 241.5 -60.5t85.5 -171.5q0 -193 -190 -270q90 -39 123 -103q20 -41 20 -102q0 -170 -147 -285q-74 -57 -159 -77.5t-243 -20.5h-360zM309 217h172q102 0 160.5 42t58.5 118q0 90 -163 90h-185zM389 674h158q201 0 201 119q0 45 -40 62t-133 17 h-151z" />
<glyph unicode="&#x433;" horiz-adv-x="778" d="M41 0l192 1090h652l-41 -234h-418l-152 -856h-233z" />
<glyph unicode="&#x434;" horiz-adv-x="1304" d="M-117 -246l82 471h154q45 0 124 165t117 390l54 310h739l-152 -865h146l-82 -471h-213l43 246h-756l-43 -246h-213zM393 233h377l109 623h-273l-10 -63q-23 -123 -76 -280t-127 -280z" />
<glyph unicode="&#x435;" d="M57 367q0 258 107 460q150 291 432 291q164 0 251 -102.5t87 -296.5q0 -100 -19 -201l-8 -51h-612q-6 -45 -6 -80q0 -90 43 -138t121 -48q121 0 176 118h241q-45 -100 -87 -156.5t-105 -103.5q-119 -88 -268 -88q-172 0 -262.5 101.5t-90.5 294.5zM334 653h364l2 54 q0 82 -39.5 129t-107.5 47q-78 0 -131 -55.5t-88 -174.5z" />
<glyph unicode="&#x436;" horiz-adv-x="1474" d="M-37 0l526 578l-323 512h289l227 -381l68 381h233l-68 -381l363 381h289l-504 -512l321 -578h-282l-236 426l-75 -426h-236l78 426l-387 -426h-283z" />
<glyph unicode="&#x437;" horiz-adv-x="935" d="M51 348h242q-10 -82 28.5 -120t133.5 -38q82 0 130 39t48 111q0 115 -133 117l-94 2l32 188l76 2q100 2 142 48t42 102q0 43 -32.5 71.5t-92.5 28.5q-78 0 -118.5 -30.5t-67.5 -110.5h-231q33 113 70.5 174t101.5 106q115 80 282 80q227 0 291 -155q25 -59 25 -127 q0 -160 -97 -263l31 -67q18 -43 19 -90q0 -199 -134.5 -322t-334.5 -123q-186 0 -287 97q-51 47 -66.5 107t-5.5 173z" />
<glyph unicode="&#x438;" horiz-adv-x="1030" d="M47 0l193 1090h233l-125 -703l432 703h269l-193 -1090h-233l122 700l-430 -700h-268z" />
<glyph unicode="&#x439;" horiz-adv-x="1032" d="M47 0l193 1090h233l-125 -703l432 703h269l-193 -1090h-233l122 700l-430 -700h-268zM483 1479q0 33 2 57h111v-12q0 -70 35 -100.5t112 -30.5q82 0 125 30.5t74 112.5h109q-84 -299 -344 -299q-109 0 -166.5 62.5t-57.5 179.5z" />
<glyph unicode="&#x43a;" horiz-adv-x="935" d="M55 0l193 1090h233l-67 -381l362 381h289l-504 -512l322 -578h-283l-235 426l-76 -426h-234z" />
<glyph unicode="&#x43b;" horiz-adv-x="1015" d="M-121 0l41 236q45 0 122 159.5t116 384.5l53 310h739l-188 -1090h-234l150 856h-272l-13 -63q-18 -104 -57 -228.5t-101.5 -256.5t-157 -220t-198.5 -88z" />
<glyph unicode="&#x43c;" horiz-adv-x="1327" d="M47 0l193 1090h364l43 -811l334 811h365l-193 -1090h-233l120 686l-323 -686h-248l-76 641l-112 -641h-234z" />
<glyph unicode="&#x43d;" horiz-adv-x="1030" d="M47 0l193 1090h233l-70 -365h342l70 365h234l-193 -1090h-233l82 492h-343l-81 -492h-234z" />
<glyph unicode="&#x43e;" horiz-adv-x="1026" d="M76 389q0 309 165 519t406 210q172 0 271.5 -111.5t99.5 -306.5q0 -137 -45 -278t-117 -238q-162 -213 -410 -213q-172 0 -271 111.5t-99 306.5zM319 428q0 -215 170 -215q141 0 216 149q68 131 67 302q0 213 -170 213q-141 0 -213 -150q-70 -135 -70 -299z" />
<glyph unicode="&#x43f;" horiz-adv-x="1030" d="M47 0l193 1090h809l-193 -1090h-233l151 856h-342l-151 -856h-234z" />
<glyph unicode="&#x440;" horiz-adv-x="1026" d="M-31 -424l264 1514h226l-29 -164q74 106 141.5 149t159.5 43q135 0 213 -102.5t78 -282.5q0 -158 -48 -316.5t-128 -266.5q-135 -178 -320 -179q-90 0 -141 40t-82 134l-98 -569h-236zM350 414q0 -98 41 -152.5t117 -54.5q119 0 194 149q70 139 70 303q0 211 -154 211 q-129 0 -194 -139q-74 -151 -74 -317z" />
<glyph unicode="&#x441;" d="M72 348q0 158 48 317.5t126 262.5q143 190 366 190q152 0 242 -90t90 -240q0 -23 -4 -88h-238q-2 92 -29.5 134.5t-90.5 42.5q-119 0 -189 -138q-76 -141 -76 -352q0 -86 36 -133t100 -47q66 0 120 52t74 138h240q-63 -207 -187.5 -316.5t-296.5 -109.5 q-162 0 -246.5 97.5t-84.5 279.5z" />
<glyph unicode="&#x442;" horiz-adv-x="757" d="M106 885l37 205h721l-37 -205h-243l-156 -885h-233l155 885h-244z" />
<glyph unicode="&#x443;" d="M8 -434l41 229q29 -4 49 -4q74 0 110 32t68 132l-131 1135h263l51 -811l325 811h250l-495 -1072l-102 -211q-36 -72 -72.5 -130t-71.5 -77.5t-73 -28.5t-101 -9z" />
<glyph unicode="&#x444;" horiz-adv-x="1609" d="M74 369q0 291 143 520t350 229q193 0 224 -192l65 379h234l-66 -379q63 109 130 150.5t159 41.5q139 0 217 -104.5t78 -286.5q0 -289 -147.5 -522.5t-350.5 -233.5q-90 0 -142.5 40t-80.5 134l-101 -569h-233l100 569q-63 -94 -128.5 -134t-155.5 -40q-139 0 -217 108 t-78 290zM319 424q0 -102 39 -159.5t111 -57.5q121 0 196.5 139t75.5 320q0 203 -151 202q-115 0 -193 -135t-78 -309zM934 412q0 -205 158 -205q109 0 187.5 138t78.5 310q0 213 -154 213q-119 0 -194.5 -138t-75.5 -318z" />
<glyph unicode="&#x445;" d="M-37 0l402 555l-201 535h287l96 -318l203 318h276l-387 -535l207 -555h-291l-96 328l-211 -328h-285z" />
<glyph unicode="&#x446;" horiz-adv-x="1169" d="M47 0l191 1090h233l-149 -857h342l149 857h234l-152 -865h233l-81 -471h-213l43 246h-830z" />
<glyph unicode="&#x447;" horiz-adv-x="856" d="M37 582q0 29 6 59l80 449h233l-80 -443q-6 -18 -6 -37q0 -76 136 -75q53 0 96 30.5t61 81.5l80 443h234l-193 -1090h-233l65 381q-25 -25 -62.5 -35t-76.5 -10h-86q-88 0 -171 60.5t-83 185.5z" />
<glyph unicode="&#x448;" horiz-adv-x="1388" d="M47 0l193 1090h233l-151 -857h233l152 857h233l-152 -857h234l152 857h233l-193 -1090h-1167z" />
<glyph unicode="&#x449;" horiz-adv-x="1527" d="M47 0l191 1090h233l-149 -857h233l150 857h233l-150 -857h234l149 857h234l-152 -865h234l-82 -471h-213l43 246h-1188z" />
<glyph unicode="&#x44a;" horiz-adv-x="1122" d="M106 885l37 205h494l-74 -416h158q100 0 177 -21.5t118 -53.5t67.5 -74t33.5 -75.5t7 -66.5q0 -170 -147 -285q-74 -57 -159 -77.5t-243 -20.5h-360l156 885h-265zM483 217h172q102 0 160.5 42t58.5 118q0 90 -163 90h-185z" />
<glyph unicode="&#x44b;" horiz-adv-x="1406" d="M47 0l193 1090h229l-74 -416h158q59 0 109.5 -6t84 -15.5t63.5 -26t47 -28.5t32.5 -32.5t22 -30t14.5 -29t10 -21.5q20 -41 20 -102q0 -170 -147 -285q-74 -57 -159 -77.5t-242 -20.5h-361zM315 217h172q102 0 161 42t59 118q0 90 -164 90h-185zM999 0l193 1090h233 l-192 -1090h-234z" />
<glyph unicode="&#x44c;" horiz-adv-x="937" d="M47 0l193 1090h229l-74 -416h158q59 0 109.5 -6t84 -15.5t63.5 -26t47 -28.5t32.5 -32.5t22 -30t14.5 -29t10 -21.5q20 -41 20 -102q0 -170 -147 -285q-74 -57 -159 -77.5t-242 -20.5h-361zM315 217h172q102 0 161 42t59 118q0 90 -164 90h-185z" />
<glyph unicode="&#x44d;" horiz-adv-x="946" d="M76 397h237q-8 -86 28 -138t103 -52q152 0 220 246h-226l41 233h215q0 190 -145 191q-63 0 -106.5 -42t-77.5 -135h-238q41 145 100 226q66 92 164 142t209 50q164 0 252 -105.5t88 -298t-62.5 -360.5t-185.5 -275.5t-280 -107.5q-174 0 -260 109.5t-76 316.5z" />
<glyph unicode="&#x44e;" horiz-adv-x="1480" d="M47 0l193 1090h233l-72 -404h181q66 203 205 317.5t321 114.5q170 0 267.5 -113.5t97.5 -308.5q0 -295 -166 -510t-406 -215q-174 0 -271.5 112t-97.5 304q0 43 3 66h-175l-79 -453h-234zM774 424q0 -211 168 -211q127 0 207 134t80 317q0 213 -166 213 q-127 0 -208 -136.5t-81 -316.5z" />
<glyph unicode="&#x44f;" horiz-adv-x="997" d="M4 0l385 424q-74 10 -127 34.5t-75.5 51.5t-40 53.5t-19.5 40.5q-20 41 -21 103q0 170 148 284q74 57 159 78t242 21h361l-193 -1090h-229l74 416l-381 -416h-283zM356 713q0 -90 164 -90h185l43 249h-173q-102 0 -160.5 -41.5t-58.5 -117.5z" />
<glyph unicode="&#x450;" d="M57 367q0 258 107 460q150 291 432 291q164 0 251 -102.5t87 -296.5q0 -100 -19 -201l-8 -51h-612q-6 -45 -6 -80q0 -90 43 -138t121 -48q121 0 176 118h241q-45 -100 -87 -156.5t-105 -103.5q-119 -88 -268 -88q-172 0 -262.5 101.5t-90.5 294.5zM334 653h364l2 54 q0 82 -39.5 129t-107.5 47q-78 0 -131 -55.5t-88 -174.5zM479 1593h258l107 -299h-170z" />
<glyph unicode="&#x451;" d="M57 367q0 258 107 460q150 291 432 291q164 0 251 -102.5t87 -296.5q0 -100 -19 -201l-8 -51h-612q-6 -45 -6 -80q0 -90 43 -138t121 -48q121 0 176 118h241q-45 -100 -87 -156.5t-105 -103.5q-119 -88 -268 -88q-172 0 -262.5 101.5t-90.5 294.5zM334 653h364l2 54 q0 82 -39.5 129t-107.5 47q-78 0 -131 -55.5t-88 -174.5zM358 1257l41 236h211l-41 -236h-211zM686 1257l41 236h211l-41 -236h-211z" />
<glyph unicode="&#x452;" horiz-adv-x="1060" d="M133 0l182 1034h-182l37 205h174l45 231h236l-45 -231h290l-36 -205h-285l-51 -282q102 178 297 178q117 0 184.5 -73t67.5 -200q0 -27 -9 -92l-98 -569q-18 -109 -47 -161t-100.5 -81.5t-208.5 -29.5v149q100 0 123 123l79 477l11 92q0 57 -32 90t-91 33 q-86 0 -148.5 -67.5t-83.5 -184.5l-73 -436h-236z" />
<glyph unicode="&#x453;" horiz-adv-x="778" d="M41 0l192 1090h652l-41 -234h-418l-152 -856h-233zM299 1217l211 299h258l-299 -299h-170z" />
<glyph unicode="&#x454;" d="M88 530q49 276 188.5 432t337.5 156q111 0 192 -50t116 -142q31 -88 18 -226h-238q0 92 -27.5 134.5t-90.5 42.5q-147 0 -215 -191h215l-41 -233h-224q-23 -246 132 -246q68 0 121 52t75 138h238q-61 -207 -185.5 -316.5t-298.5 -109.5q-199 0 -279.5 145.5t-33.5 413.5z " />
<glyph unicode="&#x455;" d="M45 264q0 23 4 84h242q-2 -16 -2 -41q0 -119 164 -119q78 0 128 36t50 91q0 72 -176 107q-309 57 -310 264q0 102 54 209q115 223 389 223q332 0 332 -291q0 -41 -2 -69h-232v14v23q-6 106 -137 106q-72 0 -116 -32.5t-44 -86.5q0 -68 174 -104q315 -61 316 -268 q0 -82 -35 -167t-92 -145q-127 -127 -342 -127q-170 0 -267.5 78t-97.5 215z" />
<glyph unicode="&#x456;" horiz-adv-x="466" d="M55 0l191 1090h233l-188 -1090h-236zM268 1219l45 266h236l-47 -266h-234z" />
<glyph unicode="&#x457;" horiz-adv-x="466" d="M55 0l191 1090h233l-190 -1090h-234zM129 1294l41 236h211l-41 -236h-211zM457 1294l41 236h211l-41 -236h-211z" />
<glyph unicode="&#x458;" horiz-adv-x="466" d="M-133 -438l41 229h41q70 0 86 100l209 1199h235l-209 -1205q-33 -182 -107.5 -252.5t-236.5 -70.5h-59zM266 1219l47 266h236l-47 -266h-236z" />
<glyph unicode="&#x459;" horiz-adv-x="1495" d="M-121 0l41 236q45 0 122 159.5t116 384.5l53 310h741l-73 -416h157q59 0 109.5 -6t84.5 -15.5t63.5 -26t47 -28.5t33 -32.5t21.5 -30t14 -29t10 -21.5q20 -41 21 -102q0 -170 -148 -285q-74 -57 -158.5 -77.5t-242.5 -20.5h-361l148 856h-272l-13 -63 q-18 -104 -57 -228.5t-101.5 -256.5t-157 -220t-198.5 -88zM799 217h172q102 0 160.5 42t58.5 118q0 90 -164 90h-184z" />
<glyph unicode="&#x45a;" horiz-adv-x="1513" d="M47 0l193 1090h233l-72 -404h342l72 404h229l-73 -416h157q59 0 109.5 -6t84.5 -15.5t63.5 -26t47 -28.5t33 -32.5t21.5 -30t14 -29t10 -21.5q33 -68 17 -157q-23 -135 -144 -230q-74 -57 -158.5 -77.5t-242.5 -20.5h-360l79 453h-342l-79 -453h-234zM891 217h172 q98 0 151.5 31t65.5 104q12 61 -30 88t-132 27h-184z" />
<glyph unicode="&#x45b;" horiz-adv-x="1060" d="M133 0l182 1034h-182l37 205h174l45 231h236l-45 -231h290l-36 -205h-285l-51 -282q102 178 297 178q117 0 184.5 -73t67.5 -200q0 -49 -9 -92l-96 -565h-235l79 473q10 61 11 92q0 57 -32 90t-91 33q-86 0 -148.5 -67.5t-83.5 -184.5l-73 -436h-236z" />
<glyph unicode="&#x45c;" horiz-adv-x="935" d="M55 0l193 1090h233l-67 -381l362 381h289l-504 -512l322 -578h-283l-235 426l-76 -426h-234zM299 1217l211 299h258l-299 -299h-170z" />
<glyph unicode="&#x45d;" horiz-adv-x="1030" d="M47 0l193 1090h233l-125 -703l432 703h269l-193 -1090h-233l122 700l-430 -700h-268zM522 1593h258l107 -299h-170z" />
<glyph unicode="&#x45e;" d="M8 -434l41 229q29 -4 49 -4q74 0 110 32t68 132l-131 1135h263l51 -811l325 811h250l-495 -1072l-102 -211q-36 -72 -72.5 -130t-71.5 -77.5t-73 -28.5t-101 -9zM387 1479q0 33 2 57h111v-12q0 -70 34.5 -100.5t112.5 -30.5q82 0 125 30.5t74 112.5h108 q-84 -299 -344 -299q-109 0 -166 62.5t-57 179.5z" />
<glyph unicode="&#x45f;" horiz-adv-x="1030" d="M47 0l193 1090h233l-151 -857h342l151 857h234l-193 -1090h-283l-43 -246h-213l43 246h-313z" />
<glyph unicode="&#x48c;" horiz-adv-x="1073" d="M66 0l258 1470h251l-94 -532h289q147 0 230 -94t83 -260q0 -240 -135 -412t-332 -172h-550zM360 252h201q135 0 200.5 75.5t65.5 207.5q0 152 -155 151h-234z" />
<glyph unicode="&#x48d;" horiz-adv-x="937" d="M47 0l193 1090h229l-74 -416h158q59 0 109.5 -6t84 -15.5t63.5 -26t47 -28.5t32.5 -32.5t22 -30t14.5 -29t10 -21.5q20 -41 20 -102q0 -170 -147 -285q-74 -57 -159 -77.5t-242 -20.5h-361zM315 217h172q102 0 161 42t59 118q0 90 -164 90h-185z" />
<glyph unicode="&#x48e;" horiz-adv-x="1120" d="M66 0l256 1470h550q143 0 224.5 -90t81.5 -252q0 -236 -140 -421q-135 -176 -340 -177h-288l-93 -530h-251zM455 784h233q135 0 193 111q41 78 41 180q0 74 -46.5 108t-146.5 34h-199z" />
<glyph unicode="&#x48f;" horiz-adv-x="1026" d="M-31 -424l264 1514h226l-29 -164q74 106 141.5 149t159.5 43q135 0 213 -102.5t78 -282.5q0 -158 -48 -316.5t-128 -266.5q-135 -178 -320 -179q-90 0 -141 40t-82 134l-98 -569h-236zM350 414q0 -98 41 -152.5t117 -54.5q119 0 194 149q70 139 70 303q0 211 -154 211 q-129 0 -194 -139q-74 -151 -74 -317z" />
<glyph unicode="&#x490;" horiz-adv-x="1107" d="M66 0l258 1470h606l37 213h252l-82 -473h-607l-213 -1210h-251z" />
<glyph unicode="&#x491;" horiz-adv-x="868" d="M41 0l190 1090l433 2l36 219h222l-80 -455h-418l-150 -856h-233z" />
<glyph unicode="&#x492;" horiz-adv-x="1026" d="M66 0l129 737h-129l43 254h129l84 479h858l-45 -260h-607l-39 -219h277l-43 -254h-277l-129 -737h-251z" />
<glyph unicode="&#x493;" horiz-adv-x="778" d="M33 545l33 192h106l61 353h652l-41 -234h-418l-20 -119h184l-35 -192h-184l-97 -545h-233l98 545h-106z" />
<glyph unicode="&#x494;" horiz-adv-x="1026" d="M66 0l256 1470h858l-45 -260h-607l-211 -1210h-251z" />
<glyph unicode="&#x495;" horiz-adv-x="778" d="M41 0l192 1090h652l-41 -234h-418l-152 -856h-233z" />
<glyph unicode="&#x496;" horiz-adv-x="1843" d="M-39 0l733 766l-446 704h325l328 -528l92 528h250l-92 -528l512 528h326l-693 -704l314 -520h192l-86 -492h-219l43 246h-104l-349 582l-102 -582h-250l103 582l-553 -582h-324z" />
<glyph unicode="&#x497;" horiz-adv-x="1474" d="M-37 0l526 578l-323 512h289l227 -381l68 381h233l-68 -381l363 381h289l-504 -512l197 -353h163l-82 -471h-213l43 246h-69l-236 426l-75 -426h-236l78 426l-387 -426h-283z" />
<glyph unicode="&#x498;" horiz-adv-x="1099" d="M61 453h242q-27 -240 219 -240q117 0 189.5 49t89 139.5t-21.5 160t-156 69.5h-162l43 239h221q66 0 106.5 64.5t57.5 144.5q14 84 -35 131t-149 47q-113 0 -180.5 -53t-100.5 -170h-242q53 229 197.5 352t361.5 123q215 0 315.5 -122.5t61.5 -337.5q-35 -193 -153 -293 q123 -98 84 -318q-39 -221 -193 -349t-381 -128q-326 0 -403 240q-34 100 -11 252z" />
<glyph unicode="&#x499;" horiz-adv-x="935" d="M51 348h242q-10 -82 28.5 -120t133.5 -38q72 0 119 31t55 82q27 152 -129 154l-94 2l32 188l76 2q158 4 182 148q8 51 -22.5 76.5t-100.5 25.5q-78 0 -118.5 -30.5t-67.5 -110.5h-231q33 113 70.5 174t101.5 106q115 80 282 80q227 0 291 -155q39 -92 17 -207 q-18 -109 -89 -183l31 -67q29 -68 10 -166q-29 -172 -152.5 -270.5t-307.5 -98.5q-186 0 -287 97q-51 47 -66.5 107t-5.5 173z" />
<glyph unicode="&#x49a;" horiz-adv-x="1214" d="M84 0l258 1470h252l-92 -528l553 528h325l-733 -704l342 -520h205l-86 -492h-219l43 246h-105l-389 582l-102 -582h-252z" />
<glyph unicode="&#x49b;" horiz-adv-x="935" d="M55 0l193 1090h233l-67 -381l362 381h289l-504 -512l197 -353h164l-82 -471h-213l43 246h-70l-235 426l-76 -426h-234z" />
<glyph unicode="&#x49c;" horiz-adv-x="1214" d="M84 0l258 1470h252l-92 -528l553 528h325l-733 -704l504 -766h-324l-389 582l-102 -582h-252z" />
<glyph unicode="&#x49d;" horiz-adv-x="935" d="M55 0l193 1090h233l-67 -381l362 381h289l-504 -512l322 -578h-283l-235 426l-76 -426h-234z" />
<glyph unicode="&#x49e;" horiz-adv-x="1214" d="M84 0l258 1470h252l-92 -528l553 528h325l-733 -704l504 -766h-324l-389 582l-102 -582h-252z" />
<glyph unicode="&#x49f;" horiz-adv-x="935" d="M55 0l193 1090h233l-67 -381l362 381h289l-504 -512l322 -578h-283l-235 426l-76 -426h-234z" />
<glyph unicode="&#x4a0;" horiz-adv-x="1214" d="M84 0l258 1470h252l-92 -528l553 528h325l-733 -704l504 -766h-324l-389 582l-102 -582h-252z" />
<glyph unicode="&#x4a1;" horiz-adv-x="935" d="M55 0l193 1090h233l-67 -381l362 381h289l-504 -512l322 -578h-283l-235 426l-76 -426h-234z" />
<glyph unicode="&#x4a2;" horiz-adv-x="1212" d="M57 0l256 1470h252l-96 -557h471l96 557h252l-213 -1224h209l-86 -492h-219l43 246h-242l115 659h-471l-115 -659h-252z" />
<glyph unicode="&#x4a3;" horiz-adv-x="1030" d="M47 0l193 1090h233l-70 -365h342l70 365h234l-154 -865h192l-81 -471h-213l43 246h-213l82 492h-343l-81 -492h-234z" />
<glyph unicode="&#x4a4;" horiz-adv-x="1212" d="M57 0l256 1470h252l-96 -557h471l96 557h252l-256 -1470h-252l115 659h-471l-115 -659h-252z" />
<glyph unicode="&#x4a5;" horiz-adv-x="1030" d="M47 0l193 1090h233l-70 -365h342l70 365h234l-193 -1090h-233l82 492h-343l-81 -492h-234z" />
<glyph unicode="&#x4a6;" horiz-adv-x="1208" d="M55 0l258 1470h975l-258 -1470h-252l215 1219h-471l-215 -1219h-252z" />
<glyph unicode="&#x4a7;" horiz-adv-x="1030" d="M47 0l193 1090h809l-193 -1090h-233l151 856h-342l-151 -856h-234z" />
<glyph unicode="&#x4a8;" horiz-adv-x="1212" d="M119 494q0 207 62.5 412.5t164.5 340.5q201 262 490 262q193 0 310.5 -122.5t117.5 -323.5q0 -41 -2 -74h-254q-6 102 -33 156q-49 98 -180 98q-166 0 -277 -170q-59 -92 -98 -239.5t-39 -288.5q0 -152 59.5 -235t167.5 -83q137 0 230 115q45 55 86 162h252 q-47 -131 -89.5 -206t-107.5 -146q-174 -190 -420 -191q-195 0 -309 119q-59 63 -95 175t-36 239z" />
<glyph unicode="&#x4a9;" d="M72 348q0 158 48 317.5t126 262.5q143 190 366 190q152 0 242 -90t90 -240q0 -23 -4 -88h-238q-2 92 -29.5 134.5t-90.5 42.5q-119 0 -189 -138q-76 -141 -76 -352q0 -86 36 -133t100 -47q66 0 120 52t74 138h240q-63 -207 -187.5 -316.5t-296.5 -109.5 q-162 0 -246.5 97.5t-84.5 279.5z" />
<glyph unicode="&#x4aa;" horiz-adv-x="1212" d="M119 494q0 207 62.5 412.5t164.5 340.5q201 262 490 262q193 0 310.5 -122.5t117.5 -323.5q0 -41 -2 -74h-254q-6 102 -33 156q-49 98 -180 98q-166 0 -277 -170q-59 -92 -98 -239.5t-39 -288.5q0 -152 59.5 -235t167.5 -83q137 0 230 115q45 55 86 162h252 q-47 -131 -89.5 -206t-107.5 -146q-174 -190 -420 -191q-195 0 -309 119q-59 63 -95 175t-36 239z" />
<glyph unicode="&#x4ab;" d="M72 348q0 158 48 317.5t126 262.5q143 190 366 190q152 0 242 -90t90 -240q0 -23 -4 -88h-238q-2 92 -29.5 134.5t-90.5 42.5q-119 0 -189 -138q-76 -141 -76 -352q0 -86 36 -133t100 -47q66 0 120 52t74 138h240q-63 -207 -187.5 -316.5t-296.5 -109.5 q-162 0 -246.5 97.5t-84.5 279.5z" />
<glyph unicode="&#x4ac;" horiz-adv-x="1026" d="M172 1210l45 260h981l-45 -260h-365l-167 -964h208l-86 -492h-219l43 246h-241l211 1210h-365z" />
<glyph unicode="&#x4ad;" horiz-adv-x="757" d="M106 885l37 205h721l-37 -205h-243l-117 -660h192l-81 -471h-213l43 246h-213l155 885h-244z" />
<glyph unicode="&#x4ae;" horiz-adv-x="1120" d="M219 1470h297l139 -639l351 639h286l-565 -919l-94 -551h-254l98 555z" />
<glyph unicode="&#x4af;" horiz-adv-x="1120" d="M154 1090h297l139 -639l350 639h287l-565 -918l-95 -553h-254l99 553z" />
<glyph unicode="&#x4b0;" horiz-adv-x="1120" d="M111 332l32 184h328l6 39l-258 915h297l139 -639l351 639h286l-565 -919l-6 -35h328l-31 -184h-328l-57 -332h-254l59 332h-327z" />
<glyph unicode="&#x4b1;" horiz-adv-x="1120" d="M61 -8l33 180h318l-258 918h297l139 -639l350 639h287l-565 -918h317l-31 -180h-317l-64 -373h-254l66 373h-318z" />
<glyph unicode="&#x4b2;" horiz-adv-x="1120" d="M-39 0l520 752l-241 718h301l131 -475l303 475h291l-492 -706l176 -518h127l-86 -492h-219l43 246h-88l-141 502l-330 -502h-295z" />
<glyph unicode="&#x4b3;" d="M-37 0l402 555l-201 535h287l96 -318l203 318h276l-387 -535l123 -330h125l-82 -471h-213l43 246h-80l-96 328l-211 -328h-285z" />
<glyph unicode="&#x4b4;" horiz-adv-x="1337" d="M66 0l260 1470h252l-216 -1218h472l215 1218h251l-217 -1224h240l-86 -492h-219l43 246h-995z" />
<glyph unicode="&#x4b5;" horiz-adv-x="1169" d="M47 0l191 1090h233l-149 -857h342l149 857h234l-152 -865h233l-81 -471h-213l43 246h-830z" />
<glyph unicode="&#x4b6;" horiz-adv-x="1007" d="M47 791q0 43 10 104l101 575h252l-101 -567q-2 -8 -2 -22q0 -55 54.5 -88t148.5 -33q174 0 227 153l99 557h251l-258 -1470h-251l104 592q-31 -35 -69 -54.5t-73.5 -23.5t-75.5 -6t-77 0q-164 0 -252 72t-88 211z" />
<glyph unicode="&#x4b7;" horiz-adv-x="856" d="M37 582q0 29 6 59l80 449h233l-80 -443q-6 -18 -6 -37q0 -76 136 -75q53 0 96 30.5t61 81.5l80 443h234l-193 -1090h-233l65 381q-25 -25 -62.5 -35t-76.5 -10h-86q-88 0 -171 60.5t-83 185.5z" />
<glyph unicode="&#x4b8;" horiz-adv-x="1007" d="M47 791q0 43 10 104l101 575h252l-101 -567q-2 -8 -2 -22q0 -55 54.5 -88t148.5 -33q174 0 227 153l99 557h251l-258 -1470h-251l104 592q-31 -35 -69 -54.5t-73.5 -23.5t-75.5 -6t-77 0q-164 0 -252 72t-88 211z" />
<glyph unicode="&#x4b9;" horiz-adv-x="856" d="M37 582q0 29 6 59l80 449h233l-80 -443q-6 -18 -6 -37q0 -76 136 -75q53 0 96 30.5t61 81.5l80 443h234l-193 -1090h-233l65 381q-25 -25 -62.5 -35t-76.5 -10h-86q-88 0 -171 60.5t-83 185.5z" />
<glyph unicode="&#x4ba;" horiz-adv-x="1007" d="M-14 0l258 1470h252l-105 -591q31 35 69 54t73.5 23.5t75.5 6.5t77 0q164 0 252 -72t88 -211q0 -43 -10 -105l-101 -575h-251l100 567q2 8 2 23q0 55 -54.5 88t-148.5 33q-174 0 -227 -154l-98 -557h-252z" />
<glyph unicode="&#x4bb;" horiz-adv-x="856" d="M37 0l192 1090h234l-66 -381q25 25 63 35t77 10h86q88 0 171 -60.5t83 -185.5q0 -29 -7 -59l-79 -449h-234l80 442q6 18 6 37q0 76 -135 76q-51 0 -94 -30.5t-64 -82.5l-80 -442h-233z" />
<glyph unicode="&#x4bc;" horiz-adv-x="1212" d="M119 494q0 207 62.5 412.5t164.5 340.5q201 262 490 262q193 0 310.5 -122.5t117.5 -323.5q0 -41 -2 -74h-254q-6 102 -33 156q-49 98 -180 98q-166 0 -277 -170q-59 -92 -98 -239.5t-39 -288.5q0 -152 59.5 -235t167.5 -83q137 0 230 115q45 55 86 162h252 q-47 -131 -89.5 -206t-107.5 -146q-174 -190 -420 -191q-195 0 -309 119q-59 63 -95 175t-36 239z" />
<glyph unicode="&#x4bd;" d="M72 348q0 158 48 317.5t126 262.5q143 190 366 190q152 0 242 -90t90 -240q0 -23 -4 -88h-238q-2 92 -29.5 134.5t-90.5 42.5q-119 0 -189 -138q-76 -141 -76 -352q0 -86 36 -133t100 -47q66 0 120 52t74 138h240q-63 -207 -187.5 -316.5t-296.5 -109.5 q-162 0 -246.5 97.5t-84.5 279.5z" />
<glyph unicode="&#x4be;" horiz-adv-x="1212" d="M119 494q0 207 62.5 412.5t164.5 340.5q201 262 490 262q193 0 310.5 -122.5t117.5 -323.5q0 -41 -2 -74h-254q-6 102 -33 156q-49 98 -180 98q-166 0 -277 -170q-59 -92 -98 -239.5t-39 -288.5q0 -152 59.5 -235t167.5 -83q137 0 230 115q45 55 86 162h252 q-47 -131 -89.5 -206t-107.5 -146q-174 -190 -420 -191q-195 0 -309 119q-59 63 -95 175t-36 239z" />
<glyph unicode="&#x4bf;" d="M72 348q0 158 48 317.5t126 262.5q143 190 366 190q152 0 242 -90t90 -240q0 -23 -4 -88h-238q-2 92 -29.5 134.5t-90.5 42.5q-119 0 -189 -138q-76 -141 -76 -352q0 -86 36 -133t100 -47q66 0 120 52t74 138h240q-63 -207 -187.5 -316.5t-296.5 -109.5 q-162 0 -246.5 97.5t-84.5 279.5z" />
<glyph unicode="&#x4c0;" horiz-adv-x="466" d="M45 0l258 1470h252l-258 -1470h-252z" />
<glyph unicode="&#x4c1;" horiz-adv-x="1843" d="M-39 0l733 766l-446 704h325l328 -528l92 528h250l-92 -528l512 528h326l-693 -704l463 -766h-323l-349 582l-102 -582h-250l103 582l-553 -582h-324zM920 1917q0 33 2 57h110v-12q0 -70 35 -100.5t113 -30.5q82 0 125 30.5t73 112.5h109q-84 -299 -344 -299 q-109 0 -166 62.5t-57 179.5z" />
<glyph unicode="&#x4c2;" horiz-adv-x="1474" d="M-37 0l526 578l-323 512h289l227 -381l68 381h233l-68 -381l363 381h289l-504 -512l321 -578h-282l-236 426l-75 -426h-236l78 426l-387 -426h-283zM668 1536q0 33 2 57h110v-12q0 -70 35 -100.5t113 -30.5q82 0 125 30.5t73 112.5h109q-84 -299 -344 -299 q-109 0 -166 62.5t-57 179.5z" />
<glyph unicode="&#x4c3;" horiz-adv-x="1214" d="M84 0l258 1470h252l-92 -528l553 528h325l-733 -704l504 -766h-324l-389 582l-102 -582h-252z" />
<glyph unicode="&#x4c4;" horiz-adv-x="935" d="M55 0l193 1090h233l-67 -381l362 381h289l-504 -512l322 -578h-283l-235 426l-76 -426h-234z" />
<glyph unicode="&#x4c7;" horiz-adv-x="1212" d="M57 0l256 1470h252l-96 -557h471l96 557h252l-256 -1470h-252l115 659h-471l-115 -659h-252z" />
<glyph unicode="&#x4c8;" horiz-adv-x="1030" d="M47 0l193 1090h233l-70 -365h342l70 365h234l-193 -1090h-233l82 492h-343l-81 -492h-234z" />
<glyph unicode="&#x4cb;" horiz-adv-x="1007" d="M47 791q0 43 10 104l101 575h252l-101 -567q-2 -8 -2 -22q0 -55 54.5 -88t148.5 -33q174 0 227 153l99 557h251l-258 -1470h-251l104 592q-31 -35 -69 -54.5t-73.5 -23.5t-75.5 -6t-77 0q-164 0 -252 72t-88 211z" />
<glyph unicode="&#x4cc;" horiz-adv-x="856" d="M37 582q0 29 6 59l80 449h233l-80 -443q-6 -18 -6 -37q0 -76 136 -75q53 0 96 30.5t61 81.5l80 443h234l-193 -1090h-233l65 381q-25 -25 -62.5 -35t-76.5 -10h-86q-88 0 -171 60.5t-83 185.5z" />
<glyph unicode="&#x4d0;" horiz-adv-x="1212" d="M-29 0l688 1470h291l168 -1470h-274l-25 303h-444l-137 -303h-267zM485 557h308l-48 588zM604 1917q0 33 2 57h111v-12q0 -70 34.5 -100.5t112.5 -30.5q82 0 125 30.5t74 112.5h108q-84 -299 -344 -299q-109 0 -166 62.5t-57 179.5z" />
<glyph unicode="&#x4d1;" d="M31 207q0 168 90 285.5t237 144.5l220 39q100 18 100 117q0 96 -127 96q-74 0 -115 -35t-65 -117h-226q47 162 113 242q115 139 342 139q152 0 235 -64.5t83 -183.5q0 -35 -7 -67l-102 -590q-10 -66 -10 -100q0 -51 32 -70l-8 -43h-254q-2 33 -2 59q0 31 4 70 q-84 -86 -154.5 -122t-156.5 -36q-109 0 -169 62.5t-60 173.5zM272 272q0 -45 25 -70.5t68 -25.5q86 0 158.5 63.5t86.5 151.5l25 139q-51 -37 -170 -59q-102 -23 -147.5 -69t-45.5 -130zM403 1536q0 33 3 57h110v-12q0 -70 35 -100.5t113 -30.5q82 0 124.5 30.5t73.5 112.5 h109q-84 -299 -344 -299q-109 0 -166.5 62.5t-57.5 179.5z" />
<glyph unicode="&#x4d2;" horiz-adv-x="1212" d="M-29 0l688 1470h291l168 -1470h-274l-25 303h-444l-137 -303h-267zM485 557h308l-48 588zM567 1675l41 236h211l-41 -236h-211zM895 1675l41 236h211l-41 -236h-211z" />
<glyph unicode="&#x4d3;" d="M31 207q0 168 90 285.5t237 144.5l220 39q100 18 100 117q0 96 -127 96q-74 0 -115 -35t-65 -117h-226q47 162 113 242q115 139 342 139q152 0 235 -64.5t83 -183.5q0 -35 -7 -67l-102 -590q-10 -66 -10 -100q0 -51 32 -70l-8 -43h-254q-2 33 -2 59q0 31 4 70 q-84 -86 -154.5 -122t-156.5 -36q-109 0 -169 62.5t-60 173.5zM272 272q0 -45 25 -70.5t68 -25.5q86 0 158.5 63.5t86.5 151.5l25 139q-51 -37 -170 -59q-102 -23 -147.5 -69t-45.5 -130zM367 1294l41 236h210l-40 -236h-211zM694 1294l41 236h211l-41 -236h-211z" />
<glyph unicode="&#x4d4;" horiz-adv-x="1679" d="M-53 0l696 1470h1143l-45 -260h-625l-53 -309h561l-45 -260h-561l-66 -381h635l-45 -260h-883l56 313h-363l-141 -313h-264zM461 555h295l114 655h-108z" />
<glyph unicode="&#x4d5;" horiz-adv-x="1492" d="M33 215q0 156 78.5 265.5t210.5 135.5l229 46q94 18 115 45q27 31 26 98q0 84 -135 84q-150 0 -178 -154h-232q41 150 109 234q121 150 352 149q164 0 264 -121q84 68 148.5 94.5t142.5 26.5q156 0 241 -105.5t85 -293.5q0 -100 -19 -201l-8 -51h-614q-4 -61 -4 -82 q0 -88 43 -136t121 -48q123 0 176 118h241q-45 -100 -87 -156.5t-105 -103.5q-121 -88 -275 -88q-115 0 -179 39t-109 137q-133 -176 -371 -176q-266 0 -266 244zM274 272q0 -45 29 -70.5t76 -25.5q82 0 152.5 62.5t86.5 146.5l23 137q-37 -35 -184 -61q-100 -18 -138 -58 q-45 -51 -45 -131zM889 653h364l2 52q0 84 -38.5 131t-108.5 47q-151 -1 -219 -230z" />
<glyph unicode="&#x4d6;" horiz-adv-x="1120" d="M66 0l256 1470h886l-45 -260h-641l-53 -309h588l-45 -260h-588l-66 -381h668l-45 -260h-915zM584 1917q0 33 2 57h110v-12q0 -70 35 -100.5t113 -30.5q82 0 125 30.5t73 112.5h109q-84 -299 -344 -299q-109 0 -166 62.5t-57 179.5z" />
<glyph unicode="&#x4d7;" d="M57 367q0 258 107 460q150 291 432 291q164 0 251 -102.5t87 -296.5q0 -100 -19 -201l-8 -51h-612q-6 -45 -6 -80q0 -90 43 -138t121 -48q121 0 176 118h241q-45 -100 -87 -156.5t-105 -103.5q-119 -88 -268 -88q-172 0 -262.5 101.5t-90.5 294.5zM334 653h364l2 54 q0 82 -39.5 129t-107.5 47q-78 0 -131 -55.5t-88 -174.5zM403 1536q0 33 3 57h110v-12q0 -70 35 -100.5t113 -30.5q82 0 124.5 30.5t73.5 112.5h109q-84 -299 -344 -299q-109 0 -166.5 62.5t-57.5 179.5z" />
<glyph unicode="&#x4d8;" horiz-adv-x="1212" d="M119 408q0 41 2 73h254q6 -102 33 -155q49 -98 180 -99q166 0 276 170q59 92 98 239.5t39 289.5q0 152 -59 234.5t-168 82.5q-137 0 -229 -115q-45 -55 -86 -161h-252q47 131 89 205.5t107 146.5q174 190 420 190q195 0 310 -118q59 -63 95 -175t36 -239 q0 -207 -62.5 -413t-165.5 -341q-201 -262 -489 -262q-193 0 -310.5 123t-117.5 324z" />
<glyph unicode="&#x4d9;" d="M72 301q0 23 4 88h237q2 -92 30 -134t91 -42q119 0 189 137q76 141 75 352q0 86 -35.5 133.5t-99.5 47.5q-66 0 -120 -52.5t-74 -138.5h-240q63 207 187 316.5t296 109.5q162 0 247 -97t85 -280q0 -158 -48 -317.5t-126 -261.5q-143 -190 -367 -191q-152 0 -241.5 90 t-89.5 240z" />
<glyph unicode="&#x4da;" horiz-adv-x="1212" d="M119 408q0 41 2 73h254q6 -102 33 -155q49 -98 180 -99q166 0 276 170q59 92 98 239.5t39 289.5q0 152 -59 234.5t-168 82.5q-137 0 -229 -115q-45 -55 -86 -161h-252q47 131 89 205.5t107 146.5q174 190 420 190q195 0 310 -118q59 -63 95 -175t36 -239 q0 -207 -62.5 -413t-165.5 -341q-201 -262 -489 -262q-193 0 -310.5 123t-117.5 324zM588 1675l41 236h211l-41 -236h-211zM915 1675l41 236h211l-41 -236h-211z" />
<glyph unicode="&#x4db;" d="M72 301q0 23 4 88h237q2 -92 30 -134t91 -42q119 0 189 137q76 141 75 352q0 86 -35.5 133.5t-99.5 47.5q-66 0 -120 -52.5t-74 -138.5h-240q63 207 187 316.5t296 109.5q162 0 247 -97t85 -280q0 -158 -48 -317.5t-126 -261.5q-143 -190 -367 -191q-152 0 -241.5 90 t-89.5 240zM369 1294l41 236h211l-41 -236h-211zM696 1294l41 236h211l-41 -236h-211z" />
<glyph unicode="&#x4dc;" horiz-adv-x="1843" d="M-39 0l733 766l-446 704h325l328 -528l92 528h250l-92 -528l512 528h326l-693 -704l463 -766h-323l-349 582l-102 -582h-250l103 582l-553 -582h-324zM883 1675l41 236h211l-41 -236h-211zM1210 1675l41 236h211l-41 -236h-211z" />
<glyph unicode="&#x4dd;" horiz-adv-x="1474" d="M-37 0l526 578l-323 512h289l227 -381l68 381h233l-68 -381l363 381h289l-504 -512l321 -578h-282l-236 426l-75 -426h-236l78 426l-387 -426h-283zM631 1294l41 236h211l-41 -236h-211zM958 1294l41 236h211l-41 -236h-211z" />
<glyph unicode="&#x4de;" horiz-adv-x="1099" d="M61 453h242q-27 -240 219 -240q117 0 189.5 49t89 139.5t-21.5 160t-156 69.5h-162l43 239h221q66 0 106.5 64.5t57.5 144.5q14 84 -35 131t-149 47q-113 0 -180.5 -53t-100.5 -170h-242q53 229 197.5 352t361.5 123q215 0 315.5 -122.5t61.5 -337.5q-35 -193 -153 -293 q123 -98 84 -318q-39 -221 -193 -349t-381 -128q-326 0 -403 240q-34 100 -11 252zM502 1675l41 236h211l-41 -236h-211zM829 1675l41 236h211l-41 -236h-211z" />
<glyph unicode="&#x4df;" horiz-adv-x="935" d="M51 348h242q-10 -82 28.5 -120t133.5 -38q72 0 119 31t55 82q27 152 -129 154l-94 2l32 188l76 2q158 4 182 148q8 51 -22.5 76.5t-100.5 25.5q-78 0 -118.5 -30.5t-67.5 -110.5h-231q33 113 70.5 174t101.5 106q115 80 282 80q227 0 291 -155q39 -92 17 -207 q-18 -109 -89 -183l31 -67q29 -68 10 -166q-29 -172 -152.5 -270.5t-307.5 -98.5q-186 0 -287 97q-51 47 -66.5 107t-5.5 173zM358 1294l41 236h211l-41 -236h-211zM686 1294l41 236h211l-41 -236h-211z" />
<glyph unicode="&#x4e0;" horiz-adv-x="1099" d="M61 453h242q-27 -240 219 -240q117 0 189.5 49t89 139.5t-21.5 160t-156 69.5h-162l43 239h221q66 0 106.5 64.5t57.5 144.5q14 84 -35 131t-149 47q-113 0 -180.5 -53t-100.5 -170h-242q53 229 197.5 352t361.5 123q215 0 315.5 -122.5t61.5 -337.5q-35 -193 -153 -293 q123 -98 84 -318q-39 -221 -193 -349t-381 -128q-326 0 -403 240q-34 100 -11 252z" />
<glyph unicode="&#x4e1;" horiz-adv-x="935" d="M51 348h242q-10 -82 28.5 -120t133.5 -38q72 0 119 31t55 82q27 152 -129 154l-94 2l32 188l76 2q158 4 182 148q8 51 -22.5 76.5t-100.5 25.5q-78 0 -118.5 -30.5t-67.5 -110.5h-231q33 113 70.5 174t101.5 106q115 80 282 80q227 0 291 -155q39 -92 17 -207 q-18 -109 -89 -183l31 -67q29 -68 10 -166q-29 -172 -152.5 -270.5t-307.5 -98.5q-186 0 -287 97q-51 47 -66.5 107t-5.5 173z" />
<glyph unicode="&#x4e2;" horiz-adv-x="1220" d="M57 0l258 1470h234l-187 -1054l685 1054h249l-258 -1470h-233l182 1032l-665 -1032h-265zM551 1675l27 152h579l-27 -152h-579z" />
<glyph unicode="&#x4e3;" horiz-adv-x="1030" d="M47 0l193 1090h233l-125 -703l432 703h269l-193 -1090h-233l122 700l-430 -700h-268zM389 1294l27 152h579l-26 -152h-580z" />
<glyph unicode="&#x4e4;" horiz-adv-x="1220" d="M57 0l258 1470h234l-187 -1054l685 1054h249l-258 -1470h-233l182 1032l-665 -1032h-265zM571 1675l41 236h211l-41 -236h-211zM899 1675l41 236h211l-41 -236h-211z" />
<glyph unicode="&#x4e5;" horiz-adv-x="1030" d="M47 0l193 1090h233l-125 -703l432 703h269l-193 -1090h-233l122 700l-430 -700h-268zM410 1294l41 236h211l-41 -236h-211zM737 1294l41 236h211l-41 -236h-211z" />
<glyph unicode="&#x4e6;" horiz-adv-x="1306" d="M119 502q0 195 62.5 402.5t158.5 332.5q98 129 234.5 200.5t283.5 71.5q197 0 330 -133t133 -405q0 -203 -60.5 -406t-158.5 -332t-234.5 -200.5t-283.5 -71.5q-215 0 -340 145.5t-125 395.5zM377 555q0 -156 67.5 -245t188.5 -89q182 0 307 202t125 492q0 156 -67.5 245 t-186.5 89q-98 0 -186 -63.5t-146 -175.5q-102 -201 -102 -455zM614 1675l41 236h211l-41 -236h-211zM942 1675l41 236h211l-41 -236h-211z" />
<glyph unicode="&#x4e7;" horiz-adv-x="1026" d="M76 389q0 309 165 519t406 210q172 0 271.5 -111.5t99.5 -306.5q0 -137 -45 -278t-117 -238q-162 -213 -410 -213q-172 0 -271 111.5t-99 306.5zM319 428q0 -215 170 -215q141 0 216 149q68 131 67 302q0 213 -170 213q-141 0 -213 -150q-70 -135 -70 -299zM410 1294 l41 236h211l-41 -236h-211zM737 1294l41 236h211l-41 -236h-211z" />
<glyph unicode="&#x4e8;" horiz-adv-x="1306" d="M119 502q0 195 62.5 402.5t158.5 332.5q98 129 234.5 200.5t283.5 71.5q197 0 330 -133t133 -405q0 -203 -60.5 -406t-158.5 -332t-234.5 -200.5t-283.5 -71.5q-215 0 -340 145.5t-125 395.5zM377 555q0 -156 67.5 -245t188.5 -89q182 0 307 202t125 492q0 156 -67.5 245 t-186.5 89q-98 0 -186 -63.5t-146 -175.5q-102 -201 -102 -455z" />
<glyph unicode="&#x4e9;" horiz-adv-x="1026" d="M76 389q0 309 165 519t406 210q172 0 271.5 -111.5t99.5 -306.5q0 -137 -45 -278t-117 -238q-162 -213 -410 -213q-172 0 -271 111.5t-99 306.5zM319 428q0 -215 170 -215q141 0 216 149q68 131 67 302q0 213 -170 213q-141 0 -213 -150q-70 -135 -70 -299z" />
<glyph unicode="&#x4ea;" horiz-adv-x="1306" d="M119 502q0 195 62.5 402.5t158.5 332.5q98 129 234.5 200.5t283.5 71.5q197 0 330 -133t133 -405q0 -203 -60.5 -406t-158.5 -332t-234.5 -200.5t-283.5 -71.5q-215 0 -340 145.5t-125 395.5zM377 555q0 -156 67.5 -245t188.5 -89q182 0 307 202t125 492q0 156 -67.5 245 t-186.5 89q-98 0 -186 -63.5t-146 -175.5q-102 -201 -102 -455zM614 1675l41 236h211l-41 -236h-211zM942 1675l41 236h211l-41 -236h-211z" />
<glyph unicode="&#x4eb;" horiz-adv-x="1026" d="M76 389q0 309 165 519t406 210q172 0 271.5 -111.5t99.5 -306.5q0 -137 -45 -278t-117 -238q-162 -213 -410 -213q-172 0 -271 111.5t-99 306.5zM319 428q0 -215 170 -215q141 0 216 149q68 131 67 302q0 213 -170 213q-141 0 -213 -150q-70 -135 -70 -299zM410 1294 l41 236h211l-41 -236h-211zM737 1294l41 236h211l-41 -236h-211z" />
<glyph unicode="&#x4ec;" horiz-adv-x="1241" d="M119 504h252q6 -106 28 -162q55 -115 189 -115q127 0 224 108.5t146 305.5h-432l45 260h424q4 164 -57 253t-178 89q-129 0 -217 -98q-47 -63 -86 -156h-252q43 152 121 260q193 260 487 260q258 0 371.5 -208.5t50.5 -569.5q-63 -358 -248.5 -564t-441.5 -206 q-246 0 -352 191q-72 125 -74 352zM592 1675l41 236h211l-41 -236h-211zM920 1675l41 236h210l-41 -236h-210z" />
<glyph unicode="&#x4ed;" horiz-adv-x="946" d="M76 397h237q-8 -86 28 -138t103 -52q152 0 220 246h-226l41 233h215q0 190 -145 191q-63 0 -106.5 -42t-77.5 -135h-238q41 145 100 226q66 92 164 142t209 50q201 0 286 -155.5t36 -432.5q-47 -268 -179.5 -413.5t-330.5 -145.5q-174 0 -260 109.5t-76 316.5zM375 1294 l41 236h211l-41 -236h-211zM702 1294l41 236h211l-41 -236h-211z" />
<glyph unicode="&#x4ee;" horiz-adv-x="1120" d="M115 0l362 578l-256 892h297l156 -593l334 593h284l-893 -1470h-284zM504 1675l26 152h580l-27 -152h-579z" />
<glyph unicode="&#x4ef;" d="M8 -434l41 229q29 -4 49 -4q74 0 110 32t68 132l-131 1135h263l51 -811l325 811h250l-495 -1072l-102 -211q-36 -72 -72.5 -130t-71.5 -77.5t-73 -28.5t-101 -9zM336 1294l26 152h580l-27 -152h-579z" />
<glyph unicode="&#x4f0;" horiz-adv-x="1120" d="M115 0l362 578l-256 892h297l156 -593l334 593h284l-893 -1470h-284zM524 1675l41 236h211l-41 -236h-211zM852 1675l41 236h211l-41 -236h-211z" />
<glyph unicode="&#x4f1;" d="M8 -434l41 229q29 -4 49 -4q74 0 110 32t68 132l-131 1135h263l51 -811l325 811h250l-495 -1072l-102 -211q-36 -72 -72.5 -130t-71.5 -77.5t-73 -28.5t-101 -9zM356 1294l41 236h211l-41 -236h-211zM684 1294l41 236h211l-41 -236h-211z" />
<glyph unicode="&#x4f2;" horiz-adv-x="1120" d="M115 0l362 578l-256 892h297l156 -593l334 593h284l-893 -1470h-284zM393 1675l209 299h258l-297 -299h-170zM778 1675l209 299h258l-299 -299h-168z" />
<glyph unicode="&#x4f3;" d="M8 -434l41 229q29 -4 49 -4q74 0 110 32t68 132l-131 1135h263l51 -811l325 811h250l-495 -1072l-102 -211q-36 -72 -72.5 -130t-71.5 -77.5t-73 -28.5t-101 -9zM225 1294l209 299h258l-297 -299h-170zM610 1294l209 299h258l-299 -299h-168z" />
<glyph unicode="&#x4f4;" horiz-adv-x="1007" d="M47 791q0 43 10 104l101 575h252l-101 -567q-2 -8 -2 -22q0 -55 54.5 -88t148.5 -33q174 0 227 153l99 557h251l-258 -1470h-251l104 592q-31 -35 -69 -54.5t-73.5 -23.5t-75.5 -6t-77 0q-164 0 -252 72t-88 211zM381 1632l41 236h211l-41 -236h-211zM709 1632l41 236 h211l-41 -236h-211z" />
<glyph unicode="&#x4f5;" horiz-adv-x="856" d="M37 582q0 29 6 59l80 449h233l-80 -443q-6 -18 -6 -37q0 -76 136 -75q53 0 96 30.5t61 81.5l80 443h234l-193 -1090h-233l65 381q-25 -25 -62.5 -35t-76.5 -10h-86q-88 0 -171 60.5t-83 185.5zM258 1241l41 236h211l-41 -236h-211zM586 1241l41 236h211l-41 -236h-211z " />
<glyph unicode="&#x4f8;" horiz-adv-x="1488" d="M66 0l258 1470h251l-94 -532h289q174 0 257 -131t44 -350q-37 -207 -161 -332t-294 -125h-550zM360 252h201q119 0 179.5 49t80.5 162q39 223 -149 223h-234zM713 1675l41 236h211l-41 -236h-211zM1040 1675l41 236h211l-41 -236h-211zM1059 0l258 1470h252l-258 -1470 h-252z" />
<glyph unicode="&#x4f9;" horiz-adv-x="1406" d="M47 0l193 1090h229l-74 -416h158q59 0 109.5 -6t84 -15.5t63.5 -26t47 -28.5t32.5 -32.5t22 -30t14.5 -29t10 -21.5q33 -68 16 -157q-23 -135 -143 -230q-74 -57 -159 -77.5t-242 -20.5h-361zM315 217h172q98 0 151.5 31t66.5 104q12 61 -30 88t-132 27h-185zM598 1294 l41 236h211l-41 -236h-211zM926 1294l41 236h211l-41 -236h-211zM999 0l193 1090h233l-192 -1090h-234z" />
<glyph unicode="&#xe3f;" horiz-adv-x="1212" d="M66 0l256 1470h354l29 170h169l-30 -170h65q150 0 231 -76.5t81 -217.5q0 -266 -207 -383q74 -43 104.5 -99.5t30.5 -148.5q0 -225 -145 -387q-80 -90 -168 -123t-248 -35l-29 -170h-170l31 170h-354zM352 254h111l69 393h-112zM463 895h112l56 322h-111zM633 254h29 q106 0 169.5 73.5t63.5 182.5q0 63 -41 100t-113 37h-41zM743 895h17q96 0 153.5 56.5t57.5 150.5q0 115 -162 115h-8z" />
<glyph unicode="&#x1e0c;" horiz-adv-x="1212" d="M66 0l256 1470h534q188 0 287.5 -121.5t99.5 -353.5q0 -254 -82 -481t-234.5 -370.5t-338.5 -143.5h-522zM356 254h246q109 0 198 102.5t135 260t46 329.5q0 270 -213 271h-244zM367 -410l41 236h233l-41 -236h-233z" />
<glyph unicode="&#x1e0d;" horiz-adv-x="1026" d="M76 369q0 311 142 530t345 219q86 0 139.5 -41t90.5 -135l92 528h235l-256 -1470h-231l26 143q-119 -172 -294 -172q-137 0 -213 105t-76 293zM264 -410l41 236h234l-41 -236h-234zM322 428q0 -221 147 -221q117 0 195.5 129t78.5 321q0 213 -153 213q-117 0 -192.5 -135 t-75.5 -307z" />
<glyph unicode="&#x1e0e;" horiz-adv-x="1212" d="M66 0l256 1470h534q188 0 287.5 -121.5t99.5 -353.5q0 -254 -82 -481t-234.5 -370.5t-338.5 -143.5h-522zM201 -369l26 152h580l-27 -152h-579zM356 254h246q109 0 198 102.5t135 260t46 329.5q0 270 -213 271h-244z" />
<glyph unicode="&#x1e0f;" horiz-adv-x="1026" d="M76 369q0 311 142 530t345 219q86 0 139.5 -41t90.5 -135l92 528h235l-256 -1470h-231l26 143q-119 -172 -294 -172q-137 0 -213 105t-76 293zM96 -369l27 152h579l-26 -152h-580zM322 428q0 -221 147 -221q117 0 195.5 129t78.5 321q0 213 -153 213q-117 0 -192.5 -135 t-75.5 -307z" />
<glyph unicode="&#x1e24;" horiz-adv-x="1212" d="M57 0l256 1470h252l-96 -557h471l96 557h252l-256 -1470h-252l115 659h-471l-115 -659h-252zM356 -410l41 236h234l-41 -236h-234z" />
<glyph unicode="&#x1e25;" horiz-adv-x="1026" d="M47 0l256 1470h236l-93 -530q102 178 297 178q117 0 184.5 -72.5t67.5 -199.5q0 -49 -8 -92l-131 -754h-235l114 662q10 61 10 92q0 57 -32.5 90t-89.5 33q-86 0 -148.5 -68t-83.5 -184l-108 -625h-236zM262 -410l41 236h234l-41 -236h-234z" />
<glyph unicode="&#x1e26;" horiz-adv-x="1212" d="M57 0l256 1470h252l-96 -557h471l96 557h252l-256 -1470h-252l115 659h-471l-115 -659h-252zM561 1626l41 236h197l-41 -236h-197zM899 1626l41 236h197l-41 -236h-197z" />
<glyph unicode="&#x1e27;" horiz-adv-x="1026" d="M47 0l256 1470h236l-93 -530q102 178 297 178q117 0 184.5 -72.5t67.5 -199.5q0 -49 -8 -92l-131 -754h-235l114 662q10 61 10 92q0 57 -32.5 90t-89.5 33q-86 0 -148.5 -68t-83.5 -184l-108 -625h-236zM467 1626l41 236h197l-41 -236h-197zM805 1626l41 236h196 l-41 -236h-196z" />
<glyph unicode="&#x1e2a;" horiz-adv-x="1212" d="M57 0l256 1470h252l-96 -557h471l96 557h252l-256 -1470h-252l115 659h-471l-115 -659h-252zM211 -164h111q25 -53 61.5 -76.5t114.5 -23.5q139 0 192 100h129q-111 -258 -358 -258q-234 0 -250 258z" />
<glyph unicode="&#x1e2b;" horiz-adv-x="1026" d="M47 0l256 1470h236l-93 -530q102 178 297 178q117 0 184.5 -72.5t67.5 -199.5q0 -49 -8 -92l-131 -754h-235l114 662q10 61 10 92q0 57 -32.5 90t-89.5 33q-86 0 -148.5 -68t-83.5 -184l-108 -625h-236zM117 -164h110q25 -53 62 -76.5t114 -23.5q139 0 193 100h129 q-111 -258 -358 -258q-234 0 -250 258z" />
<glyph unicode="&#x1e36;" horiz-adv-x="1026" d="M66 0l256 1470h251l-208 -1204h600l-47 -266h-852zM303 -410l41 236h234l-41 -236h-234z" />
<glyph unicode="&#x1e37;" horiz-adv-x="466" d="M-16 -410l41 236h233l-41 -236h-233zM55 0l256 1470h236l-256 -1470h-236z" />
<glyph unicode="&#x1e38;" horiz-adv-x="1026" d="M66 0l256 1470h251l-208 -1204h600l-47 -266h-852zM190 1667l27 152h580l-27 -152h-580zM303 -410l41 236h234l-41 -236h-234z" />
<glyph unicode="&#x1e39;" horiz-adv-x="466" d="M-16 -410l41 236h233l-41 -236h-233zM55 0l256 1470h236l-256 -1470h-236zM172 1667l27 152h579l-26 -152h-580z" />
<glyph unicode="&#x1e42;" horiz-adv-x="1398" d="M55 0l256 1470h383v-1167l420 1167h365l-256 -1470h-236l217 1247l-444 -1247h-252v1247l-217 -1247h-236zM451 -410l41 236h233l-41 -236h-233z" />
<glyph unicode="&#x1e43;" horiz-adv-x="1492" d="M45 0l191 1090h225l-29 -166q66 104 133.5 149t161.5 45q86 0 131 -37t84 -137q72 96 133.5 135t143.5 39q113 0 180 -73.5t67 -198.5q0 -49 -8 -92l-131 -754h-235l114 662q8 57 8 83q0 131 -102 132q-76 0 -126 -58.5t-68 -165.5l-115 -653h-236l115 655q12 66 12 109 q0 113 -114 113q-147 0 -185 -213l-114 -664h-236zM498 -410l41 236h233l-41 -236h-233z" />
<glyph unicode="&#x1e44;" horiz-adv-x="1212" d="M55 0l256 1470h264l304 -1032l178 1032h235l-256 -1470h-252l-311 1055l-182 -1055h-236zM713 1626l41 236h233l-41 -236h-233z" />
<glyph unicode="&#x1e45;" horiz-adv-x="1026" d="M47 0l191 1090h225l-29 -166q72 104 141.5 149t163.5 45q121 0 188.5 -72.5t67.5 -199.5q0 -49 -8 -92l-131 -754h-235l114 662q10 61 10 92q0 57 -32.5 90t-89.5 33q-86 0 -148.5 -68t-83.5 -184l-108 -625h-236zM557 1266l41 235h233l-40 -235h-234z" />
<glyph unicode="&#x1e46;" horiz-adv-x="1212" d="M55 0l256 1470h264l304 -1032l178 1032h235l-256 -1470h-252l-311 1055l-182 -1055h-236zM356 -410l41 236h234l-41 -236h-234z" />
<glyph unicode="&#x1e47;" horiz-adv-x="1026" d="M47 0l191 1090h225l-29 -166q72 104 141.5 149t163.5 45q121 0 188.5 -72.5t67.5 -199.5q0 -49 -8 -92l-131 -754h-235l114 662q10 61 10 92q0 57 -32.5 90t-89.5 33q-86 0 -148.5 -68t-83.5 -184l-108 -625h-236zM264 -410l41 236h234l-41 -236h-234z" />
<glyph unicode="&#x1e58;" horiz-adv-x="1212" d="M66 0l256 1470h610q150 0 231.5 -85t81.5 -240q0 -143 -67.5 -265t-186.5 -175q59 -37 83 -77t24 -108q0 -80 -39 -299q-12 -70 -12 -117q0 -45 34 -65l-6 -39h-280l-2 55q-2 37 22.5 205t24.5 191q0 70 -38 97t-130 27h-260l-101 -575h-245zM457 823h295q119 0 176 69 t57 183q0 141 -147 142h-314zM674 1626l41 236h233l-41 -236h-233z" />
<glyph unicode="&#x1e59;" horiz-adv-x="653" d="M45 0l191 1090h225l-35 -195q82 129 142.5 176t146.5 47q4 0 19.5 -2t25.5 -2l-51 -291q-23 4 -60 4q-225 0 -270 -260l-98 -567h-236zM385 1266l41 235h233l-41 -235h-233z" />
<glyph unicode="&#x1e5a;" horiz-adv-x="1212" d="M66 0l256 1470h610q150 0 231.5 -85t81.5 -240q0 -143 -67.5 -265t-186.5 -175q59 -37 83 -77t24 -108q0 -80 -39 -299q-12 -70 -12 -117q0 -45 34 -65l-6 -39h-280l-2 55q-2 37 22.5 205t24.5 191q0 70 -38 97t-130 27h-260l-101 -575h-245zM317 -410l41 236h234 l-41 -236h-234zM457 823h295q119 0 176 69t57 183q0 141 -147 142h-314z" />
<glyph unicode="&#x1e5b;" horiz-adv-x="653" d="M-25 -410l41 236h234l-41 -236h-234zM45 0l191 1090h225l-35 -195q82 129 142.5 176t146.5 47q4 0 19.5 -2t25.5 -2l-51 -291q-23 4 -60 4q-225 0 -270 -260l-98 -567h-236z" />
<glyph unicode="&#x1e5c;" horiz-adv-x="1212" d="M66 0l256 1470h610q150 0 231.5 -85t81.5 -240q0 -143 -67.5 -265t-186.5 -175q59 -37 83 -77t24 -108q0 -80 -39 -299q-12 -70 -12 -117q0 -45 34 -65l-6 -39h-280l-2 55q-2 37 22.5 205t24.5 191q0 70 -38 97t-130 27h-260l-101 -575h-245zM317 -410l41 236h234 l-41 -236h-234zM457 823h295q119 0 176 69t57 183q0 141 -147 142h-314zM506 1667l26 152h580l-27 -152h-579z" />
<glyph unicode="&#x1e5d;" horiz-adv-x="653" d="M-25 -410l41 236h234l-41 -236h-234zM45 0l191 1090h225l-35 -195q82 129 142.5 176t146.5 47q4 0 19.5 -2t25.5 -2l-51 -291q-23 4 -60 4q-225 0 -270 -260l-98 -567h-236zM221 1335l27 152h579l-26 -152h-580z" />
<glyph unicode="&#x1e62;" horiz-adv-x="1120" d="M74 332q0 39 10 121h242q-4 -45 -4 -56q0 -88 58 -135t165 -47q127 0 203.5 60.5t76.5 160.5q0 53 -41 86t-147 66l-123 37q-195 57 -256 124.5t-61 198.5q0 240 152.5 400.5t391.5 160.5q193 0 297.5 -102t104.5 -268q0 -47 -8 -105h-240v43q0 86 -53.5 132t-151.5 46 q-111 0 -179.5 -59t-68.5 -154q0 -47 23.5 -72.5t81.5 -43.5l278 -88q135 -43 194.5 -114t59.5 -187q0 -248 -162.5 -412t-418.5 -164q-199 0 -311.5 100.5t-112.5 270.5zM303 -410l41 236h234l-41 -236h-234z" />
<glyph unicode="&#x1e63;" d="M45 264q0 23 4 84h242q-2 -16 -2 -41q0 -119 164 -119q78 0 128 36t50 91q0 72 -176 107q-309 57 -310 264q0 193 127 312.5t316 119.5q332 0 332 -291q0 -41 -2 -69h-232v37q0 106 -137 106q-72 0 -116 -32.5t-44 -86.5q0 -70 174 -104q315 -63 316 -268 q0 -186 -131.5 -312.5t-337.5 -126.5q-170 0 -267.5 78t-97.5 215zM217 -410l41 236h234l-41 -236h-234z" />
<glyph unicode="&#x1e6c;" horiz-adv-x="1026" d="M172 1210l45 260h981l-45 -260h-365l-210 -1210h-252l211 1210h-365zM264 -410l41 236h234l-41 -236h-234z" />
<glyph unicode="&#x1e6d;" horiz-adv-x="559" d="M106 139q0 45 9 84l114 662h-120l34 205h123l51 294h236l-51 -294h145l-35 -205h-147l-103 -592q-6 -29 -6 -47q0 -41 86 -41q2 0 52 4l-39 -217l-142 -4q-106 0 -156.5 36.5t-50.5 114.5zM127 -410l41 236h233l-41 -236h-233z" />
<glyph unicode="&#x1e6e;" horiz-adv-x="1026" d="M98 -369l27 152h580l-27 -152h-580zM172 1210l45 260h981l-45 -260h-365l-210 -1210h-252l211 1210h-365z" />
<glyph unicode="&#x1e6f;" horiz-adv-x="559" d="M-39 -369l27 152h579l-26 -152h-580zM106 139q0 45 9 84l114 662h-120l34 205h123l51 294h236l-51 -294h145l-35 -205h-147l-103 -592q-6 -29 -6 -47q0 -41 86 -41q2 0 52 4l-39 -217l-142 -4q-106 0 -156.5 36.5t-50.5 114.5z" />
<glyph unicode="&#x1e80;" horiz-adv-x="1585" d="M221 0v1470h273v-800v-287l358 1087h260v-1087l387 1087h256l-596 -1470h-227v1157l-391 -1157h-320zM721 1872h258l113 -258h-170z" />
<glyph unicode="&#x1e81;" horiz-adv-x="1306" d="M145 0v1090h254v-793l265 793h237v-793l277 793h241l-446 -1090h-242v805l-282 -805h-304zM528 1532h258l107 -299h-170z" />
<glyph unicode="&#x1e82;" horiz-adv-x="1585" d="M221 0v1470h273v-800v-287l358 1087h260v-1087l387 1087h256l-596 -1470h-227v1157l-391 -1157h-320zM920 1614l204 258h258l-292 -258h-170z" />
<glyph unicode="&#x1e83;" horiz-adv-x="1306" d="M145 0v1090h254v-793l265 793h237v-793l277 793h241l-446 -1090h-242v805l-282 -805h-304zM721 1233l211 299h258l-299 -299h-170z" />
<glyph unicode="&#x1e84;" horiz-adv-x="1585" d="M221 0v1470h273v-800v-287l358 1087h260v-1087l387 1087h256l-596 -1470h-227v1157l-391 -1157h-320zM741 1626l41 236h197l-41 -236h-197zM1079 1626l41 236h197l-41 -236h-197z" />
<glyph unicode="&#x1e85;" horiz-adv-x="1306" d="M145 0v1090h254v-793l265 793h237v-793l277 793h241l-446 -1090h-242v805l-282 -805h-304zM545 1266l41 235h196l-41 -235h-196zM883 1266l41 235h196l-41 -235h-196z" />
<glyph unicode="&#x1e92;" horiz-adv-x="1026" d="M-20 0l45 260l790 950h-608l45 260h924l-43 -241l-801 -969h637l-47 -260h-942zM268 -410l41 236h234l-41 -236h-234z" />
<glyph unicode="&#x1e93;" horiz-adv-x="839" d="M-29 0l39 223l570 637h-426l39 230h725l-41 -236l-560 -618h469l-43 -236h-772zM170 -410l41 236h233l-41 -236h-233z" />
<glyph unicode="&#x1e97;" horiz-adv-x="559" d="M106 139q0 45 9 84l114 662h-120l34 205h123l51 294h236l-51 -294h145l-35 -205h-147l-103 -592q-6 -29 -6 -47q0 -41 86 -41q2 0 52 4l-39 -217l-142 -4q-106 0 -156.5 36.5t-50.5 114.5zM195 1540l41 236h196l-41 -236h-196zM532 1540l41 236h197l-41 -236h-197z" />
<glyph unicode="&#x1ea0;" horiz-adv-x="1212" d="M-29 0l688 1470h291l168 -1470h-274l-25 303h-444l-137 -303h-267zM356 -410l41 236h234l-41 -236h-234zM485 557h308l-48 588z" />
<glyph unicode="&#x1ea1;" d="M31 207q0 168 90 285.5t237 144.5l220 39q100 18 100 117q0 96 -127 96q-74 0 -115 -35t-65 -117h-226q59 209 164 295t291 86q152 0 235 -64.5t83 -183.5q0 -35 -7 -67l-102 -590q-10 -66 -10 -100q0 -51 32 -70l-8 -43h-254q-2 33 -2 59q0 31 4 70q-84 -86 -154.5 -122 t-156.5 -36q-109 0 -169 62.5t-60 173.5zM217 -410l41 236h234l-41 -236h-234zM272 272q0 -45 25 -70.5t68 -25.5q86 0 158.5 63.5t86.5 151.5l25 139q-45 -35 -170 -59q-100 -20 -146.5 -67.5t-46.5 -131.5z" />
<glyph unicode="&#x1ea2;" horiz-adv-x="1212" d="M-29 0l688 1470h291l168 -1470h-274l-25 303h-444l-137 -303h-267zM485 557h308l-48 588zM629 1759q35 188 270 189q104 0 158.5 -38t42.5 -104q-6 -39 -33 -65.5t-90 -61.5q-51 -29 -65.5 -40t-18.5 -25l-8 -49h-127l10 55q6 37 32.5 61.5t96.5 57.5v-2q74 43 76 69 q4 23 -21.5 37.5t-72.5 14.5q-70 0 -99 -29l2 2q-16 -14 -28 -72h-125z" />
<glyph unicode="&#x1ea3;" d="M31 207q0 168 90 285.5t237 144.5l220 39q100 18 100 117q0 96 -127 96q-74 0 -115 -35t-65 -117h-226q59 209 164 295t291 86q152 0 235 -64.5t83 -183.5q0 -35 -7 -67l-102 -590q-10 -66 -10 -100q0 -51 32 -70l-8 -43h-254q-2 33 -2 59q0 31 4 70q-84 -86 -154.5 -122 t-156.5 -36q-109 0 -169 62.5t-60 173.5zM272 272q0 -45 25 -70.5t68 -25.5q86 0 158.5 63.5t86.5 151.5l25 139q-45 -35 -170 -59q-100 -20 -146.5 -67.5t-46.5 -131.5zM420 1378q35 188 270 189q104 0 158.5 -38t42.5 -104q-6 -39 -33 -65.5t-90 -61.5q-51 -29 -65.5 -40 t-18.5 -25l-8 -49h-127l10 55q6 37 32.5 61.5t96.5 57.5v-2q74 43 76 69q4 23 -21.5 37.5t-72.5 14.5q-70 0 -99 -29l2 2q-16 -14 -28 -72h-125z" />
<glyph unicode="&#x1ea4;" horiz-adv-x="1212" d="M-29 0l688 1470h291l168 -1470h-274l-25 303h-444l-137 -303h-267zM485 557h308l-48 588zM514 1614l256 258h211l166 -258h-191l-104 127l-147 -127h-191zM797 1913l204 258h259l-293 -258h-170z" />
<glyph unicode="&#x1ea5;" d="M31 207q0 168 90 285.5t237 144.5l220 39q100 18 100 117q0 96 -127 96q-74 0 -115 -35t-65 -117h-226q59 209 164 295t291 86q152 0 235 -64.5t83 -183.5q0 -35 -7 -67l-102 -590q-10 -66 -10 -100q0 -51 32 -70l-8 -43h-254q-2 33 -2 59q0 31 4 70q-84 -86 -154.5 -122 t-156.5 -36q-109 0 -169 62.5t-60 173.5zM272 272q0 -45 25 -70.5t68 -25.5q86 0 158.5 63.5t86.5 151.5l25 139q-45 -35 -170 -59q-100 -20 -146.5 -67.5t-46.5 -131.5zM303 1233l256 258h211l166 -258h-191l-104 127l-147 -127h-191zM586 1532l205 258h258l-293 -258h-170 z" />
<glyph unicode="&#x1ea6;" horiz-adv-x="1212" d="M-29 0l688 1470h291l168 -1470h-274l-25 303h-444l-137 -303h-267zM485 557h308l-48 588zM514 1614l256 258h211l166 -258h-191l-104 127l-147 -127h-191zM596 2171h258l115 -258h-170z" />
<glyph unicode="&#x1ea7;" d="M31 207q0 168 90 285.5t237 144.5l220 39q100 18 100 117q0 96 -127 96q-74 0 -115 -35t-65 -117h-226q59 209 164 295t291 86q152 0 235 -64.5t83 -183.5q0 -35 -7 -67l-102 -590q-10 -66 -10 -100q0 -51 32 -70l-8 -43h-254q-2 33 -2 59q0 31 4 70q-84 -86 -154.5 -122 t-156.5 -36q-109 0 -169 62.5t-60 173.5zM272 272q0 -45 25 -70.5t68 -25.5q86 0 158.5 63.5t86.5 151.5l25 139q-45 -35 -170 -59q-100 -20 -146.5 -67.5t-46.5 -131.5zM303 1233l256 258h211l166 -258h-191l-104 127l-147 -127h-191zM385 1790h258l115 -258h-170z" />
<glyph unicode="&#x1ea8;" horiz-adv-x="1212" d="M-29 0l688 1470h291l168 -1470h-274l-25 303h-444l-137 -303h-267zM485 557h308l-48 588zM514 1614l256 258h211l166 -258h-191l-104 127l-147 -127h-191zM766 2089q31 168 268 168q104 0 158.5 -35t44.5 -92q-6 -35 -31.5 -59.5t-91.5 -55.5q-78 -37 -82 -57l-6 -45 h-127l8 49q6 35 33 56.5t94 52.5v-3q72 37 76 62q4 20 -22.5 33.5t-73.5 13.5q-70 0 -96 -27v2q-18 -18 -27 -63h-125z" />
<glyph unicode="&#x1ea9;" d="M31 207q0 168 90 285.5t237 144.5l220 39q100 18 100 117q0 96 -127 96q-74 0 -115 -35t-65 -117h-226q59 209 164 295t291 86q152 0 235 -64.5t83 -183.5q0 -35 -7 -67l-102 -590q-10 -66 -10 -100q0 -51 32 -70l-8 -43h-254q-2 33 -2 59q0 31 4 70q-84 -86 -154.5 -122 t-156.5 -36q-109 0 -169 62.5t-60 173.5zM272 272q0 -45 25 -70.5t68 -25.5q86 0 158.5 63.5t86.5 151.5l25 139q-45 -35 -170 -59q-100 -20 -146.5 -67.5t-46.5 -131.5zM303 1233l256 258h211l166 -258h-191l-104 127l-147 -127h-191zM555 1708q31 168 268 168 q104 0 158.5 -35t44.5 -92q-6 -35 -31.5 -59.5t-91.5 -55.5q-78 -37 -82 -57l-6 -45h-127l8 49q6 35 33 56.5t94 52.5v-2q72 37 76 61q4 20 -22.5 33.5t-73.5 13.5q-70 0 -96 -27v3q-18 -18 -27 -64h-125z" />
<glyph unicode="&#x1eaa;" horiz-adv-x="1212" d="M-29 0l688 1470h291l168 -1470h-274l-25 303h-444l-137 -303h-267zM485 557h308l-48 588zM514 1614l256 258h211l166 -258h-191l-104 127l-147 -127h-191zM578 1933q47 131 105 191.5t140 60.5q14 0 107.5 -37t105.5 -37q61 0 94 82h109q-84 -246 -225 -245 q-18 0 -116.5 36.5t-119.5 36.5q-59 0 -94 -88h-106z" />
<glyph unicode="&#x1eab;" d="M31 207q0 168 90 285.5t237 144.5l220 39q100 18 100 117q0 96 -127 96q-74 0 -115 -35t-65 -117h-226q59 209 164 295t291 86q152 0 235 -64.5t83 -183.5q0 -35 -7 -67l-102 -590q-10 -66 -10 -100q0 -51 32 -70l-8 -43h-254q-2 33 -2 59q0 31 4 70q-84 -86 -154.5 -122 t-156.5 -36q-109 0 -169 62.5t-60 173.5zM272 272q0 -45 25 -70.5t68 -25.5q86 0 158.5 63.5t86.5 151.5l25 139q-45 -35 -170 -59q-100 -20 -146.5 -67.5t-46.5 -131.5zM303 1233l256 258h211l166 -258h-191l-104 127l-147 -127h-191zM367 1552q47 131 105 191.5t140 60.5 q14 0 107.5 -36.5t105.5 -36.5q61 0 95 81h108q-82 -246 -225 -245q-18 0 -116.5 36.5t-119.5 36.5q-59 0 -94 -88h-106z" />
<glyph unicode="&#x1eac;" horiz-adv-x="1212" d="M-29 0l688 1470h291l168 -1470h-274l-25 303h-444l-137 -303h-267zM356 -410l41 236h234l-41 -236h-234zM485 557h308l-48 588zM512 1614l256 258h211l166 -258h-191l-104 127l-148 -127h-190z" />
<glyph unicode="&#x1ead;" d="M31 207q0 168 90 285.5t237 144.5l220 39q100 18 100 117q0 96 -127 96q-74 0 -115 -35t-65 -117h-226q59 209 164 295t291 86q152 0 235 -64.5t83 -183.5q0 -35 -7 -67l-102 -590q-10 -66 -10 -100q0 -51 32 -70l-8 -43h-254q-2 33 -2 59q0 31 4 70q-84 -86 -154.5 -122 t-156.5 -36q-109 0 -169 62.5t-60 173.5zM217 -410l41 236h234l-41 -236h-234zM272 272q0 -45 25 -70.5t68 -25.5q86 0 158.5 63.5t86.5 151.5l25 139q-45 -35 -170 -59q-100 -20 -146.5 -67.5t-46.5 -131.5zM324 1233l243 299h211l140 -299h-191l-78 168l-135 -168h-190z " />
<glyph unicode="&#x1eae;" horiz-adv-x="1212" d="M-29 0l688 1470h291l168 -1470h-274l-25 303h-444l-137 -303h-267zM485 557h308l-48 588zM571 1872h111q23 -51 61.5 -75.5t116.5 -24.5t121 24.5t70 75.5h129q-111 -258 -359 -258q-234 0 -250 258zM801 1931l203 258h258l-291 -258h-170z" />
<glyph unicode="&#x1eaf;" d="M31 207q0 168 90 285.5t237 144.5l220 39q100 18 100 117q0 96 -127 96q-74 0 -115 -35t-65 -117h-226q59 209 164 295t291 86q152 0 235 -64.5t83 -183.5q0 -35 -7 -67l-102 -590q-10 -66 -10 -100q0 -51 32 -70l-8 -43h-254q-2 33 -2 59q0 31 4 70q-84 -86 -154.5 -122 t-156.5 -36q-109 0 -169 62.5t-60 173.5zM272 272q0 -45 25 -70.5t68 -25.5q86 0 158.5 63.5t86.5 151.5l25 139q-45 -35 -170 -59q-100 -20 -146.5 -67.5t-46.5 -131.5zM360 1491h111q23 -51 61.5 -75.5t116.5 -24.5t121 24.5t70 75.5h129q-111 -258 -359 -258 q-234 0 -250 258zM590 1550l203 258h258l-291 -258h-170z" />
<glyph unicode="&#x1eb0;" horiz-adv-x="1212" d="M-29 0l688 1470h291l168 -1470h-274l-25 303h-444l-137 -303h-267zM485 557h308l-48 588zM571 1872h111q23 -51 61.5 -75.5t116.5 -24.5t121 24.5t70 75.5h129q-111 -258 -359 -258q-234 0 -250 258zM600 2189h258l113 -258h-170z" />
<glyph unicode="&#x1eb1;" d="M31 207q0 168 90 285.5t237 144.5l220 39q100 18 100 117q0 96 -127 96q-74 0 -115 -35t-65 -117h-226q59 209 164 295t291 86q152 0 235 -64.5t83 -183.5q0 -35 -7 -67l-102 -590q-10 -66 -10 -100q0 -51 32 -70l-8 -43h-254q-2 33 -2 59q0 31 4 70q-84 -86 -154.5 -122 t-156.5 -36q-109 0 -169 62.5t-60 173.5zM272 272q0 -45 25 -70.5t68 -25.5q86 0 158.5 63.5t86.5 151.5l25 139q-45 -35 -170 -59q-100 -20 -146.5 -67.5t-46.5 -131.5zM360 1491h111q23 -51 61.5 -75.5t116.5 -24.5t121 24.5t70 75.5h129q-111 -258 -359 -258 q-234 0 -250 258zM389 1808h258l113 -258h-170z" />
<glyph unicode="&#x1eb2;" horiz-adv-x="1212" d="M-29 0l688 1470h291l168 -1470h-274l-25 303h-444l-137 -303h-267zM485 557h308l-48 588zM571 1872h111q23 -51 61.5 -75.5t116.5 -24.5t121 24.5t70 75.5h129q-111 -258 -359 -258q-234 0 -250 258zM672 2028q29 168 266 167q104 0 158.5 -34.5t44.5 -92.5 q-6 -35 -32 -59t-91 -55q-78 -39 -80 -58l-8 -45h-127l8 50q6 35 32.5 56t94.5 52v-2q72 37 76 61q4 20 -22.5 34t-73.5 14q-70 0 -97 -27v2q-16 -16 -24 -63h-125z" />
<glyph unicode="&#x1eb3;" d="M31 207q0 168 90 285.5t237 144.5l220 39q100 18 100 117q0 96 -127 96q-74 0 -115 -35t-65 -117h-226q59 209 164 295t291 86q152 0 235 -64.5t83 -183.5q0 -35 -7 -67l-102 -590q-10 -66 -10 -100q0 -51 32 -70l-8 -43h-254q-2 33 -2 59q0 31 4 70q-84 -86 -154.5 -122 t-156.5 -36q-109 0 -169 62.5t-60 173.5zM272 272q0 -45 25 -70.5t68 -25.5q86 0 158.5 63.5t86.5 151.5l25 139q-45 -35 -170 -59q-100 -20 -146.5 -67.5t-46.5 -131.5zM360 1491h111q23 -51 61.5 -75.5t116.5 -24.5t121 24.5t70 75.5h129q-111 -258 -359 -258 q-234 0 -250 258zM461 1647q29 168 266 168q104 0 158.5 -35t44.5 -92q-6 -35 -32 -59.5t-91 -55.5q-78 -39 -80 -57l-8 -46h-127l8 50q6 35 32.5 56t94.5 52v-2q72 37 76 62q4 20 -22.5 33.5t-73.5 13.5q-70 0 -97 -27v2q-16 -16 -24 -63h-125z" />
<glyph unicode="&#x1eb4;" horiz-adv-x="1212" d="M-29 0l688 1470h291l168 -1470h-274l-25 303h-444l-137 -303h-267zM485 557h308l-48 588zM571 1872h111q23 -51 61.5 -75.5t116.5 -24.5t121 24.5t70 75.5h129q-111 -258 -359 -258q-234 0 -250 258zM580 1950q47 131 105 191.5t140 60.5q14 0 107.5 -37t105.5 -37 q61 0 95 82h108q-82 -246 -225 -246q-18 0 -116.5 37t-119.5 37q-59 0 -94 -88h-106z" />
<glyph unicode="&#x1eb5;" d="M31 207q0 168 90 285.5t237 144.5l220 39q100 18 100 117q0 96 -127 96q-74 0 -115 -35t-65 -117h-226q59 209 164 295t291 86q152 0 235 -64.5t83 -183.5q0 -35 -7 -67l-102 -590q-10 -66 -10 -100q0 -51 32 -70l-8 -43h-254q-2 33 -2 59q0 31 4 70q-84 -86 -154.5 -122 t-156.5 -36q-109 0 -169 62.5t-60 173.5zM272 272q0 -45 25 -70.5t68 -25.5q86 0 158.5 63.5t86.5 151.5l25 139q-45 -35 -170 -59q-100 -20 -146.5 -67.5t-46.5 -131.5zM360 1491h111q23 -51 61.5 -75.5t116.5 -24.5t121 24.5t70 75.5h129q-111 -258 -359 -258 q-234 0 -250 258zM369 1569q47 131 105 191.5t140 60.5q14 0 107.5 -37t105.5 -37q61 0 95 82h108q-84 -246 -225 -246q-18 0 -116.5 37t-119.5 37q-59 0 -94 -88h-106z" />
<glyph unicode="&#x1eb6;" horiz-adv-x="1212" d="M-29 0l688 1470h291l168 -1470h-274l-25 303h-444l-137 -303h-267zM356 -410l41 236h234l-41 -236h-234zM485 557h308l-48 588zM569 1872h111q23 -51 61.5 -75.5t116.5 -24.5t121 24.5t70 75.5h129q-111 -258 -359 -258q-234 0 -250 258z" />
<glyph unicode="&#x1eb7;" d="M31 207q0 168 90 285.5t237 144.5l220 39q100 18 100 117q0 96 -127 96q-74 0 -115 -35t-65 -117h-226q59 209 164 295t291 86q152 0 235 -64.5t83 -183.5q0 -35 -7 -67l-102 -590q-10 -66 -10 -100q0 -51 32 -70l-8 -43h-254q-2 33 -2 59q0 31 4 70q-84 -86 -154.5 -122 t-156.5 -36q-109 0 -169 62.5t-60 173.5zM217 -410l41 236h234l-41 -236h-234zM272 272q0 -45 25 -70.5t68 -25.5q86 0 158.5 63.5t86.5 151.5l25 139q-45 -35 -170 -59q-100 -20 -146.5 -67.5t-46.5 -131.5zM387 1475q0 33 2 57h111v-12q0 -70 34.5 -100.5t112.5 -30.5 q82 0 125 30.5t74 112.5h108q-84 -299 -344 -299q-109 0 -166 62.5t-57 179.5z" />
<glyph unicode="&#x1eb8;" horiz-adv-x="1120" d="M66 0l256 1470h886l-45 -260h-641l-53 -309h588l-45 -260h-588l-66 -381h668l-45 -260h-915zM311 -410l41 236h234l-41 -236h-234z" />
<glyph unicode="&#x1eb9;" d="M57 367q0 322 154 536.5t385 214.5q164 0 251 -102.5t87 -296.5q0 -80 -19 -201l-8 -51h-612q-6 -45 -6 -80q0 -90 43 -138t121 -48q121 0 176 118h241q-158 -348 -460 -348q-172 0 -262.5 101.5t-90.5 294.5zM217 -410l41 236h234l-41 -236h-234zM334 653h364l2 54 q2 80 -40 128t-107 48q-78 0 -131 -55.5t-88 -174.5z" />
<glyph unicode="&#x1eba;" horiz-adv-x="1120" d="M66 0l256 1470h886l-45 -260h-641l-53 -309h588l-45 -260h-588l-66 -381h668l-45 -260h-915zM588 1759q35 188 270 189q104 0 158.5 -38t42.5 -104q-6 -39 -33 -65.5t-90 -61.5q-51 -29 -65.5 -40t-18.5 -25l-8 -49h-127l10 55q6 37 32.5 61.5t96.5 57.5v-2q74 43 76 69 q4 23 -21.5 37.5t-72.5 14.5q-70 0 -99 -29l2 2q-16 -14 -28 -72h-125z" />
<glyph unicode="&#x1ebb;" d="M57 367q0 322 154 536.5t385 214.5q164 0 251 -102.5t87 -296.5q0 -80 -19 -201l-8 -51h-612q-6 -45 -6 -80q0 -90 43 -138t121 -48q121 0 176 118h241q-158 -348 -460 -348q-172 0 -262.5 101.5t-90.5 294.5zM334 653h364l2 54q2 80 -40 128t-107 48q-78 0 -131 -55.5 t-88 -174.5zM420 1378q35 188 270 189q104 0 158.5 -38t42.5 -104q-6 -39 -33 -65.5t-90 -61.5q-51 -29 -65.5 -40t-18.5 -25l-8 -49h-127l10 55q6 37 32.5 61.5t96.5 57.5v-2q74 43 76 69q4 23 -21.5 37.5t-72.5 14.5q-70 0 -99 -29l2 2q-16 -14 -28 -72h-125z" />
<glyph unicode="&#x1ebc;" horiz-adv-x="1120" d="M66 0l256 1470h886l-45 -260h-641l-53 -309h588l-45 -260h-588l-66 -381h668l-45 -260h-915zM481 1614q47 131 105.5 191.5t140.5 60.5q14 0 107.5 -37t105.5 -37q61 0 94 82h109q-82 -246 -225 -246q-18 0 -117 37t-119 37q-59 0 -94 -88h-107z" />
<glyph unicode="&#x1ebd;" d="M57 367q0 322 154 536.5t385 214.5q164 0 251 -102.5t87 -296.5q0 -80 -19 -201l-8 -51h-612q-6 -45 -6 -80q0 -90 43 -138t121 -48q121 0 176 118h241q-158 -348 -460 -348q-172 0 -262.5 101.5t-90.5 294.5zM313 1253q47 131 105.5 191.5t140.5 60.5q14 0 107.5 -36.5 t105.5 -36.5q61 0 94 81h109q-82 -246 -225 -245q-18 0 -116.5 36.5t-119.5 36.5q-59 0 -94 -88h-107zM334 653h364l2 54q2 80 -40 128t-107 48q-78 0 -131 -55.5t-88 -174.5z" />
<glyph unicode="&#x1ebe;" horiz-adv-x="1120" d="M66 0l256 1470h886l-45 -260h-641l-53 -309h588l-45 -260h-588l-66 -381h668l-45 -260h-915zM473 1614l256 258h211l166 -258h-191l-104 127l-147 -127h-191zM756 1913l205 258h258l-293 -258h-170z" />
<glyph unicode="&#x1ebf;" d="M57 367q0 322 154 536.5t385 214.5q164 0 251 -102.5t87 -296.5q0 -80 -19 -201l-8 -51h-612q-6 -45 -6 -80q0 -90 43 -138t121 -48q121 0 176 118h241q-158 -348 -460 -348q-172 0 -262.5 101.5t-90.5 294.5zM305 1233l256 258h211l166 -258h-190l-105 127l-147 -127 h-191zM334 653h364l2 54q2 80 -40 128t-107 48q-78 0 -131 -55.5t-88 -174.5zM588 1532l205 258h258l-293 -258h-170z" />
<glyph unicode="&#x1ec0;" horiz-adv-x="1120" d="M66 0l256 1470h886l-45 -260h-641l-53 -309h588l-45 -260h-588l-66 -381h668l-45 -260h-915zM473 1614l256 258h211l166 -258h-191l-104 127l-147 -127h-191zM555 2171h258l115 -258h-170z" />
<glyph unicode="&#x1ec1;" d="M57 367q0 322 154 536.5t385 214.5q164 0 251 -102.5t87 -296.5q0 -80 -19 -201l-8 -51h-612q-6 -45 -6 -80q0 -90 43 -138t121 -48q121 0 176 118h241q-158 -348 -460 -348q-172 0 -262.5 101.5t-90.5 294.5zM305 1233l256 258h211l166 -258h-190l-105 127l-147 -127 h-191zM334 653h364l2 54q2 80 -40 128t-107 48q-78 0 -131 -55.5t-88 -174.5zM387 1790h258l115 -258h-170z" />
<glyph unicode="&#x1ec2;" horiz-adv-x="1120" d="M66 0l256 1470h886l-45 -260h-641l-53 -309h588l-45 -260h-588l-66 -381h668l-45 -260h-915zM473 1614l256 258h211l166 -258h-191l-104 127l-147 -127h-191zM725 2089q31 168 268 168q104 0 158.5 -35t44.5 -92q-6 -35 -31.5 -59.5t-91.5 -55.5q-78 -37 -82 -57l-6 -45 h-127l8 49q6 35 33 56.5t94 52.5v-3q72 37 76 62q4 20 -22.5 33.5t-73.5 13.5q-70 0 -96 -27v2q-18 -18 -27 -63h-125z" />
<glyph unicode="&#x1ec3;" d="M57 367q0 322 154 536.5t385 214.5q164 0 251 -102.5t87 -296.5q0 -80 -19 -201l-8 -51h-612q-6 -45 -6 -80q0 -90 43 -138t121 -48q121 0 176 118h241q-158 -348 -460 -348q-172 0 -262.5 101.5t-90.5 294.5zM305 1233l256 258h211l166 -258h-190l-105 127l-147 -127 h-191zM334 653h364l2 54q2 80 -40 128t-107 48q-78 0 -131 -55.5t-88 -174.5zM557 1708q31 168 268 168q104 0 158.5 -35t44.5 -92q-6 -35 -31.5 -59.5t-91.5 -55.5q-78 -37 -82 -57l-6 -45h-127l8 49q6 35 33 56.5t94 52.5v-2q72 37 76 61q4 20 -22.5 33.5t-73.5 13.5 q-70 0 -96 -27v3q-18 -18 -27 -64h-125z" />
<glyph unicode="&#x1ec4;" horiz-adv-x="1120" d="M66 0l256 1470h886l-45 -260h-641l-53 -309h588l-45 -260h-588l-66 -381h668l-45 -260h-915zM473 1614l256 258h211l166 -258h-191l-104 127l-147 -127h-191zM537 1933q47 131 105 191.5t140 60.5q14 0 107.5 -37t105.5 -37q61 0 95 82h108q-84 -246 -225 -245 q-18 0 -116.5 36.5t-119.5 36.5q-59 0 -94 -88h-106z" />
<glyph unicode="&#x1ec5;" d="M57 367q0 322 154 536.5t385 214.5q164 0 251 -102.5t87 -296.5q0 -80 -19 -201l-8 -51h-612q-6 -45 -6 -80q0 -90 43 -138t121 -48q121 0 176 118h241q-158 -348 -460 -348q-172 0 -262.5 101.5t-90.5 294.5zM305 1233l256 258h211l166 -258h-190l-105 127l-147 -127 h-191zM334 653h364l2 54q2 80 -40 128t-107 48q-78 0 -131 -55.5t-88 -174.5zM369 1552q47 131 105 191.5t140 60.5q14 0 107.5 -36.5t105.5 -36.5q61 0 95 81h108q-84 -246 -225 -245q-18 0 -116.5 36.5t-119.5 36.5q-59 0 -94 -88h-106z" />
<glyph unicode="&#x1ec6;" horiz-adv-x="1120" d="M66 0l256 1470h886l-45 -260h-641l-53 -309h588l-45 -260h-588l-66 -381h668l-45 -260h-915zM311 -410l41 236h234l-41 -236h-234zM471 1614l256 258h211l166 -258h-191l-104 127l-147 -127h-191z" />
<glyph unicode="&#x1ec7;" d="M57 367q0 322 154 536.5t385 214.5q164 0 251 -102.5t87 -296.5q0 -80 -19 -201l-8 -51h-612q-6 -45 -6 -80q0 -90 43 -138t121 -48q121 0 176 118h241q-158 -348 -460 -348q-172 0 -262.5 101.5t-90.5 294.5zM217 -410l41 236h234l-41 -236h-234zM324 1233l243 299h211 l140 -299h-191l-78 168l-135 -168h-190zM334 653h364l2 54q2 80 -40 128t-107 48q-78 0 -131 -55.5t-88 -174.5z" />
<glyph unicode="&#x1ec8;" horiz-adv-x="466" d="M45 0l258 1470h252l-258 -1470h-252zM252 1759q35 188 270 189q104 0 158.5 -38t42.5 -104q-6 -39 -32.5 -65.5t-90.5 -61.5q-51 -29 -65.5 -40t-18.5 -25l-8 -49h-127l10 55q6 37 33 61.5t96 57.5v-2q74 43 76 69q4 23 -21.5 37.5t-72.5 14.5q-70 0 -99 -29l3 2 q-16 -14 -29 -72h-125z" />
<glyph unicode="&#x1ec9;" horiz-adv-x="466" d="M55 0l191 1090h233l-190 -1090h-234zM186 1378q35 188 271 189q104 0 158.5 -38t41.5 -104q-6 -39 -32.5 -65.5t-89.5 -61.5q-51 -29 -65.5 -40t-18.5 -25l-9 -49h-127l11 55q6 37 32.5 61.5t96.5 57.5v-2q74 43 75 69q4 23 -21.5 37.5t-72.5 14.5q-70 0 -98 -29l2 2 q-16 -14 -29 -72h-125z" />
<glyph unicode="&#x1eca;" horiz-adv-x="466" d="M-16 -410l41 236h233l-41 -236h-233zM45 0l258 1470h252l-258 -1470h-252z" />
<glyph unicode="&#x1ecb;" horiz-adv-x="466" d="M-16 -410l41 236h233l-41 -236h-233zM55 0l191 1090h233l-190 -1090h-234zM276 1266l41 235h234l-41 -235h-234z" />
<glyph unicode="&#x1ecc;" horiz-adv-x="1306" d="M119 502q0 279 96 510t266 364t377 133q203 0 333 -139t130 -399q0 -430 -211 -720t-526 -290q-215 0 -340 145.5t-125 395.5zM377 555q0 -156 67.5 -245t188.5 -89q182 0 307 202t125 492q0 156 -67.5 245t-186.5 89q-186 0 -310 -206.5t-124 -487.5zM406 -410l40 236 h234l-41 -236h-233z" />
<glyph unicode="&#x1ecd;" horiz-adv-x="1026" d="M76 389q0 309 165 519t406 210q172 0 271.5 -111.5t99.5 -306.5q0 -305 -166 -517t-406 -212q-172 0 -271 111.5t-99 306.5zM264 -410l41 236h234l-41 -236h-234zM319 428q0 -215 170 -215q127 0 205 133t78 318q0 213 -170 213q-127 0 -205 -135.5t-78 -313.5z" />
<glyph unicode="&#x1ece;" horiz-adv-x="1306" d="M119 502q0 279 96 510t266 364t377 133q203 0 333 -139t130 -399q0 -430 -211 -720t-526 -290q-215 0 -340 145.5t-125 395.5zM377 555q0 -156 67.5 -245t188.5 -89q182 0 307 202t125 492q0 156 -67.5 245t-186.5 89q-186 0 -310 -206.5t-124 -487.5zM676 1759 q35 188 270 189q104 0 158.5 -38t42.5 -104q-6 -39 -33 -65.5t-90 -61.5q-51 -29 -65.5 -40t-18.5 -25l-8 -49h-127l10 55q6 37 32.5 61.5t96.5 57.5v-2q74 43 76 69q4 23 -21.5 37.5t-72.5 14.5q-70 0 -99 -29l2 2q-16 -14 -28 -72h-125z" />
<glyph unicode="&#x1ecf;" horiz-adv-x="1026" d="M76 389q0 309 165 519t406 210q172 0 271.5 -111.5t99.5 -306.5q0 -305 -166 -517t-406 -212q-172 0 -271 111.5t-99 306.5zM319 428q0 -215 170 -215q127 0 205 133t78 318q0 213 -170 213q-127 0 -205 -135.5t-78 -313.5zM467 1378q35 188 270 189q104 0 158.5 -38 t42.5 -104q-6 -39 -32.5 -65.5t-90.5 -61.5q-51 -29 -65.5 -40t-18.5 -25l-8 -49h-127l10 55q6 37 33 61.5t96 57.5v-2q74 43 76 69q4 23 -21.5 37.5t-72.5 14.5q-70 0 -99 -29l3 2q-16 -14 -29 -72h-125z" />
<glyph unicode="&#x1ed0;" horiz-adv-x="1306" d="M119 502q0 279 96 510t266 364t377 133q203 0 333 -139t130 -399q0 -430 -211 -720t-526 -290q-215 0 -340 145.5t-125 395.5zM377 555q0 -156 67.5 -245t188.5 -89q182 0 307 202t125 492q0 156 -67.5 245t-186.5 89q-186 0 -310 -206.5t-124 -487.5zM559 1614l256 258 h211l166 -258h-191l-104 127l-147 -127h-191zM842 1913l205 258h258l-293 -258h-170z" />
<glyph unicode="&#x1ed1;" horiz-adv-x="1026" d="M76 389q0 309 165 519t406 210q172 0 271.5 -111.5t99.5 -306.5q0 -305 -166 -517t-406 -212q-172 0 -271 111.5t-99 306.5zM319 428q0 -215 170 -215q127 0 205 133t78 318q0 213 -170 213q-127 0 -205 -135.5t-78 -313.5zM350 1233l256 258h211l166 -258h-190l-105 127 l-147 -127h-191zM633 1532l205 258h258l-293 -258h-170z" />
<glyph unicode="&#x1ed2;" horiz-adv-x="1306" d="M119 502q0 279 96 510t266 364t377 133q203 0 333 -139t130 -399q0 -430 -211 -720t-526 -290q-215 0 -340 145.5t-125 395.5zM377 555q0 -156 67.5 -245t188.5 -89q182 0 307 202t125 492q0 156 -67.5 245t-186.5 89q-186 0 -310 -206.5t-124 -487.5zM559 1614l256 258 h211l166 -258h-191l-104 127l-147 -127h-191zM641 2171h258l115 -258h-170z" />
<glyph unicode="&#x1ed3;" horiz-adv-x="1026" d="M76 389q0 309 165 519t406 210q172 0 271.5 -111.5t99.5 -306.5q0 -305 -166 -517t-406 -212q-172 0 -271 111.5t-99 306.5zM319 428q0 -215 170 -215q127 0 205 133t78 318q0 213 -170 213q-127 0 -205 -135.5t-78 -313.5zM350 1233l256 258h211l166 -258h-190l-105 127 l-147 -127h-191zM432 1790h258l115 -258h-170z" />
<glyph unicode="&#x1ed4;" horiz-adv-x="1306" d="M119 502q0 279 96 510t266 364t377 133q203 0 333 -139t130 -399q0 -430 -211 -720t-526 -290q-215 0 -340 145.5t-125 395.5zM377 555q0 -156 67.5 -245t188.5 -89q182 0 307 202t125 492q0 156 -67.5 245t-186.5 89q-186 0 -310 -206.5t-124 -487.5zM559 1614l256 258 h211l166 -258h-191l-104 127l-147 -127h-191zM811 2089q31 168 268 168q104 0 158.5 -35t44.5 -92q-6 -35 -31.5 -59.5t-91.5 -55.5q-78 -37 -82 -57l-6 -45h-127l8 49q6 35 33 56.5t94 52.5v-3q72 37 76 62q4 20 -22.5 33.5t-73.5 13.5q-70 0 -96 -27v2q-18 -18 -27 -63 h-125z" />
<glyph unicode="&#x1ed5;" horiz-adv-x="1026" d="M76 389q0 309 165 519t406 210q172 0 271.5 -111.5t99.5 -306.5q0 -305 -166 -517t-406 -212q-172 0 -271 111.5t-99 306.5zM319 428q0 -215 170 -215q127 0 205 133t78 318q0 213 -170 213q-127 0 -205 -135.5t-78 -313.5zM350 1233l256 258h211l166 -258h-190l-105 127 l-147 -127h-191zM602 1708q31 168 268 168q104 0 158.5 -35t44.5 -92q-6 -35 -31.5 -59.5t-91.5 -55.5q-78 -37 -82 -57l-6 -45h-127l8 49q6 35 33 56.5t94 52.5v-2q72 37 76 61q4 20 -22.5 33.5t-73.5 13.5q-70 0 -96 -27v3q-18 -18 -27 -64h-125z" />
<glyph unicode="&#x1ed6;" horiz-adv-x="1306" d="M119 502q0 279 96 510t266 364t377 133q203 0 333 -139t130 -399q0 -430 -211 -720t-526 -290q-215 0 -340 145.5t-125 395.5zM377 555q0 -156 67.5 -245t188.5 -89q182 0 307 202t125 492q0 156 -67.5 245t-186.5 89q-186 0 -310 -206.5t-124 -487.5zM559 1614l256 258 h211l166 -258h-191l-104 127l-147 -127h-191zM623 1933q47 131 105 191.5t140 60.5q14 0 107.5 -37t105.5 -37q61 0 95 82h108q-84 -246 -225 -245q-18 0 -116.5 36.5t-119.5 36.5q-59 0 -94 -88h-106z" />
<glyph unicode="&#x1ed7;" horiz-adv-x="1026" d="M76 389q0 309 165 519t406 210q172 0 271.5 -111.5t99.5 -306.5q0 -305 -166 -517t-406 -212q-172 0 -271 111.5t-99 306.5zM319 428q0 -215 170 -215q127 0 205 133t78 318q0 213 -170 213q-127 0 -205 -135.5t-78 -313.5zM350 1233l256 258h211l166 -258h-190l-105 127 l-147 -127h-191zM414 1552q47 131 105.5 191.5t139.5 60.5q14 0 107.5 -36.5t105.5 -36.5q61 0 95 81h108q-84 -246 -225 -245q-18 0 -116.5 36.5t-119.5 36.5q-59 0 -94 -88h-106z" />
<glyph unicode="&#x1ed8;" horiz-adv-x="1306" d="M119 502q0 279 96 510t266 364t377 133q203 0 333 -139t130 -399q0 -430 -211 -720t-526 -290q-215 0 -340 145.5t-125 395.5zM377 555q0 -156 67.5 -245t188.5 -89q182 0 307 202t125 492q0 156 -67.5 245t-186.5 89q-186 0 -310 -206.5t-124 -487.5zM406 -410l40 236 h234l-41 -236h-233zM559 1614l256 258h211l166 -258h-191l-104 127l-147 -127h-191z" />
<glyph unicode="&#x1ed9;" horiz-adv-x="1026" d="M76 389q0 309 165 519t406 210q172 0 271.5 -111.5t99.5 -306.5q0 -305 -166 -517t-406 -212q-172 0 -271 111.5t-99 306.5zM264 -410l41 236h234l-41 -236h-234zM319 428q0 -215 170 -215q127 0 205 133t78 318q0 213 -170 213q-127 0 -205 -135.5t-78 -313.5zM371 1233 l243 299h211l140 -299h-191l-78 168l-135 -168h-190z" />
<glyph unicode="&#x1eda;" horiz-adv-x="1306" d="M119 502q0 279 96 510t266 364t377 133q264 0 387 -215q51 63 72 179h-117l41 235h234l-41 -235q-31 -178 -142 -289q29 -98 29 -213q0 -430 -211 -720t-526 -290q-215 0 -340 145.5t-125 395.5zM377 555q0 -156 67.5 -245t188.5 -89q182 0 307 202t125 492 q0 156 -67.5 245t-186.5 89q-186 0 -310 -206.5t-124 -487.5zM791 1614l204 258h258l-292 -258h-170z" />
</font>
</defs>
</svg>
