<?xml version="1.0" standalone="no"?>
<!DOCTYPE svg PUBLIC "-//W3C//DTD SVG 1.1//EN" "http://www.w3.org/Graphics/SVG/1.1/DTD/svg11.dtd" >
<svg xmlns="http://www.w3.org/2000/svg">
<metadata>
This is a custom SVG webfont generated by Font Squirrel.
Copyright   : Copyright URW copyright 1999 by URW Design  Development Cyrillic glyphs added by Valek Filippov copyright 20012002 Vietnamese characters were added by Han The Thanh copyright 2006 2008 for TeX Gyre extensions by B Jackowski and JM Nowacki on behalf of TeX users groups This work is released under the GUST Font License   see httptugorgfontslicensesGUSTFONTLICENSEtxt for details
</metadata>
<defs>
<font id="webfontuQ9IzsqB" horiz-adv-x="933" >
<font-face units-per-em="2048" ascent="1624" descent="-424" />
<missing-glyph horiz-adv-x="466" />
<glyph unicode="IJ" horiz-adv-x="1415" d="M117 0v1470h252v-1470h-252zM522 555h236q0 -209 28.5 -275.5t118.5 -66.5q78 0 110 47t32 166v1044h251v-1044q0 -463 -389 -463q-246 0 -331 180q-33 63 -44.5 150.5t-11.5 261.5z" />
<glyph unicode="ij" d="M117 0v1090h233v-1090h-233zM119 1266v235h233v-235h-233zM471 -209h43q70 0 70 100v1199h233v-1205q0 -182 -61.5 -252.5t-223.5 -70.5h-61v229zM586 1266v235h233v-235h-233z" />
<glyph unicode="fk" horiz-adv-x="1492" d="M16 885v205h129v88q0 162 67 236.5t208 74.5q57 0 110 -4v-232h-67q-55 0 -69.5 -21.5t-14.5 -98.5v-43h156v-205h-156v-885h-234v885h-129zM676 0v1470h233v-794l295 414h289l-315 -422l325 -668h-282l-213 467l-99 -123v-344h-233z" />
<glyph unicode="&#xfb00;" horiz-adv-x="1081" d="M16 885v205h129v88q0 162 67 236.5t208 74.5q57 0 110 -4v-232h-67q-55 0 -69.5 -21.5t-14.5 -98.5v-43h297v88q0 162 66.5 236.5t207.5 74.5q57 0 111 -4v-232h-68q-55 0 -69.5 -21.5t-14.5 -98.5v-43h156v-205h-156v-885h-233v885h-297v-885h-234v885h-129z" />
<glyph unicode="&#xfb01;" horiz-adv-x="1026" d="M16 885v205h129v88q0 162 67 236.5t208 74.5q57 0 110 -4v-232h-67q-55 0 -69.5 -21.5t-14.5 -98.5v-43h156v-205h-156v-885h-234v885h-129zM676 0v1090h233v-1090h-233zM678 1266v235h233v-235h-233z" />
<glyph unicode="&#xfb02;" horiz-adv-x="1026" d="M16 885v205h129v88q0 162 67 236.5t208 74.5q57 0 110 -4v-232h-67q-55 0 -69.5 -21.5t-14.5 -98.5v-43h156v-205h-156v-885h-234v885h-129zM676 0v1470h233v-1470h-233z" />
<glyph unicode="&#xfb03;" horiz-adv-x="1556" d="M16 885v205h129v88q0 162 67 236.5t208 74.5q57 0 110 -4v-232h-67q-55 0 -69.5 -21.5t-14.5 -98.5v-43h297v88q0 162 66.5 236.5t207.5 74.5q57 0 111 -4v-232h-68q-55 0 -69.5 -21.5t-14.5 -98.5v-43h156v-205h-156v-885h-233v885h-297v-885h-234v885h-129zM1206 0 v1090h234v-1090h-234zM1208 1266v235h234v-235h-234z" />
<glyph unicode="&#xfb04;" horiz-adv-x="1556" d="M16 885v205h129v88q0 162 67 236.5t208 74.5q57 0 110 -4v-232h-67q-55 0 -69.5 -21.5t-14.5 -98.5v-43h297v88q0 162 66.5 236.5t207.5 74.5q57 0 111 -4v-232h-68q-55 0 -69.5 -21.5t-14.5 -98.5v-43h156v-205h-156v-885h-233v885h-297v-885h-234v885h-129zM1206 0 v1470h234v-1470h-234z" />
<glyph unicode=" "  horiz-adv-x="466" />
<glyph unicode="&#x09;" horiz-adv-x="466" />
<glyph unicode="&#xa0;" horiz-adv-x="466" />
<glyph unicode="!" horiz-adv-x="559" d="M152 1096v374h258v-374l-68 -688h-123zM158 0v291h245v-291h-245z" />
<glyph unicode="&#x22;" horiz-adv-x="796" d="M164 915v555h164v-555h-164zM467 915v555h164v-555h-164z" />
<glyph unicode="#" d="M31 408l20 184h162l29 246h-162l20 184h162l47 408h158l-47 -408h164l45 408h157l-45 -408h162l-20 -184h-162l-29 -246h162l-20 -184h-162l-47 -408h-158l47 408h-164l-45 -408h-158l46 408h-162zM371 592h164l28 246h-164z" />
<glyph unicode="$" d="M51 440h219q0 -129 35 -183t123 -75v430q-199 68 -275.5 160t-76.5 258q0 184 89 297t263 127v133h78v-133q354 -41 354 -428h-217q0 113 -34 162t-103 49v-383q227 -90 300 -180t73 -262q0 -188 -94.5 -307t-278.5 -140v-201h-78v201q-203 20 -290 131t-87 344z M287 1069q0 -141 141 -186v354q-141 -16 -141 -168zM506 182q147 18 147 195q0 143 -147 201v-396z" />
<glyph unicode="%" horiz-adv-x="1492" d="M47 1065q0 389 262 389q256 0 256 -387t-258 -387q-260 0 -260 385zM215 1057q0 -131 19.5 -182.5t70.5 -51.5q53 0 72.5 53.5t19.5 190.5t-19.5 190.5t-70.5 53.5q-53 0 -72.5 -53.5t-19.5 -200.5zM346 -39l668 1493h125l-668 -1493h-125zM928 360q0 389 262 390 q256 0 256 -387.5t-258 -387.5q-260 0 -260 385zM1096 354q0 -133 19.5 -184t70.5 -51q53 0 72.5 53t19.5 193q0 137 -19.5 189t-70.5 52q-53 0 -72.5 -53.5t-19.5 -198.5z" />
<glyph unicode="&#x26;" horiz-adv-x="1212" d="M90 389q0 246 232 418l26 18q-111 158 -110 310q0 145 89 240t224 95q131 0 217 -95t86 -240q0 -207 -199 -355l170 -258q53 102 64 242h209q-12 -145 -42 -240.5t-98 -201.5l220 -322h-285l-82 125q-76 -88 -153.5 -126t-182.5 -38q-170 0 -277.5 120t-107.5 308z M326 408q0 -88 49 -146.5t123 -58.5q92 0 192 102l-221 338q-90 -80 -116.5 -123.5t-26.5 -111.5zM453 1137q0 -68 88 -187q61 51 84.5 91t23.5 92q0 53 -26.5 85.5t-71.5 32.5q-43 0 -70.5 -31.5t-27.5 -82.5z" />
<glyph unicode="'" horiz-adv-x="399" d="M117 915v555h166v-555h-166z" />
<glyph unicode="(" horiz-adv-x="559" d="M59 539q0 246 67 467t228 497h172q-127 -272 -176 -485t-49 -481q0 -264 50 -477.5t175 -483.5h-172q-158 268 -226.5 489.5t-68.5 473.5z" />
<glyph unicode=")" horiz-adv-x="559" d="M33 -424q125 266 175 481t50 484q0 262 -49 474t-176 488h172q162 -274 228.5 -493t66.5 -471q0 -246 -66.5 -469.5t-228.5 -493.5h-172z" />
<glyph unicode="*" horiz-adv-x="653" d="M45 1147l39 149l172 -69v243h141v-243l170 69l41 -149l-176 -66l115 -198l-105 -90l-114 186l-117 -186l-105 90l113 198z" />
<glyph unicode="+" horiz-adv-x="980" d="M117 424v176h286v287h177v-287h284v-176h-284v-285h-177v285h-286z" />
<glyph unicode="," horiz-adv-x="466" d="M106 0v301h252v-260q0 -330 -252 -385v108q72 29 103 81.5t39 154.5h-142z" />
<glyph unicode="-" horiz-adv-x="559" d="M45 440v267h469v-267h-469z" />
<glyph unicode="." horiz-adv-x="466" d="M106 0v301h252v-301h-252z" />
<glyph unicode="/" horiz-adv-x="466" d="M-55 -39l381 1548h196l-381 -1548h-196z" />
<glyph unicode="0" d="M53 702q0 393 103.5 572.5t316.5 179.5q408 0 408 -745q0 -385 -102.5 -566.5t-311.5 -181.5q-414 0 -414 741zM295 688q0 -276 38 -387t134 -111t134 114t38 405q0 289 -38 402.5t-132 113.5q-100 0 -137 -114t-37 -423z" />
<glyph unicode="1" d="M117 1001v201h33q274 0 292 252h193v-1454h-234v1001h-284z" />
<glyph unicode="2" d="M43 0q8 219 83 348t308 330q102 94 144.5 165.5t42.5 155.5q0 96 -46.5 154.5t-121.5 58.5q-88 0 -128 -63.5t-40 -208.5h-228q0 262 103.5 388t288.5 126q180 0 293.5 -127t113.5 -330q0 -221 -141 -376q-29 -33 -193 -175q-102 -90 -132 -121.5t-50 -72.5h518v-252 h-815z" />
<glyph unicode="3" d="M45 446h231v-18q2 -115 46.5 -176.5t124 -61.5t129 64.5t49.5 171.5q0 115 -60.5 162t-206.5 49v205h37q199 0 199 190q0 88 -40 140.5t-110 52.5q-158 0 -159 -238h-219q20 467 387 467q170 0 273 -108.5t103 -288.5q0 -195 -145 -287q182 -80 182 -340 q0 -209 -114.5 -339t-296.5 -130q-394 0 -410 485z" />
<glyph unicode="4" d="M45 322v245l438 887h267v-911h133v-221h-133v-322h-234v322h-471zM219 543h303v633z" />
<glyph unicode="5" d="M45 389h236q20 -199 163 -199q82 0 131.5 75t49.5 196t-48.5 191.5t-132.5 70.5q-100 0 -153 -105l-209 13l82 799h655v-242h-485l-43 -316q100 80 209 80q162 0 264 -131t102 -336q0 -238 -115.5 -381t-308.5 -143q-170 0 -276.5 110.5t-120.5 317.5z" />
<glyph unicode="6" d="M51 698q0 381 111.5 568.5t318.5 187.5q162 0 250 -86t117 -283h-234q-14 139 -135 140q-94 0 -139 -94.5t-59 -317.5q45 70 96 98.5t129 28.5q164 0 265 -127t101 -334q0 -231 -110.5 -374.5t-288.5 -143.5q-422 0 -422 737zM287 461q0 -119 51 -195t133 -76 q76 0 121 73t45 200q0 113 -47 180.5t-125 67.5q-82 0 -130 -67.5t-48 -182.5z" />
<glyph unicode="7" d="M45 1178v252h842v-220q-393 -532 -436 -1210h-242q37 641 426 1178h-590z" />
<glyph unicode="8" d="M53 416q0 129 43 212t140 144q-78 51 -112 117.5t-34 167.5q0 178 103.5 287.5t271.5 109.5q166 0 270.5 -106.5t104.5 -276.5q0 -193 -138 -289q98 -66 138.5 -142.5t40.5 -201.5q0 -213 -116 -345t-302 -132q-188 0 -299 123t-111 332zM295 422q0 -106 47 -169t125 -63 q76 0 124 64.5t48 167.5q0 100 -48 162.5t-124 62.5q-80 0 -126 -60.5t-46 -164.5zM315 1048.5q0 -79.5 44 -132t110 -52.5t105.5 49.5t39.5 130.5q0 80 -38.5 130.5t-102.5 50.5q-72 0 -115 -48.5t-43 -128z" />
<glyph unicode="9" d="M51 946q0 233 109.5 370.5t296.5 137.5q420 0 420 -729q0 -365 -112 -564.5t-325 -199.5q-150 0 -247 97.5t-117 277.5h231q14 -76 46 -111t89 -35q90 0 141.5 94.5t59.5 321.5q-78 -129 -229 -129q-162 0 -262.5 129t-100.5 340zM287 971q0 -264 170 -264q82 0 130 67.5 t48 183.5q0 119 -47 190t-127 71q-84 0 -129 -64.5t-45 -183.5z" />
<glyph unicode=":" horiz-adv-x="559" d="M154 0v301h252v-301h-252zM154 748v301h252v-301h-252z" />
<glyph unicode=";" horiz-adv-x="559" d="M154 0v301h252v-260q0 -162 -70 -265.5t-182 -119.5v108q72 29 102.5 81.5t38.5 154.5h-141zM154 748v301h252v-301h-252z" />
<glyph unicode="&#x3c;" horiz-adv-x="980" d="M168 453v118l580 652v-267l-396 -444l396 -444v-267z" />
<glyph unicode="=" horiz-adv-x="980" d="M117 240v176h747v-176h-747zM117 608v176h747v-176h-747z" />
<glyph unicode="&#x3e;" horiz-adv-x="980" d="M168 68l395 444l-395 444v267l580 -652v-118l-580 -652v267z" />
<glyph unicode="?" horiz-adv-x="1026" d="M100 1010q0 231 111 355t297 124q193 0 309.5 -117t116.5 -309q0 -119 -43 -201t-160 -186q-63 -55 -82.5 -102.5t-21.5 -147.5h-221q0 164 32.5 243t139.5 173q57 51 80.5 97t23.5 110q0 92 -44 145t-122 53t-128 -61.5t-50 -143.5v-32h-238zM399 0v291h246v-291h-246z " />
<glyph unicode="@" horiz-adv-x="1638" d="M199 733q0 324 188 550t461 226q250 0 420 -184t170 -455q0 -238 -135.5 -413.5t-296.5 -175.5q-82 0 -93 114q-92 -115 -180 -114q-111 0 -189.5 107.5t-78.5 258.5q0 203 105.5 349.5t252.5 146.5q70 0 116 -31t87 -102l23 108h147l-98 -522q-10 -49 -10.5 -88 t26.5 -39q76 0 131 107.5t55 254.5q0 229 -124.5 372t-327.5 143q-213 0 -347 -171t-134 -444q0 -268 139 -437t360 -169q195 0 353 166h149q-111 -178 -234.5 -254t-277.5 -76q-279 0 -468 223t-189 549zM645 664q0 -80 36 -129.5t95 -49.5q80 0 140.5 85t60.5 198 q0 76 -38 126t-95 50q-80 0 -139.5 -83.5t-59.5 -196.5z" />
<glyph unicode="A" horiz-adv-x="1212" d="M33 0l430 1470h291l426 -1470h-275l-78 303h-444l-84 -303h-266zM451 555h307l-152 590z" />
<glyph unicode="B" horiz-adv-x="1212" d="M127 0v1470h586q174 0 273 -102t99 -281q0 -109 -34.5 -178t-112.5 -116q186 -102 186 -351q0 -184 -104 -311q-63 -76 -144 -103.5t-239 -27.5h-510zM369 252h309q195 0 194 209q0 88 -48 136t-134 48h-321v-393zM369 895h295q86 0 133 43t47 125q0 156 -187 156h-288 v-324z" />
<glyph unicode="C" horiz-adv-x="1212" d="M74 731.5q0 358.5 150.5 568t408.5 209.5q209 0 349 -139t167 -381h-252q-31 131 -92.5 192.5t-165.5 61.5q-145 0 -227 -136t-82 -378q0 -236 79.5 -369t221.5 -133q104 0 168.5 64.5t97.5 212.5h252q-102 -543 -522 -543q-256 0 -404.5 206t-148.5 564.5z" />
<glyph unicode="D" horiz-adv-x="1212" d="M127 0v1470h532q233 0 362.5 -185t129.5 -519q0 -338 -131 -552t-371 -214h-522zM373 252h245q131 0 204 133t73 373q0 461 -281 461h-241v-967z" />
<glyph unicode="E" horiz-adv-x="1120" d="M127 0v1470h887v-260h-641v-309h590v-260h-590v-381h669v-260h-915z" />
<glyph unicode="F" horiz-adv-x="1026" d="M127 0v1470h858v-260h-606v-331h530v-261h-530v-618h-252z" />
<glyph unicode="G" horiz-adv-x="1306" d="M74 725q0 360 159.5 572t430.5 212q215 0 356 -130t174 -365h-254q-18 106 -94 174.5t-176 68.5q-158 0 -249 -143t-91 -389q0 -240 89 -372t251 -132q113 0 188.5 74t116.5 248h-283v250h506v-793h-168l-26 184q-88 -125 -171 -174t-206 -49q-248 0 -400.5 211 t-152.5 553z" />
<glyph unicode="H" horiz-adv-x="1212" d="M119 0v1470h252v-557h471v557h252v-1470h-252v662h-471v-662h-252z" />
<glyph unicode="I" horiz-adv-x="466" d="M106 0v1470h252v-1470h-252z" />
<glyph unicode="J" d="M37 555h235q0 -209 29 -275.5t119 -66.5q78 0 109.5 47t31.5 166v1044h252v-1044q0 -463 -389 -463q-246 0 -332 180q-33 63 -44 150.5t-11 261.5z" />
<glyph unicode="K" horiz-adv-x="1212" d="M145 0v1470h252v-598l461 598h326l-492 -602l520 -868h-323l-375 645l-117 -147v-498h-252z" />
<glyph unicode="L" horiz-adv-x="1026" d="M127 0v1470h252v-1204h600v-266h-852z" />
<glyph unicode="M" horiz-adv-x="1398" d="M117 0v1470h366l222 -1167l217 1167h362v-1470h-233v1247l-230 -1247h-248l-223 1247v-1247h-233z" />
<glyph unicode="N" horiz-adv-x="1212" d="M117 0v1470h264l483 -1032v1032h234v-1470h-250l-498 1055v-1055h-233z" />
<glyph unicode="O" horiz-adv-x="1306" d="M74 733q0 367 158.5 571.5t429.5 204.5q256 0 413.5 -206.5t157.5 -567.5q0 -362 -157.5 -568t-422.5 -206q-266 0 -422.5 207t-156.5 565zM326 739q0 -244 87 -381t240.5 -137t240.5 138.5t87 381.5q0 231 -88 369.5t-236 138.5q-156 0 -243.5 -136t-87.5 -374z" />
<glyph unicode="P" horiz-adv-x="1120" d="M127 0v1470h551q170 0 272.5 -124.5t102.5 -331.5q0 -219 -105.5 -350.5t-279.5 -131.5h-289v-532h-252zM379 784h233q188 0 189 224q0 113 -51.5 162t-169.5 49h-201v-435z" />
<glyph unicode="Q" horiz-adv-x="1306" d="M74 735.5q0 362.5 157.5 568t422 205.5t422 -205.5t157.5 -570.5q0 -303 -127 -522l131 -152l-133 -165l-141 165q-150 -98 -312 -98q-262 0 -419.5 206t-157.5 568.5zM326 743q0 -244 87 -383t238 -139q68 0 137 39l-120 139l129 166l129 -145q55 139 55 315 q0 238 -88 376t-240 138q-150 0 -238.5 -137.5t-88.5 -368.5z" />
<glyph unicode="R" horiz-adv-x="1212" d="M127 0v1470h608q174 0 277.5 -113.5t103.5 -303.5q0 -260 -186 -348q98 -53 125.5 -133t27.5 -310q0 -125 9.5 -166t44.5 -57v-39h-279q-29 131 -29 295q0 133 -20.5 192.5t-55 72.5t-120.5 13h-260v-573h-246zM373 823h297q100 0 147 48.5t47 148.5q0 96 -46 147.5 t-130 51.5h-315v-396z" />
<glyph unicode="S" horiz-adv-x="1120" d="M66 453h241q14 -240 262 -240q117 0 181.5 49t64.5 139q0 72 -46 111t-173 76l-129 37q-233 66 -308 155.5t-75 268.5q0 215 122 337.5t337 122.5q217 0 339 -121.5t136 -353.5h-242q-14 117 -71.5 170t-169.5 53q-100 0 -158 -48t-58 -130q0 -63 29 -98t98 -55l295 -88 q168 -51 242 -143.5t74 -256.5q0 -221 -131 -349t-359 -128q-233 0 -363 125t-138 367z" />
<glyph unicode="T" horiz-adv-x="1026" d="M23 1210v260h981v-260h-365v-1210h-252v1210h-364z" />
<glyph unicode="U" horiz-adv-x="1212" d="M121 496v974h256v-954q0 -141 59.5 -218t167.5 -77q115 0 174.5 72t59.5 209v968h256v-956q0 -270 -125 -411.5t-365 -141.5q-231 0 -357 140.5t-126 394.5z" />
<glyph unicode="V" horiz-adv-x="1120" d="M33 1470h270l260 -1122l262 1122h262l-409 -1470h-240z" />
<glyph unicode="W" horiz-adv-x="1585" d="M27 1470h268q164 -856 194 -1087l168 1087h269l180 -1087l199 1087h256l-340 -1470h-242l-188 1157l-138 -866l-51 -291h-233z" />
<glyph unicode="X" horiz-adv-x="1120" d="M23 0l389 752l-367 718h299l215 -475l221 475h291l-369 -706l394 -764h-308l-229 502l-242 -502h-294z" />
<glyph unicode="Y" horiz-adv-x="1120" d="M25 1470h297l249 -639l240 639h285l-404 -919v-551h-252v555z" />
<glyph unicode="Z" horiz-adv-x="1026" d="M41 0v260l625 950h-609v260h924v-241l-633 -969h637v-260h-944z" />
<glyph unicode="[" horiz-adv-x="559" d="M106 -401v1880h412v-199h-207v-1483h207v-198h-412z" />
<glyph unicode="\" horiz-adv-x="466" d="M-55 1509h196l381 -1548h-196z" />
<glyph unicode="]" horiz-adv-x="559" d="M41 -203h207v1483h-207v199h412v-1880h-412v198z" />
<glyph unicode="^" horiz-adv-x="980" d="M104 662l304 768h165l304 -768h-185l-203 538l-202 -538h-183z" />
<glyph unicode="_" d="M0 -154h934v-102h-934v102z" />
<glyph unicode="`" horiz-adv-x="559" d="M-51 1532h258l158 -299h-170z" />
<glyph unicode="a" d="M49 291q0 143 68.5 233t193.5 113l211 39q82 14 82 90q0 123 -145 123q-76 0 -111 -34t-45 -118h-225q20 207 112.5 294t278.5 87q174 0 269.5 -83t95.5 -232v-590q0 -143 51 -170v-43h-252q-14 55 -23 129q-70 -88 -133 -123t-149 -35q-129 0 -204 86.5t-75 233.5z M285 309q0 -61 30.5 -97t81.5 -36q86 0 146.5 62.5t60.5 152.5v139q-39 -35 -160 -59q-88 -18 -123.5 -55t-35.5 -107z" />
<glyph unicode="b" horiz-adv-x="1026" d="M102 0v1470h234v-528q51 94 112.5 135t147.5 41q170 0 272.5 -153.5t102.5 -407.5q0 -268 -102.5 -427t-274.5 -159q-178 0 -262 172v-143h-230zM328 535q0 -158 53 -243t151 -85q90 0 143.5 91t53.5 243q0 154 -53 240.5t-146 86.5q-98 0 -150 -85.5t-52 -247.5z" />
<glyph unicode="c" d="M57 530q0 276 113 432t311 156q172 0 275.5 -105.5t124.5 -312.5h-238q-16 92 -52 134.5t-99 42.5q-193 0 -193 -334q0 -336 178 -336q68 0 112 52t52 138h238q-27 -207 -131.5 -316.5t-278.5 -109.5q-199 0 -305.5 145.5t-106.5 413.5z" />
<glyph unicode="d" horiz-adv-x="1026" d="M57 557q0 254 102.5 407.5t272.5 153.5q86 0 146.5 -41t113.5 -135v528h234v-1470h-230v143q-84 -172 -262 -172q-172 0 -274.5 159t-102.5 427zM299 541q0 -154 53.5 -244t143.5 -90q98 0 151 85t53 240q0 160 -51 248t-145 88q-96 0 -150.5 -85.5t-54.5 -241.5z" />
<glyph unicode="e" d="M39 549q0 266 112.5 417.5t311.5 151.5q205 0 314.5 -155.5t109.5 -446.5v-51h-613q10 -137 59.5 -199.5t145.5 -62.5q121 0 156 119h242q-100 -350 -402 -351q-209 0 -322.5 151t-113.5 427zM281 653h364q-25 229 -184 230q-78 0 -121 -55.5t-59 -174.5z" />
<glyph unicode="f" horiz-adv-x="559" d="M16 885v205h129v88q0 162 67 236.5t208 74.5q57 0 110 -4v-232h-67q-55 0 -69.5 -21.5t-14.5 -98.5v-43h156v-205h-156v-885h-234v885h-129z" />
<glyph unicode="g" horiz-adv-x="1026" d="M68 555q0 256 102 409.5t270 153.5q92 0 154.5 -46t107.5 -150v168h226v-1033q0 -270 -108.5 -385.5t-327.5 -115.5q-360 0 -406 327h256q10 -57 46 -82.5t110 -25.5q102 0 148 58t46 190v141q-45 -94 -98 -132t-143 -38q-176 0 -279.5 150.5t-103.5 410.5zM309 547 q0 -145 50.5 -228t138.5 -83q94 0 145 81.5t51 229.5q0 143 -54 232t-142 89t-138.5 -85.5t-50.5 -235.5z" />
<glyph unicode="h" horiz-adv-x="1026" d="M109 0v1470h233v-530q72 178 268 178q139 0 223.5 -99t84.5 -265v-754h-234v662q0 113 -36 164t-116 51q-88 0 -139 -68t-51 -184v-625h-233z" />
<glyph unicode="i" horiz-adv-x="466" d="M117 0v1090h233v-1090h-233zM119 1266v235h233v-235h-233z" />
<glyph unicode="j" horiz-adv-x="466" d="M4 -209h43q70 0 70 100v1199h233v-1205q0 -182 -61.5 -252.5t-222.5 -70.5h-62v229zM119 1266v235h233v-235h-233z" />
<glyph unicode="k" d="M117 0v1470h233v-794l295 414h289l-316 -422l326 -668h-282l-213 467l-99 -123v-344h-233z" />
<glyph unicode="l" horiz-adv-x="466" d="M117 0v1470h233v-1470h-233z" />
<glyph unicode="m" horiz-adv-x="1492" d="M106 0v1090h226v-166q41 102 104.5 148t157.5 46q84 0 136 -37t106 -137q51 94 108 134t141 40q135 0 218 -100t83 -264v-754h-233v662q0 215 -133 215q-158 0 -158 -224v-653h-233v655q0 123 -31 172.5t-109 49.5q-150 0 -149 -213v-664h-234z" />
<glyph unicode="n" horiz-adv-x="1026" d="M109 0v1090h225v-166q92 195 274 194q141 0 225.5 -98t84.5 -266v-754h-234v662q0 113 -36 164t-116 51q-88 0 -139 -68t-51 -184v-625h-233z" />
<glyph unicode="o" horiz-adv-x="1026" d="M57 543q0 264 125 419.5t338 155.5q205 0 328 -157.5t123 -417.5t-125 -416t-332 -156t-332 156t-125 416zM299 545q0 -162 55.5 -247t159.5 -85t159.5 85t55.5 247q0 160 -55.5 246t-157.5 86q-217 0 -217 -332z" />
<glyph unicode="p" horiz-adv-x="1026" d="M104 -424v1514h226v-164q51 102 112.5 147t151.5 45q170 0 273.5 -153.5t103.5 -407.5q0 -268 -102.5 -427t-276.5 -159q-90 0 -148.5 40t-105.5 134v-569h-234zM330 532q0 -158 52 -241.5t150 -83.5q90 0 143.5 91t53.5 245q0 152 -53 238.5t-148 86.5q-198 0 -198 -336 z" />
<glyph unicode="q" horiz-adv-x="1026" d="M57 535q0 260 107.5 421.5t281.5 161.5q90 0 150.5 -46t105.5 -150v168h226v-1514h-234v565q-45 -90 -104.5 -130t-151.5 -40q-172 0 -276.5 155t-104.5 409zM299 528q0 -315 199 -315q96 0 148 85t52 241q0 152 -54 240.5t-146 88.5q-94 0 -146.5 -89t-52.5 -251z" />
<glyph unicode="r" horiz-adv-x="653" d="M106 0v1090h226v-195q53 125 107.5 174t140.5 49q20 0 47 -4v-291q-33 4 -60 4q-227 0 -227 -260v-567h-234z" />
<glyph unicode="s" d="M51 348h242q6 -158 190 -158q72 0 113 31t41 82q0 82 -195 121q-186 35 -272 114.5t-86 217.5q0 168 99.5 265t271.5 97q178 0 272 -82t119 -278h-232q-12 80 -47 110.5t-112 30.5q-141 0 -142 -102q0 -84 193 -119q193 -37 279.5 -121t86.5 -217q0 -172 -106.5 -270.5 t-290.5 -98.5q-389 0 -424 377z" />
<glyph unicode="t" horiz-adv-x="559" d="M16 885v205h121v294h234v-294h147v-205h-147v-592q0 -57 17.5 -72.5t78.5 -15.5q25 0 51 4v-217q-80 -4 -112 -4h-31q-129 0 -183.5 53t-54.5 182v662h-121z" />
<glyph unicode="u" horiz-adv-x="1026" d="M111 373v717h233v-676q0 -201 152 -201q88 0 137 66.5t49 181.5v629h233v-1090h-225v160q-90 -188 -278 -189q-143 0 -222 104.5t-79 297.5z" />
<glyph unicode="v" d="M23 1090h262l186 -811l191 811h249l-321 -1090h-248z" />
<glyph unicode="w" horiz-adv-x="1306" d="M16 1090h250l142 -793l129 793h235l137 -793l142 793h241l-258 -1090h-241l-142 805l-141 -805h-242z" />
<glyph unicode="x" d="M25 0l305 555l-293 535h285l151 -318l150 318h276l-295 -535l305 -555h-291l-155 328l-154 -328h-284z" />
<glyph unicode="y" d="M16 1090h263l192 -811l184 811h250l-307 -1072q-90 -315 -139 -380q-55 -76 -201 -76l-113 4v229q33 -4 50 -4q76 0 105.5 32t45.5 132z" />
<glyph unicode="z" horiz-adv-x="839" d="M33 0v223l461 637h-428v230h725v-236l-453 -618h469v-236h-774z" />
<glyph unicode="{" horiz-adv-x="653" d="M80 444v189q76 6 117 46t41 109v410q0 121 66.5 201t168.5 80h139v-181h-75q-94 0 -95 -135v-401q0 -84 -53 -144.5t-147 -78.5q94 -18 147 -80t53 -144v-401q0 -135 95 -135h75v-180h-139q-102 0 -168.5 79.5t-66.5 200.5v410q0 143 -158 155z" />
<glyph unicode="|" horiz-adv-x="471" d="M147 -401v1880h177v-1880h-177z" />
<glyph unicode="}" horiz-adv-x="653" d="M41 -221h76q94 0 94 135v401q0 82 53 143.5t148 80.5q-94 18 -147.5 78.5t-53.5 144.5v401q0 135 -94 135h-76v181h139q100 0 168 -80t68 -201v-410q0 -70 41 -109.5t116 -45.5v-189q-158 -12 -157 -155v-410q0 -121 -67.5 -200.5t-168.5 -79.5h-139v180z" />
<glyph unicode="~" horiz-adv-x="980" d="M102 496q53 106 101.5 149t118.5 43q37 0 161.5 -52t165.5 -52q72 0 115 73l115 -110q-53 -106 -101.5 -149.5t-118.5 -43.5q-37 0 -162.5 52.5t-164.5 52.5q-72 0 -115 -76z" />
<glyph unicode="&#xa1;" horiz-adv-x="559" d="M150 -6l67 688h123l68 -688v-375h-258v375zM156 799v291h245v-291h-245z" />
<glyph unicode="&#xa2;" d="M57 526q0 283 112 437.5t316 154.5q35 0 76 -6l41 174h86l-45 -201q217 -96 238 -385h-238q-18 98 -57 140l-148 -625q16 -8 41 -8q66 0 111 53t51 137h238q-27 -207 -131.5 -316.5t-278.5 -109.5q-51 0 -84 9l-51 -222h-88l57 246q-127 68 -186.5 193.5t-59.5 328.5z M299 543q0 -190 63 -279l144 613h-21q-90 0 -138 -86t-48 -248z" />
<glyph unicode="&#xa3;" d="M47 657v123h98q-70 178 -69 277q0 180 112.5 296.5t288.5 116.5q186 0 290.5 -117.5t115.5 -355.5h-219q-20 150 -60.5 197t-120.5 47q-76 0 -124 -53t-48 -137q0 -47 82 -271h240v-123h-201q8 -63 8 -110q0 -98 -39 -171t-141 -175q127 59 205 59q33 0 113.5 -25.5 t93.5 -25.5q72 0 168 74l69 -224q-127 -92 -250 -92q-78 0 -208 53q-70 29 -121 29q-35 0 -67 -12t-118 -60l-92 199q80 55 133.5 141t53.5 158q0 78 -37 182h-156z" />
<glyph unicode="&#xa4;" d="M90 544.5q0 108.5 57 200.5l-28 27l125 125l26 -29q92 57 201 57.5t201 -57.5l26 29l125 -125l-28 -27q57 -92 57 -200.5t-57 -200.5l28 -27l-125 -124l-26 28q-92 -57 -201 -57t-201 57l-26 -28l-125 124l28 27q-57 92 -57 200.5zM266 545q0 -84 60.5 -144.5 t144.5 -60.5t144.5 60.5t60.5 144.5t-60.5 144.5t-144.5 60.5t-144.5 -60.5t-60.5 -144.5z" />
<glyph unicode="&#xa5;" d="M-14 1430h252l239 -603l232 603h239l-252 -601h226v-122h-279l-63 -152h342v-123h-344v-432h-211v432h-340v123h340l-68 152h-272v122h219z" />
<glyph unicode="&#xa6;" horiz-adv-x="471" d="M147 350h177v-751h-177v751zM147 727v752h177v-752h-177z" />
<glyph unicode="&#xa7;" d="M57 602q0 94 35 156.5t121 126.5q-86 106 -86 239q0 158 96 261.5t246 103.5q305 0 336 -375h-213q-14 156 -129 156q-53 0 -88 -33t-35 -84q0 -66 63 -104l273 -166q201 -125 201 -314q0 -190 -160 -295q104 -113 104 -268q0 -168 -102.5 -275.5t-263.5 -107.5 q-154 0 -244 99.5t-105 283.5h222q18 -164 143 -164q57 0 91 40t34 106q0 43 -21.5 73.5t-76.5 63.5l-258 160q-98 61 -140.5 133.5t-42.5 183.5zM256 659q0 -70 78 -120l262 -172q72 51 72 131q0 76 -95 135l-245 151q-72 -37 -72 -125z" />
<glyph unicode="&#xa8;" horiz-adv-x="559" d="M12 1266v235h197v-235h-197zM350 1266v235h197v-235h-197z" />
<glyph unicode="&#xa9;" horiz-adv-x="1236" d="M41 674q0 289 163 500.5t414.5 211.5t414.5 -211.5t163 -500.5t-163 -501t-414.5 -212t-414.5 212t-163 501zM156 673.5q0 -241.5 128 -419.5t334.5 -178t334.5 178t128 419.5t-128 420t-334.5 178.5t-334.5 -178.5t-128 -420zM299 671.5q0 190.5 89 303t241 112.5 q127 0 212 -78.5t95 -215.5h-168q-31 131 -135 131q-78 0 -120 -66.5t-42 -185.5q0 -115 42 -180.5t116 -65.5q109 0 139 143h170q-59 -307 -311 -307q-152 0 -240 109.5t-88 300z" />
<glyph unicode="&#xaa;" horiz-adv-x="620" d="M37 1012q0 84 46 141t126 72l139 22q53 8 53 47q0 68 -94 68q-49 0 -71.5 -18.5t-30.5 -63.5h-148q16 123 74.5 176t179.5 53q113 0 175.5 -50t62.5 -140v-354q0 -86 35 -101v-26h-164q-8 25 -14 77q-80 -94 -185 -94q-84 0 -134 51.5t-50 139.5zM53 565v164h508v-164 h-508zM195 1024q0 -76 71 -76q57 0 96 37t39 90v82q-18 -12 -74.5 -25.5t-94 -37t-37.5 -70.5z" />
<glyph unicode="&#xab;" d="M147 451v245l281 295v-237l-168 -181l168 -180v-237zM506 451v245l280 295v-237l-168 -181l168 -180v-237z" />
<glyph unicode="&#xac;" horiz-adv-x="980" d="M117 608v176h747v-456h-176v280h-571z" />
<glyph unicode="&#xad;" horiz-adv-x="559" d="M45 440v267h469v-267h-469z" />
<glyph unicode="&#xae;" horiz-adv-x="1236" d="M41 674q0 289 163 500.5t414.5 211.5t414.5 -211.5t163 -500.5t-163 -501t-414.5 -212t-414.5 212t-163 501zM156 673.5q0 -241.5 128 -419.5t334.5 -178t334.5 178t128 419.5t-128 420t-334.5 178.5t-334.5 -178.5t-128 -420zM319 283v784h359q104 0 166.5 -62.5 t62.5 -166.5q0 -125 -90 -179q43 -27 57.5 -71.5t14.5 -157.5q0 -66 4 -82t25 -22v-43h-181q-20 82 -20 166q0 88 -18.5 108.5t-80.5 20.5h-133v-295h-166zM485 733h156q96 0 96 88q0 90 -86 90h-166v-178z" />
<glyph unicode="&#xaf;" horiz-adv-x="559" d="M-10 1309v149h579v-149h-579z" />
<glyph unicode="&#xb0;" horiz-adv-x="671" d="M96 1165q0 121 71 207t171 86q96 0 166.5 -87t70.5 -206q0 -121 -70.5 -207t-168.5 -86t-169 86t-71 207zM190 1165q0 -72 43 -124t102.5 -52t102.5 52.5t43 124t-43 123.5t-100 52q-61 0 -104.5 -51t-43.5 -125z" />
<glyph unicode="&#xb1;" horiz-adv-x="980" d="M117 0v176h747v-176h-747zM117 600v176h286v287h177v-287h284v-176h-284v-266h-177v266h-286z" />
<glyph unicode="&#xb2;" horiz-adv-x="559" d="M14 580q8 135 56.5 214.5t191.5 192.5q70 57 95.5 103.5t25.5 109.5q0 49 -30.5 84t-71.5 35q-55 0 -81 -41t-30 -135h-147q12 336 256 336q117 0 190.5 -83t73.5 -216q0 -109 -37 -168.5t-164 -159.5q-88 -70 -111 -104h314v-168h-531z" />
<glyph unicode="&#xb3;" horiz-adv-x="559" d="M14 870h150q2 -162 110.5 -161.5t108.5 145.5q0 72 -36 99.5t-130 27.5v131h25q66 0 94.5 24.5t28.5 82.5q0 106 -93 106q-98 0 -102 -127h-141q2 141 68.5 211t183.5 70q111 0 177 -65.5t66 -174.5q0 -121 -96 -174q119 -49 119 -209q0 -133 -75 -217t-193 -84 q-123 0 -189 72.5t-76 242.5z" />
<glyph unicode="&#xb4;" horiz-adv-x="559" d="M195 1233l157 299h258l-245 -299h-170z" />
<glyph unicode="&#xb5;" horiz-adv-x="1026" d="M111 -424v1514h233v-676q0 -201 152 -201q88 0 137 66.5t49 181.5v629h233v-1090h-225v160q-88 -188 -223 -189q-76 0 -123 54v-449h-233z" />
<glyph unicode="&#xb6;" d="M-14 1071q0 184 101 273.5t308 89.5h510v-1825h-188v1651h-170v-1651h-189v1102q-372 18 -372 360z" />
<glyph unicode="&#xb7;" horiz-adv-x="466" d="M106 512q0 53 37 90t90.5 37t90 -37t36.5 -90t-36.5 -90t-90 -37t-90.5 37t-37 90z" />
<glyph unicode="&#xb8;" horiz-adv-x="559" d="M10 -440l37 98q92 -33 127 -33q39 0 59.5 28t20.5 64q0 31 -19.5 52.5t-46.5 21.5q-20 0 -65 -16l-35 41l92 188h99l-56 -121h41q66 0 107 -45t41 -114q0 -92 -59.5 -154t-153.5 -62q-74 1 -189 52z" />
<glyph unicode="&#xb9;" horiz-adv-x="559" d="M43 1176v127h23q176 0 188 151h143v-874h-170v596h-184z" />
<glyph unicode="&#xba;" horiz-adv-x="612" d="M10 1165q0 156 83 250t218 94q129 0 211 -96t82 -247.5t-83 -248t-214 -96.5q-133 0 -215 95t-82 249zM55 565v164h502v-164h-502zM174 1165q0 -88 37 -142t96.5 -54t96 54t36.5 142q0 86 -36.5 141.5t-94.5 55.5q-61 0 -98 -54.5t-37 -142.5z" />
<glyph unicode="&#xbb;" d="M147 156v237l168 180l-168 181v237l281 -295v-245zM506 156v237l168 180l-168 181v237l280 -295v-245z" />
<glyph unicode="&#xbc;" horiz-adv-x="1400" d="M43 1176v127h23q176 0 188 151h143v-874h-170v596h-184zM227 -51l719 1505h131l-717 -1505h-133zM735 184v150l285 534h182v-544h84v-140h-84v-184h-160v184h-307zM856 322h197v380z" />
<glyph unicode="&#xbd;" horiz-adv-x="1400" d="M43 1176v127h23q176 0 188 151h143v-874h-170v596h-184zM227 -51l719 1505h131l-717 -1505h-133zM805 0q6 135 54 215t192 193q70 57 95 103t25 110q0 49 -29.5 83.5t-72.5 34.5q-102 0 -108 -176h-148q2 168 69.5 252t184.5 84t190.5 -83t73.5 -216q0 -109 -37 -169 t-164 -159q-82 -66 -110 -104h313v-168h-528z" />
<glyph unicode="&#xbe;" horiz-adv-x="1400" d="M27 870h151l-2 -22q0 -63 31 -101t82 -38q109 0 108 145q0 72 -36.5 99.5t-131.5 27.5v131h25q66 0 94.5 24.5t28.5 82.5q0 106 -92 106q-98 0 -103 -127h-143q14 281 252 281q111 0 178.5 -65.5t67.5 -174.5q0 -121 -97 -174q121 -49 121 -209q0 -133 -74.5 -217 t-195.5 -84q-250 0 -264 315zM301 -51l719 1505h131l-717 -1505h-133zM791 184v150l284 534h182v-544h84v-140h-84v-184h-159v184h-307zM909 324h193v370z" />
<glyph unicode="&#xbf;" horiz-adv-x="1026" d="M92 27q0 119 43 200.5t160 186.5q63 55 82.5 102t21.5 148h222q0 -164 -33 -243t-139 -173q-57 -51 -81 -97.5t-24 -109.5q0 -92 44 -145.5t122 -53.5t128 61.5t50 143.5v33h238q0 -231 -110.5 -355t-297.5 -124q-193 0 -309.5 116.5t-116.5 309.5zM381 799v291h246v-291 h-246z" />
<glyph unicode="&#xc0;" horiz-adv-x="1212" d="M33 0l430 1470h291l426 -1470h-275l-78 303h-444l-84 -303h-266zM274 1872h269l147 -258h-160zM451 555h307l-152 590z" />
<glyph unicode="&#xc1;" horiz-adv-x="1212" d="M33 0l430 1470h291l426 -1470h-275l-78 303h-444l-84 -303h-266zM451 555h307l-152 590zM528 1614l148 258h268l-256 -258h-160z" />
<glyph unicode="&#xc2;" horiz-adv-x="1212" d="M33 0l430 1470h291l426 -1470h-275l-78 303h-444l-84 -303h-266zM291 1614l211 258h211l211 -258h-191l-127 127l-125 -127h-190zM451 555h307l-152 590z" />
<glyph unicode="&#xc3;" horiz-adv-x="1212" d="M33 0l430 1470h291l426 -1470h-275l-78 303h-444l-84 -303h-266zM301 1614q43 252 203 252q12 0 113.5 -37t111.5 -37q59 0 80 82h109q-41 -246 -181 -246q-23 0 -127 37t-125 37q-59 0 -77 -88h-107zM451 555h307l-152 590z" />
<glyph unicode="&#xc4;" horiz-adv-x="1212" d="M33 0l430 1470h291l426 -1470h-275l-78 303h-444l-84 -303h-266zM342 1626v236h197v-236h-197zM451 555h307l-152 590zM680 1626v236h197v-236h-197z" />
<glyph unicode="&#xc5;" horiz-adv-x="1212" d="M33 0l430 1470h291l426 -1470h-275l-78 303h-444l-84 -303h-266zM397 1786q0 72 64.5 125t148.5 53t148.5 -54.5t64.5 -127.5q0 -72 -63.5 -126t-149.5 -54t-149.5 54t-63.5 130zM451 555h307l-152 590zM504 1784q0 -37 30.5 -62.5t75.5 -25.5t76 25.5t31 60.5 q0 37 -31 62.5t-76 25.5q-43 0 -74.5 -25.5t-31.5 -60.5z" />
<glyph unicode="&#xc6;" horiz-adv-x="1679" d="M8 0l441 1470h1140v-260h-622v-309h561v-260h-561v-381h635v-260h-881v313h-361l-88 -313h-264zM426 555h295v655h-109z" />
<glyph unicode="&#xc7;" horiz-adv-x="1212" d="M74 731q0 358 150.5 568t408.5 210q209 0 349 -139t167 -381h-252q-31 131 -92.5 192.5t-165.5 61.5q-145 0 -227 -136t-82 -378q0 -236 79.5 -369t221.5 -133q104 0 168.5 64.5t97.5 212.5h252q-98 -516 -479 -541l-37 -80h41q66 0 106.5 -45t40.5 -114 q0 -92 -59.5 -154t-153.5 -62q-74 0 -188 52l37 98q92 -33 127 -33q39 0 59.5 28t20.5 64q0 31 -19.5 52.5t-46.5 21.5q-20 0 -66 -16l-34 41l71 147q-231 23 -363 226.5t-132 541.5z" />
<glyph unicode="&#xc8;" horiz-adv-x="1120" d="M127 0v1470h887v-260h-641v-309h590v-260h-590v-381h669v-260h-915zM238 1872h268l147 -258h-159z" />
<glyph unicode="&#xc9;" horiz-adv-x="1120" d="M127 0v1470h887v-260h-641v-309h590v-260h-590v-381h669v-260h-915zM492 1614l147 258h268l-256 -258h-159z" />
<glyph unicode="&#xca;" horiz-adv-x="1120" d="M127 0v1470h887v-260h-641v-309h590v-260h-590v-381h669v-260h-915zM254 1614l211 258h211l211 -258h-191l-127 127l-125 -127h-190z" />
<glyph unicode="&#xcb;" horiz-adv-x="1120" d="M127 0v1470h887v-260h-641v-309h590v-260h-590v-381h669v-260h-915zM305 1626v236h197v-236h-197zM643 1626v236h197v-236h-197z" />
<glyph unicode="&#xcc;" horiz-adv-x="466" d="M-57 1872h268l147 -258h-159zM106 0v1470h252v-1470h-252z" />
<glyph unicode="&#xcd;" horiz-adv-x="466" d="M106 0v1470h252v-1470h-252zM109 1614l147 258h268l-256 -258h-159z" />
<glyph unicode="&#xce;" horiz-adv-x="466" d="M-84 1614l211 258h211l211 -258h-191l-127 127l-125 -127h-190zM106 0v1470h252v-1470h-252z" />
<glyph unicode="&#xcf;" horiz-adv-x="466" d="M-33 1626v236h197v-236h-197zM106 0v1470h252v-1470h-252zM305 1626v236h197v-236h-197z" />
<glyph unicode="&#xd0;" horiz-adv-x="1212" d="M-8 649v252h135v569h532q233 0 362.5 -184t129.5 -518q0 -340 -129 -554t-373 -214h-522v649h-135zM373 252h248q129 0 201.5 133t72.5 371q0 463 -279 463h-243v-318h280v-252h-280v-397z" />
<glyph unicode="&#xd1;" horiz-adv-x="1212" d="M117 0v1470h264l483 -1032v1032h234v-1470h-250l-498 1055v-1055h-233zM301 1614q43 252 203 252q12 0 113.5 -37t111.5 -37q59 0 80 82h109q-41 -246 -181 -246q-23 0 -127 37t-125 37q-59 0 -77 -88h-107z" />
<glyph unicode="&#xd2;" horiz-adv-x="1306" d="M74 733q0 367 158.5 571.5t429.5 204.5q256 0 413.5 -206.5t157.5 -567.5q0 -362 -157.5 -568t-422.5 -206q-266 0 -422.5 207t-156.5 565zM326 739q0 -244 87 -381t240.5 -137t240.5 138.5t87 381.5q0 231 -88 369.5t-236 138.5q-156 0 -243.5 -136t-87.5 -374z M328 1872h268l147 -258h-159z" />
<glyph unicode="&#xd3;" horiz-adv-x="1306" d="M74 733q0 367 158.5 571.5t429.5 204.5q256 0 413.5 -206.5t157.5 -567.5q0 -362 -157.5 -568t-422.5 -206q-266 0 -422.5 207t-156.5 565zM326 739q0 -244 87 -381t240.5 -137t240.5 138.5t87 381.5q0 231 -88 369.5t-236 138.5q-156 0 -243.5 -136t-87.5 -374z M582 1614l147 258h268l-256 -258h-159z" />
<glyph unicode="&#xd4;" horiz-adv-x="1306" d="M74 733q0 367 158.5 571.5t429.5 204.5q256 0 413.5 -206.5t157.5 -567.5q0 -362 -157.5 -568t-422.5 -206q-266 0 -422.5 207t-156.5 565zM326 739q0 -244 87 -381t240.5 -137t240.5 138.5t87 381.5q0 231 -88 369.5t-236 138.5q-156 0 -243.5 -136t-87.5 -374z M344 1614l211 258h211l211 -258h-191l-127 127l-124 -127h-191z" />
<glyph unicode="&#xd5;" horiz-adv-x="1306" d="M74 733q0 367 158.5 571.5t429.5 204.5q256 0 413.5 -206.5t157.5 -567.5q0 -362 -157.5 -568t-422.5 -206q-266 0 -422.5 207t-156.5 565zM326 739q0 -244 87 -381t240.5 -137t240.5 138.5t87 381.5q0 231 -88 369.5t-236 138.5q-156 0 -243.5 -136t-87.5 -374z M354 1614q43 252 203 252q12 0 113.5 -37t111.5 -37q59 0 80 82h109q-41 -246 -180 -246q-23 0 -127.5 37t-124.5 37q-59 0 -78 -88h-107z" />
<glyph unicode="&#xd6;" horiz-adv-x="1306" d="M74 733q0 367 158.5 571.5t429.5 204.5q256 0 413.5 -206.5t157.5 -567.5q0 -362 -157.5 -568t-422.5 -206q-266 0 -422.5 207t-156.5 565zM326 739q0 -244 87 -381t240.5 -137t240.5 138.5t87 381.5q0 231 -88 369.5t-236 138.5q-156 0 -243.5 -136t-87.5 -374z M395 1626v236h197v-236h-197zM733 1626v236h197v-236h-197z" />
<glyph unicode="&#xd7;" horiz-adv-x="980" d="M164 311l203 203l-203 201l125 125l203 -203l200 203l125 -125l-201 -201l201 -203l-125 -125l-200 203l-203 -203z" />
<glyph unicode="&#xd8;" horiz-adv-x="1306" d="M55 23l144 190q-125 215 -125 518q0 365 157.5 571.5t419.5 206.5q211 0 391 -166l138 183l69 -78l-141 -188q125 -215 125 -521q0 -365 -157.5 -571.5t-422.5 -206.5q-219 0 -389 168l-139 -184zM326 733q0 -164 45 -287l510 682q-98 121 -228 121q-152 0 -239.5 -138 t-87.5 -378zM424 344q96 -123 229 -123q152 0 240 138.5t88 375.5q0 172 -47 291z" />
<glyph unicode="&#xd9;" horiz-adv-x="1212" d="M121 496v974h256v-954q0 -141 59.5 -218t167.5 -77q115 0 174.5 72t59.5 209v968h256v-956q0 -270 -125 -411.5t-365 -141.5q-231 0 -357 140.5t-126 394.5zM274 1872h269l147 -258h-160z" />
<glyph unicode="&#xda;" horiz-adv-x="1212" d="M121 496v974h256v-954q0 -141 59.5 -218t167.5 -77q115 0 174.5 72t59.5 209v968h256v-956q0 -270 -125 -411.5t-365 -141.5q-231 0 -357 140.5t-126 394.5zM528 1614l148 258h268l-256 -258h-160z" />
<glyph unicode="&#xdb;" horiz-adv-x="1212" d="M121 496v974h256v-954q0 -141 59.5 -218t167.5 -77q115 0 174.5 72t59.5 209v968h256v-956q0 -270 -125 -411.5t-365 -141.5q-231 0 -357 140.5t-126 394.5zM291 1614l211 258h211l211 -258h-191l-127 127l-125 -127h-190z" />
<glyph unicode="&#xdc;" horiz-adv-x="1212" d="M121 496v974h256v-954q0 -141 59.5 -218t167.5 -77q115 0 174.5 72t59.5 209v968h256v-956q0 -270 -125 -411.5t-365 -141.5q-231 0 -357 140.5t-126 394.5zM342 1626v236h197v-236h-197zM680 1626v236h197v-236h-197z" />
<glyph unicode="&#xdd;" horiz-adv-x="1120" d="M25 1470h297l249 -639l240 639h285l-404 -919v-551h-252v555zM487 1614l148 258h268l-256 -258h-160z" />
<glyph unicode="&#xde;" horiz-adv-x="1120" d="M127 0v1470h252v-200h299q170 0 272.5 -126t102.5 -337q0 -219 -105.5 -350t-279.5 -131h-289v-326h-252zM379 578h233q188 0 189 225q0 113 -52.5 164t-168.5 51h-201v-440z" />
<glyph unicode="&#xdf;" horiz-adv-x="1026" d="M117 0v1104q0 180 106.5 286.5t288.5 106.5q184 0 288.5 -103.5t104.5 -285.5t-123 -266q104 -66 147.5 -149t43.5 -220q0 -229 -109.5 -365.5t-296.5 -136.5q-35 0 -98 13v225h8q8 -2 41 -2q219 0 219 252q0 129 -56 184t-200 68v198q109 4 149 42t40 134 q0 88 -43 135.5t-121 47.5q-72 0 -114 -49.5t-42 -133.5v-1085h-233z" />
<glyph unicode="&#xe0;" d="M49 291q0 143 68.5 233t193.5 113l211 39q82 14 82 90q0 123 -145 123q-76 0 -111 -34t-45 -118h-225q20 207 112.5 294t278.5 87q174 0 269.5 -83t95.5 -232v-590q0 -143 51 -170v-43h-252q-14 55 -23 129q-70 -88 -133 -123t-149 -35q-129 0 -204 86.5t-75 233.5z M139 1532h258l158 -299h-170zM285 309q0 -61 30.5 -97t81.5 -36q86 0 146.5 62.5t60.5 152.5v139q-39 -35 -160 -59q-88 -18 -123.5 -55t-35.5 -107z" />
<glyph unicode="&#xe1;" d="M49 291q0 143 68.5 233t193.5 113l211 39q82 14 82 90q0 123 -145 123q-76 0 -111 -34t-45 -118h-225q20 207 112.5 294t278.5 87q174 0 269.5 -83t95.5 -232v-590q0 -143 51 -170v-43h-252q-14 55 -23 129q-70 -88 -133 -123t-149 -35q-129 0 -204 86.5t-75 233.5z M285 309q0 -61 30.5 -97t81.5 -36q86 0 146.5 62.5t60.5 152.5v139q-39 -35 -160 -59q-88 -18 -123.5 -55t-35.5 -107zM383 1233l158 299h258l-246 -299h-170z" />
<glyph unicode="&#xe2;" d="M49 291q0 143 68.5 233t193.5 113l211 39q82 14 82 90q0 123 -145 123q-76 0 -111 -34t-45 -118h-225q20 207 112.5 294t278.5 87q174 0 269.5 -83t95.5 -232v-590q0 -143 51 -170v-43h-252q-14 55 -23 129q-70 -88 -133 -123t-149 -35q-129 0 -204 86.5t-75 233.5z M172 1233l190 299h211l191 -299h-191l-106 168l-105 -168h-190zM285 309q0 -61 30.5 -97t81.5 -36q86 0 146.5 62.5t60.5 152.5v139q-39 -35 -160 -59q-88 -18 -123.5 -55t-35.5 -107z" />
<glyph unicode="&#xe3;" d="M49 291q0 143 68.5 233t193.5 113l211 39q82 14 82 90q0 123 -145 123q-76 0 -111 -34t-45 -118h-225q20 207 112.5 294t278.5 87q174 0 269.5 -83t95.5 -232v-590q0 -143 51 -170v-43h-252q-14 55 -23 129q-70 -88 -133 -123t-149 -35q-129 0 -204 86.5t-75 233.5z M160 1253q41 252 202 252q12 0 114 -36.5t112 -36.5q59 0 80 81h108q-41 -246 -180 -245q-23 0 -127 36.5t-125 36.5q-59 0 -78 -88h-106zM285 309q0 -61 30.5 -97t81.5 -36q86 0 146.5 62.5t60.5 152.5v139q-39 -35 -160 -59q-88 -18 -123.5 -55t-35.5 -107z" />
<glyph unicode="&#xe4;" d="M49 291q0 143 68.5 233t193.5 113l211 39q82 14 82 90q0 123 -145 123q-76 0 -111 -34t-45 -118h-225q20 207 112.5 294t278.5 87q174 0 269.5 -83t95.5 -232v-590q0 -143 51 -170v-43h-252q-14 55 -23 129q-70 -88 -133 -123t-149 -35q-129 0 -204 86.5t-75 233.5z M201 1266v235h196v-235h-196zM285 309q0 -61 30.5 -97t81.5 -36q86 0 146.5 62.5t60.5 152.5v139q-39 -35 -160 -59q-88 -18 -123.5 -55t-35.5 -107zM539 1266v235h196v-235h-196z" />
<glyph unicode="&#xe5;" d="M49 291q0 143 68.5 233t193.5 113l211 39q82 14 82 90q0 123 -145 123q-76 0 -111 -34t-45 -118h-225q20 207 112.5 294t278.5 87q174 0 269.5 -83t95.5 -232v-590q0 -143 51 -170v-43h-252q-14 55 -23 129q-70 -88 -133 -123t-149 -35q-129 0 -204 86.5t-75 233.5z M256 1386q0 72 64.5 125.5t148.5 53.5t148.5 -54.5t64.5 -128.5q0 -72 -63.5 -126t-149.5 -54t-149.5 54t-63.5 130zM285 309q0 -61 30.5 -97t81.5 -36q86 0 146.5 62.5t60.5 152.5v139q-39 -35 -160 -59q-88 -18 -123.5 -55t-35.5 -107zM362 1384q0 -37 31 -62.5t76 -25.5 t75.5 26t30.5 60q0 37 -30.5 62.5t-75.5 25.5q-43 0 -75 -25.5t-32 -60.5z" />
<glyph unicode="&#xe6;" horiz-adv-x="1492" d="M49 301q0 127 60.5 210t166.5 105l220 46q78 14 99 32.5t21 71.5q0 63 -36.5 93t-118.5 30q-76 0 -111 -37t-39 -117h-229q18 199 114.5 291t276.5 92q168 0 287 -121q70 68 130 94.5t140 26.5q195 0 303.5 -158.5t108.5 -443.5v-51h-613q10 -137 59.5 -199.5 t145.5 -62.5q121 0 156 119h242q-100 -350 -406 -351q-117 0 -187.5 39t-133.5 137q-104 -176 -338 -176q-154 0 -236 86t-82 244zM285 309q0 -63 32.5 -98t92.5 -35q80 0 141 63.5t61 145.5v135q-33 -35 -174 -61q-90 -16 -121.5 -48t-31.5 -102zM836 653h364 q-25 229 -184 230q-78 0 -121 -55.5t-59 -174.5z" />
<glyph unicode="&#xe7;" d="M57 530q0 276 113 432t311 156q172 0 275.5 -105.5t124.5 -312.5h-238q-16 92 -52 134.5t-99 42.5q-193 0 -193 -334q0 -336 178 -336q68 0 112 52t52 138h238q-25 -195 -119 -303t-250 -121l-41 -90h41q66 0 106.5 -45t40.5 -114q0 -92 -59 -154t-154 -62q-74 0 -188 52 l37 98q92 -33 127 -33q39 0 59.5 28t20.5 64q0 31 -19.5 52.5t-46.5 21.5q-20 0 -65 -16l-35 41l78 159q-170 20 -262.5 163.5t-92.5 391.5z" />
<glyph unicode="&#xe8;" d="M39 549q0 266 112.5 417.5t311.5 151.5q205 0 314.5 -155.5t109.5 -446.5v-51h-613q10 -137 59.5 -199.5t145.5 -62.5q121 0 156 119h242q-100 -350 -402 -351q-209 0 -322.5 151t-113.5 427zM137 1532h258l158 -299h-170zM281 653h364q-25 229 -184 230 q-78 0 -121 -55.5t-59 -174.5z" />
<glyph unicode="&#xe9;" d="M39 549q0 266 112.5 417.5t311.5 151.5q205 0 314.5 -155.5t109.5 -446.5v-51h-613q10 -137 59.5 -199.5t145.5 -62.5q121 0 156 119h242q-100 -350 -402 -351q-209 0 -322.5 151t-113.5 427zM281 653h364q-25 229 -184 230q-78 0 -121 -55.5t-59 -174.5zM381 1233 l158 299h258l-246 -299h-170z" />
<glyph unicode="&#xea;" d="M39 549q0 266 112.5 417.5t311.5 151.5q205 0 314.5 -155.5t109.5 -446.5v-51h-613q10 -137 59.5 -199.5t145.5 -62.5q121 0 156 119h242q-100 -350 -402 -351q-209 0 -322.5 151t-113.5 427zM170 1233l190 299h211l191 -299h-191l-106 168l-105 -168h-190zM281 653h364 q-25 229 -184 230q-78 0 -121 -55.5t-59 -174.5z" />
<glyph unicode="&#xeb;" d="M39 549q0 266 112.5 417.5t311.5 151.5q205 0 314.5 -155.5t109.5 -446.5v-51h-613q10 -137 59.5 -199.5t145.5 -62.5q121 0 156 119h242q-100 -350 -402 -351q-209 0 -322.5 151t-113.5 427zM199 1266v235h196v-235h-196zM281 653h364q-25 229 -184 230 q-78 0 -121 -55.5t-59 -174.5zM537 1266v235h196v-235h-196z" />
<glyph unicode="&#xec;" horiz-adv-x="466" d="M-66 1532h259l157 -299h-170zM117 0v1090h233v-1090h-233z" />
<glyph unicode="&#xed;" horiz-adv-x="466" d="M117 0v1090h233v-1090h-233zM117 1233l157 299h258l-245 -299h-170z" />
<glyph unicode="&#xee;" horiz-adv-x="466" d="M-63 1233l190 299h211l190 -299h-190l-107 168l-104 -168h-190zM117 0v1090h233v-1090h-233z" />
<glyph unicode="&#xef;" horiz-adv-x="466" d="M-35 1266v235h197v-235h-197zM117 0v1090h233v-1090h-233zM303 1266v235h197v-235h-197z" />
<glyph unicode="&#xf0;" horiz-adv-x="1026" d="M57 532q0 236 115 387.5t291 151.5q74 0 126 -29.5t101 -99.5q-57 145 -172 268l-180 -96l-107 107l183 96q-70 61 -123 92l182 100q66 -35 131 -90l172 90l105 -106l-170 -90q137 -174 198.5 -345t61.5 -372q0 -285 -125 -455t-334 -170q-205 0 -330 153.5t-125 407.5z M299 516q0 -137 59.5 -220t157.5 -83t155.5 87t57.5 232q0 131 -58.5 214t-152.5 83q-100 0 -159.5 -85t-59.5 -228z" />
<glyph unicode="&#xf1;" horiz-adv-x="1026" d="M109 0v1090h225v-166q92 195 274 194q141 0 225.5 -98t84.5 -266v-754h-234v662q0 113 -36 164t-116 51q-88 0 -139 -68t-51 -184v-625h-233zM205 1253q41 252 203 252q12 0 113.5 -36.5t111.5 -36.5q59 0 80 81h108q-39 -246 -180 -245q-23 0 -127 36.5t-125 36.5 q-59 0 -78 -88h-106z" />
<glyph unicode="&#xf2;" horiz-adv-x="1026" d="M57 543q0 264 125 419.5t338 155.5q205 0 328 -157.5t123 -417.5t-125 -416t-332 -156t-332 156t-125 416zM182 1532h258l158 -299h-170zM299 545q0 -162 55.5 -247t159.5 -85t159.5 85t55.5 247q0 160 -55.5 246t-157.5 86q-217 0 -217 -332z" />
<glyph unicode="&#xf3;" horiz-adv-x="1026" d="M57 543q0 264 125 419.5t338 155.5q205 0 328 -157.5t123 -417.5t-125 -416t-332 -156t-332 156t-125 416zM299 545q0 -162 55.5 -247t159.5 -85t159.5 85t55.5 247q0 160 -55.5 246t-157.5 86q-217 0 -217 -332zM428 1233l158 299h258l-246 -299h-170z" />
<glyph unicode="&#xf4;" horiz-adv-x="1026" d="M57 543q0 264 125 419.5t338 155.5q205 0 328 -157.5t123 -417.5t-125 -416t-332 -156t-332 156t-125 416zM217 1233l191 299h210l191 -299h-191l-106 168l-104 -168h-191zM299 545q0 -162 55.5 -247t159.5 -85t159.5 85t55.5 247q0 160 -55.5 246t-157.5 86 q-217 0 -217 -332z" />
<glyph unicode="&#xf5;" horiz-adv-x="1026" d="M57 543q0 264 125 419.5t338 155.5q205 0 328 -157.5t123 -417.5t-125 -416t-332 -156t-332 156t-125 416zM205 1253q41 252 203 252q12 0 113.5 -36.5t111.5 -36.5q59 0 80 81h108q-39 -246 -180 -245q-23 0 -127 36.5t-125 36.5q-59 0 -78 -88h-106zM299 545 q0 -162 55.5 -247t159.5 -85t159.5 85t55.5 247q0 160 -55.5 246t-157.5 86q-217 0 -217 -332z" />
<glyph unicode="&#xf6;" horiz-adv-x="1026" d="M57 543q0 264 125 419.5t338 155.5q205 0 328 -157.5t123 -417.5t-125 -416t-332 -156t-332 156t-125 416zM246 1266v235h196v-235h-196zM299 545q0 -162 55.5 -247t159.5 -85t159.5 85t55.5 247q0 160 -55.5 246t-157.5 86q-217 0 -217 -332zM584 1266v235h196v-235 h-196z" />
<glyph unicode="&#xf7;" horiz-adv-x="980" d="M117 424v176h747v-176h-747zM365 145.5q0 53.5 36.5 90t90 36.5t90 -37.5t36.5 -89.5q0 -53 -36.5 -90t-90 -37t-90 37t-36.5 90.5zM365 880.5q0 53.5 36.5 90.5t90 37t90 -37t36.5 -90.5t-36.5 -90t-90 -36.5t-90 36.5t-36.5 90z" />
<glyph unicode="&#xf8;" horiz-adv-x="1026" d="M37 0l123 158q-102 166 -103 387q0 262 124 417.5t333 155.5q166 0 301 -121l115 150l59 -66l-119 -151q100 -166 101 -385q0 -260 -125 -417t-332 -157q-166 0 -297 119l-117 -149zM299 547q0 -100 25 -180l342 438q-63 72 -152 72q-104 0 -159.5 -85t-55.5 -245z M367 283q55 -70 145 -70q106 0 161.5 85t55.5 249q0 100 -24 172z" />
<glyph unicode="&#xf9;" horiz-adv-x="1026" d="M111 373v717h233v-676q0 -201 152 -201q88 0 137 66.5t49 181.5v629h233v-1090h-225v160q-90 -188 -278 -189q-143 0 -222 104.5t-79 297.5zM182 1532h258l158 -299h-170z" />
<glyph unicode="&#xfa;" horiz-adv-x="1026" d="M111 373v717h233v-676q0 -201 152 -201q88 0 137 66.5t49 181.5v629h233v-1090h-225v160q-90 -188 -278 -189q-143 0 -222 104.5t-79 297.5zM428 1233l158 299h258l-246 -299h-170z" />
<glyph unicode="&#xfb;" horiz-adv-x="1026" d="M111 373v717h233v-676q0 -201 152 -201q88 0 137 66.5t49 181.5v629h233v-1090h-225v160q-90 -188 -278 -189q-143 0 -222 104.5t-79 297.5zM217 1233l191 299h210l191 -299h-191l-106 168l-104 -168h-191z" />
<glyph unicode="&#xfc;" horiz-adv-x="1026" d="M111 373v717h233v-676q0 -201 152 -201q88 0 137 66.5t49 181.5v629h233v-1090h-225v160q-90 -188 -278 -189q-143 0 -222 104.5t-79 297.5zM246 1266v235h196v-235h-196zM584 1266v235h196v-235h-196z" />
<glyph unicode="&#xfd;" d="M16 1090h263l192 -811l184 811h250l-307 -1072q-90 -315 -139 -380q-55 -76 -201 -76l-113 4v229q33 -4 50 -4q76 0 105.5 32t45.5 132zM381 1233l158 299h258l-246 -299h-170z" />
<glyph unicode="&#xfe;" horiz-adv-x="1026" d="M104 -424v1894h234v-526q51 92 111.5 133t146.5 41q170 0 272.5 -153.5t102.5 -407.5q0 -268 -102.5 -427t-276.5 -159q-90 0 -148.5 40t-105.5 134v-569h-234zM328 528q0 -152 53 -236.5t149 -84.5q92 0 145.5 91t53.5 245q0 152 -53 238.5t-148 86.5q-200 0 -200 -340z " />
<glyph unicode="&#xff;" d="M16 1090h263l192 -811l184 811h250l-307 -1072q-90 -315 -139 -380q-55 -76 -201 -76l-113 4v229q33 -4 50 -4q76 0 105.5 32t45.5 132zM199 1266v235h196v-235h-196zM537 1266v235h196v-235h-196z" />
<glyph unicode="&#x100;" horiz-adv-x="1212" d="M33 0l430 1470h291l426 -1470h-275l-78 303h-444l-84 -303h-266zM319 1669v150h580v-150h-580zM451 555h307l-152 590z" />
<glyph unicode="&#x101;" d="M49 291q0 143 68.5 233t193.5 113l211 39q82 14 82 90q0 123 -145 123q-76 0 -111 -34t-45 -118h-225q20 207 112.5 294t278.5 87q174 0 269.5 -83t95.5 -232v-590q0 -143 51 -170v-43h-252q-14 55 -23 129q-70 -88 -133 -123t-149 -35q-129 0 -204 86.5t-75 233.5z M178 1309v149h580v-149h-580zM285 309q0 -61 30.5 -97t81.5 -36q86 0 146.5 62.5t60.5 152.5v139q-39 -35 -160 -59q-88 -18 -123.5 -55t-35.5 -107z" />
<glyph unicode="&#x102;" horiz-adv-x="1212" d="M33 0l430 1470h291l426 -1470h-275l-78 303h-444l-84 -303h-266zM303 1872h111q33 -51 74.5 -75.5t119.5 -24.5t117 24.5t57 75.5h129q-68 -258 -313 -258q-232 0 -295 258zM451 555h307l-152 590z" />
<glyph unicode="&#x103;" d="M49 291q0 143 68.5 233t193.5 113l211 39q82 14 82 90q0 123 -145 123q-76 0 -111 -34t-45 -118h-225q20 207 112.5 294t278.5 87q174 0 269.5 -83t95.5 -232v-590q0 -143 51 -170v-43h-252q-14 55 -23 129q-70 -88 -133 -123t-149 -35q-129 0 -204 86.5t-75 233.5z M184 1532h111q14 -78 53 -109.5t121 -31.5t120 30.5t54 110.5h109q-31 -299 -293 -299q-248 0 -275 299zM285 309q0 -61 30.5 -97t81.5 -36q86 0 146.5 62.5t60.5 152.5v139q-39 -35 -160 -59q-88 -18 -123.5 -55t-35.5 -107z" />
<glyph unicode="&#x104;" horiz-adv-x="1212" d="M33 0l430 1470h291l426 -1470q-106 -29 -172 -117q-43 -59 -43 -106t38.5 -75t94.5 -28h82v-186h-82q-141 0 -235.5 49t-94.5 164q0 150 184 299h-47l-78 303h-444l-84 -303h-266zM451 555h307l-152 590z" />
<glyph unicode="&#x105;" d="M49 291q0 143 68.5 233t193.5 113l211 39q82 14 82 90q0 123 -145 123q-76 0 -111 -34t-45 -118h-225q20 207 112.5 294t278.5 87q174 0 269.5 -83t95.5 -232v-590q0 -143 51 -170v-43q-106 -29 -172 -117q-43 -59 -43 -106t39 -75t94 -28h82v-186h-82q-141 0 -235.5 49 t-94.5 164q0 150 184 299h-24q-14 55 -23 129q-70 -88 -133 -123t-149 -35q-129 0 -204 86.5t-75 233.5zM285 309q0 -61 30.5 -97t81.5 -36q86 0 146.5 62.5t60.5 152.5v139q-39 -35 -160 -59q-88 -18 -123.5 -55t-35.5 -107z" />
<glyph unicode="&#x106;" horiz-adv-x="1212" d="M74 731.5q0 358.5 150.5 568t408.5 209.5q209 0 349 -139t167 -381h-252q-31 131 -92.5 192.5t-165.5 61.5q-145 0 -227 -136t-82 -378q0 -236 79.5 -369t221.5 -133q104 0 168.5 64.5t97.5 212.5h252q-102 -543 -522 -543q-256 0 -404.5 206t-148.5 564.5zM553 1614 l147 258h269l-256 -258h-160z" />
<glyph unicode="&#x107;" d="M57 530q0 276 113 432t311 156q172 0 275.5 -105.5t124.5 -312.5h-238q-16 92 -52 134.5t-99 42.5q-193 0 -193 -334q0 -336 178 -336q68 0 112 52t52 138h238q-27 -207 -131.5 -316.5t-278.5 -109.5q-199 0 -305.5 145.5t-106.5 413.5zM381 1233l158 299h258l-246 -299 h-170z" />
<glyph unicode="&#x108;" horiz-adv-x="1212" d="M74 731.5q0 358.5 150.5 568t408.5 209.5q209 0 349 -139t167 -381h-252q-31 131 -92.5 192.5t-165.5 61.5q-145 0 -227 -136t-82 -378q0 -236 79.5 -369t221.5 -133q104 0 168.5 64.5t97.5 212.5h252q-102 -543 -522 -543q-256 0 -404.5 206t-148.5 564.5zM315 1614 l211 258h211l211 -258h-190l-127 127l-125 -127h-191z" />
<glyph unicode="&#x109;" d="M57 530q0 276 113 432t311 156q172 0 275.5 -105.5t124.5 -312.5h-238q-16 92 -52 134.5t-99 42.5q-193 0 -193 -334q0 -336 178 -336q68 0 112 52t52 138h238q-27 -207 -131.5 -316.5t-278.5 -109.5q-199 0 -305.5 145.5t-106.5 413.5zM170 1233l190 299h211l191 -299 h-191l-106 168l-105 -168h-190z" />
<glyph unicode="&#x10a;" horiz-adv-x="1212" d="M74 731.5q0 358.5 150.5 568t408.5 209.5q209 0 349 -139t167 -381h-252q-31 131 -92.5 192.5t-165.5 61.5q-145 0 -227 -136t-82 -378q0 -236 79.5 -369t221.5 -133q104 0 168.5 64.5t97.5 212.5h252q-102 -543 -522 -543q-256 0 -404.5 206t-148.5 564.5zM520 1626v236 h234v-236h-234z" />
<glyph unicode="&#x10b;" d="M57 530q0 276 113 432t311 156q172 0 275.5 -105.5t124.5 -312.5h-238q-16 92 -52 134.5t-99 42.5q-193 0 -193 -334q0 -336 178 -336q68 0 112 52t52 138h238q-27 -207 -131.5 -316.5t-278.5 -109.5q-199 0 -305.5 145.5t-106.5 413.5zM352 1266v235h234v-235h-234z" />
<glyph unicode="&#x10c;" horiz-adv-x="1212" d="M74 731.5q0 358.5 150.5 568t408.5 209.5q209 0 349 -139t167 -381h-252q-31 131 -92.5 192.5t-165.5 61.5q-145 0 -227 -136t-82 -378q0 -236 79.5 -369t221.5 -133q104 0 168.5 64.5t97.5 212.5h252q-102 -543 -522 -543q-256 0 -404.5 206t-148.5 564.5zM317 1872h191 l127 -127l125 127h190l-211 -258h-211z" />
<glyph unicode="&#x10d;" d="M57 530q0 276 113 432t311 156q172 0 275.5 -105.5t124.5 -312.5h-238q-16 92 -52 134.5t-99 42.5q-193 0 -193 -334q0 -336 178 -336q68 0 112 52t52 138h238q-27 -207 -131.5 -316.5t-278.5 -109.5q-199 0 -305.5 145.5t-106.5 413.5zM170 1532h190l107 -168l104 168 h191l-191 -299h-211z" />
<glyph unicode="&#x10e;" horiz-adv-x="1212" d="M127 0v1470h532q233 0 362.5 -185t129.5 -519q0 -338 -131 -552t-371 -214h-522zM299 1872h190l127 -127l125 127h191l-211 -258h-211zM373 252h245q131 0 204 133t73 373q0 461 -281 461h-241v-967z" />
<glyph unicode="&#x10f;" horiz-adv-x="1026" d="M57 557q0 254 102.5 407.5t272.5 153.5q86 0 146.5 -41t113.5 -135v528h234v-1470h-230v143q-84 -172 -262 -172q-172 0 -274.5 159t-102.5 427zM299 541q0 -154 53.5 -244t143.5 -90q98 0 151 85t53 240q0 160 -51 248t-145 88q-96 0 -150.5 -85.5t-54.5 -241.5z M1042 965v94q61 12 95 58t34 112v12h-129v229h222v-210q0 -131 -64 -211t-158 -84z" />
<glyph unicode="&#x110;" horiz-adv-x="1212" d="M-8 649v252h135v569h532q233 0 362.5 -184t129.5 -518q0 -340 -129 -554t-373 -214h-522v649h-135zM373 252h248q129 0 201.5 133t72.5 371q0 463 -279 463h-243v-318h280v-252h-280v-397z" />
<glyph unicode="&#x111;" horiz-adv-x="1042" d="M57 557q0 254 102.5 407.5t272.5 153.5q86 0 146.5 -41t113.5 -135v262l-229 2v150h229v114h234v-114h116v-150h-116v-1206h-230v143q-84 -172 -262 -172q-172 0 -274.5 159t-102.5 427zM299 541q0 -154 53.5 -244t143.5 -90q98 0 151 85t53 240q0 160 -51 248t-145 88 q-96 0 -150.5 -85.5t-54.5 -241.5z" />
<glyph unicode="&#x112;" horiz-adv-x="1120" d="M127 0v1470h887v-260h-641v-309h590v-260h-590v-381h669v-260h-915zM283 1669v150h579v-150h-579z" />
<glyph unicode="&#x113;" d="M39 549q0 266 112.5 417.5t311.5 151.5q205 0 314.5 -155.5t109.5 -446.5v-51h-613q10 -137 59.5 -199.5t145.5 -62.5q121 0 156 119h242q-100 -350 -402 -351q-209 0 -322.5 151t-113.5 427zM176 1309v149h580v-149h-580zM281 653h364q-25 229 -184 230 q-78 0 -121 -55.5t-59 -174.5z" />
<glyph unicode="&#x114;" horiz-adv-x="1120" d="M127 0v1470h887v-260h-641v-309h590v-260h-590v-381h669v-260h-915zM266 1872h111q33 -51 75 -75.5t119.5 -24.5t116.5 24.5t57 75.5h129q-68 -258 -313 -258q-232 0 -295 258z" />
<glyph unicode="&#x115;" d="M39 549q0 266 112.5 417.5t311.5 151.5q205 0 314.5 -155.5t109.5 -446.5v-51h-613q10 -137 59.5 -199.5t145.5 -62.5q121 0 156 119h242q-100 -350 -402 -351q-209 0 -322.5 151t-113.5 427zM182 1532h111q14 -78 53 -109.5t121 -31.5t120 30.5t54 110.5h109 q-31 -299 -293 -299q-248 0 -275 299zM281 653h364q-25 229 -184 230q-78 0 -121 -55.5t-59 -174.5z" />
<glyph unicode="&#x116;" horiz-adv-x="1120" d="M127 0v1470h887v-260h-641v-309h590v-260h-590v-381h669v-260h-915zM459 1626v236h233v-236h-233z" />
<glyph unicode="&#x117;" d="M39 549q0 266 112.5 417.5t311.5 151.5q205 0 314.5 -155.5t109.5 -446.5v-51h-613q10 -137 59.5 -199.5t145.5 -62.5q121 0 156 119h242q-100 -350 -402 -351q-209 0 -322.5 151t-113.5 427zM281 653h364q-25 229 -184 230q-78 0 -121 -55.5t-59 -174.5zM352 1266v235 h234v-235h-234z" />
<glyph unicode="&#x118;" horiz-adv-x="1120" d="M127 0v1470h887v-260h-641v-309h590v-260h-590v-381h669v-260q-106 -29 -172 -117q-43 -59 -43 -106t39 -75t95 -28h81v-186h-81q-141 0 -235.5 49t-94.5 164q0 150 184 299h-688z" />
<glyph unicode="&#x119;" d="M39 549q0 266 112.5 417.5t311.5 151.5q205 0 314.5 -155.5t109.5 -446.5v-51h-613q10 -137 59.5 -199.5t145.5 -62.5q121 0 156 119h242q-53 -182 -152 -267q-61 -53 -93 -83.5t-64.5 -86t-32.5 -108.5q0 -47 38.5 -75t94.5 -28h82v-186h-82q-141 0 -235.5 49t-94.5 164 q0 137 149 270h-12q-209 0 -322.5 151t-113.5 427zM281 653h364q-25 229 -184 230q-78 0 -121 -55.5t-59 -174.5z" />
<glyph unicode="&#x11a;" horiz-adv-x="1120" d="M127 0v1470h887v-260h-641v-309h590v-260h-590v-381h669v-260h-915zM256 1872h190l127 -127l125 127h191l-211 -258h-211z" />
<glyph unicode="&#x11b;" d="M39 549q0 266 112.5 417.5t311.5 151.5q205 0 314.5 -155.5t109.5 -446.5v-51h-613q10 -137 59.5 -199.5t145.5 -62.5q121 0 156 119h242q-100 -350 -402 -351q-209 0 -322.5 151t-113.5 427zM170 1532h190l107 -168l104 168h191l-191 -299h-211zM281 653h364 q-25 229 -184 230q-78 0 -121 -55.5t-59 -174.5z" />
<glyph unicode="&#x11c;" horiz-adv-x="1306" d="M74 725q0 360 159.5 572t430.5 212q215 0 356 -130t174 -365h-254q-18 106 -94 174.5t-176 68.5q-158 0 -249 -143t-91 -389q0 -240 89 -372t251 -132q113 0 188.5 74t116.5 248h-283v250h506v-793h-168l-26 184q-88 -125 -171 -174t-206 -49q-248 0 -400.5 211 t-152.5 553zM346 1614l211 258h211l211 -258h-191l-126 127l-125 -127h-191z" />
<glyph unicode="&#x11d;" horiz-adv-x="1026" d="M68 555q0 256 102 409.5t270 153.5q92 0 154.5 -46t107.5 -150v168h226v-1033q0 -270 -108.5 -385.5t-327.5 -115.5q-360 0 -406 327h256q10 -57 46 -82.5t110 -25.5q102 0 148 58t46 190v141q-45 -94 -98 -132t-143 -38q-176 0 -279.5 150.5t-103.5 410.5zM217 1233 l191 299h210l191 -299h-191l-106 168l-104 -168h-191zM309 547q0 -145 50.5 -228t138.5 -83q94 0 145 81.5t51 229.5q0 143 -54 232t-142 89t-138.5 -85.5t-50.5 -235.5z" />
<glyph unicode="&#x11e;" horiz-adv-x="1306" d="M74 725q0 360 159.5 572t430.5 212q215 0 356 -130t174 -365h-254q-18 106 -94 174.5t-176 68.5q-158 0 -249 -143t-91 -389q0 -240 89 -372t251 -132q113 0 188.5 74t116.5 248h-283v250h506v-793h-168l-26 184q-88 -125 -171 -174t-206 -49q-248 0 -400.5 211 t-152.5 553zM358 1872h111q33 -51 75 -75.5t119.5 -24.5t116.5 24.5t58 75.5h129q-68 -258 -314 -258q-232 0 -295 258z" />
<glyph unicode="&#x11f;" horiz-adv-x="1026" d="M68 555q0 256 102 409.5t270 153.5q92 0 154.5 -46t107.5 -150v168h226v-1033q0 -270 -108.5 -385.5t-327.5 -115.5q-360 0 -406 327h256q10 -57 46 -82.5t110 -25.5q102 0 148 58t46 190v141q-45 -94 -98 -132t-143 -38q-176 0 -279.5 150.5t-103.5 410.5zM229 1532h111 q14 -78 53 -109.5t121 -31.5t120 30.5t54 110.5h109q-31 -299 -293 -299q-248 0 -275 299zM309 547q0 -145 50.5 -228t138.5 -83q94 0 145 81.5t51 229.5q0 143 -54 232t-142 89t-138.5 -85.5t-50.5 -235.5z" />
<glyph unicode="&#x120;" horiz-adv-x="1306" d="M74 725q0 360 159.5 572t430.5 212q215 0 356 -130t174 -365h-254q-18 106 -94 174.5t-176 68.5q-158 0 -249 -143t-91 -389q0 -240 89 -372t251 -132q113 0 188.5 74t116.5 248h-283v250h506v-793h-168l-26 184q-88 -125 -171 -174t-206 -49q-248 0 -400.5 211 t-152.5 553zM551 1626v236h233v-236h-233z" />
<glyph unicode="&#x121;" horiz-adv-x="1026" d="M68 555q0 256 102 409.5t270 153.5q92 0 154.5 -46t107.5 -150v168h226v-1033q0 -270 -108.5 -385.5t-327.5 -115.5q-360 0 -406 327h256q10 -57 46 -82.5t110 -25.5q102 0 148 58t46 190v141q-45 -94 -98 -132t-143 -38q-176 0 -279.5 150.5t-103.5 410.5zM309 547 q0 -145 50.5 -228t138.5 -83q94 0 145 81.5t51 229.5q0 143 -54 232t-142 89t-138.5 -85.5t-50.5 -235.5zM399 1266v235h234v-235h-234z" />
<glyph unicode="&#x122;" horiz-adv-x="1306" d="M74 725q0 360 159.5 572t430.5 212q215 0 356 -130t174 -365h-254q-18 106 -94 174.5t-176 68.5q-158 0 -249 -143t-91 -389q0 -240 89 -372t251 -132q113 0 188.5 74t116.5 248h-283v250h506v-793h-168l-26 184q-88 -125 -171 -174t-206 -49q-248 0 -400.5 211 t-152.5 553zM553 -123h221v-211q0 -131 -63.5 -211t-157.5 -84v94q61 12 95 58.5t34 111.5v13h-129v229z" />
<glyph unicode="&#x123;" horiz-adv-x="1026" d="M68 555q0 256 102 409.5t270 153.5q92 0 154.5 -46t107.5 -150v168h226v-1033q0 -270 -108.5 -385.5t-327.5 -115.5q-360 0 -406 327h256q10 -57 46 -82.5t110 -25.5q102 0 148 58t46 190v141q-45 -94 -98 -132t-143 -38q-176 0 -279.5 150.5t-103.5 410.5zM309 547 q0 -145 50.5 -228t138.5 -83q94 0 145 81.5t51 229.5q0 143 -54 232t-142 89t-138.5 -85.5t-50.5 -235.5zM406 1190v211q0 131 63 211t158 84v-94q-61 -12 -95 -58.5t-34 -111.5v-13h129v-229h-221z" />
<glyph unicode="&#x124;" horiz-adv-x="1212" d="M119 0v1470h252v-557h471v557h252v-1470h-252v662h-471v-662h-252zM289 1614l211 258h211l211 -258h-191l-127 127l-125 -127h-190z" />
<glyph unicode="&#x125;" horiz-adv-x="1026" d="M109 0v1470h233v-530q72 178 268 178q139 0 223.5 -99t84.5 -265v-754h-234v662q0 113 -36 164t-116 51q-88 0 -139 -68t-51 -184v-625h-233zM197 1614l211 258h210l211 -258h-190l-127 127l-125 -127h-190z" />
<glyph unicode="&#x126;" horiz-adv-x="1212" d="M-6 1104v145h125v221h252v-221h471v221h252v-221h125v-145h-125v-1104h-252v662h-471v-662h-252v1104h-125zM371 913h471v191h-471v-191z" />
<glyph unicode="&#x127;" horiz-adv-x="1159" d="M117 1012v155l116 43v260h234v-176l172 64v-156l-172 -61v-201q72 178 268 178q139 0 223 -99t84 -265v-754h-233v662q0 113 -36 164t-116 51q-88 0 -139 -68t-51 -184v-625h-234v1055z" />
<glyph unicode="&#x128;" horiz-adv-x="466" d="M-74 1614q41 252 203 252q12 0 113.5 -37t111.5 -37q59 0 80 82h109q-39 -246 -181 -246q-23 0 -127 37t-124 37q-59 0 -78 -88h-107zM106 0v1470h252v-1470h-252z" />
<glyph unicode="&#x129;" horiz-adv-x="466" d="M-76 1253q43 252 203 252q12 0 113.5 -36.5t111.5 -36.5q59 0 80 81h109q-39 -246 -181 -245q-23 0 -127 36.5t-124 36.5q-59 0 -78 -88h-107zM117 0v1090h233v-1090h-233z" />
<glyph unicode="&#x12a;" horiz-adv-x="466" d="M-55 1669v150h579v-150h-579zM106 0v1470h252v-1470h-252z" />
<glyph unicode="&#x12b;" horiz-adv-x="466" d="M-57 1309v149h579v-149h-579zM117 0v1090h233v-1090h-233z" />
<glyph unicode="&#x12c;" horiz-adv-x="466" d="M-72 1872h111q33 -51 75 -75.5t119.5 -24.5t116.5 24.5t58 75.5h129q-68 -258 -314 -258q-232 0 -295 258zM106 0v1470h252v-1470h-252z" />
<glyph unicode="&#x12d;" horiz-adv-x="466" d="M-51 1532h110q14 -78 53.5 -109.5t121 -31.5t119.5 30.5t55 110.5h108q-31 -299 -293 -299q-247 0 -274 299zM117 0v1090h233v-1090h-233z" />
<glyph unicode="&#x12e;" horiz-adv-x="466" d="M-12 -299q0 150 184 299h-66v1470h252v-1470q-76 -45 -131 -117q-43 -59 -43 -106t39 -75t94 -28h82v-186h-82q-141 0 -235 49t-94 164z" />
<glyph unicode="&#x12f;" horiz-adv-x="466" d="M0 -299q0 150 184 299h-67v1090h233v-1090q-61 -53 -110 -117q-43 -59 -43 -106t38.5 -75t94.5 -28h82v-186h-82q-141 0 -235.5 49t-94.5 164zM119 1266v235h233v-235h-233z" />
<glyph unicode="&#x130;" horiz-adv-x="466" d="M106 0v1470h252v-1470h-252zM121 1626v236h233v-236h-233z" />
<glyph unicode="&#x131;" horiz-adv-x="466" d="M117 0v1090h233v-1090h-233z" />
<glyph unicode="&#x134;" d="M37 555h235q0 -209 29 -275.5t119 -66.5q78 0 109.5 47t31.5 166v1044h252v-1044q0 -463 -389 -463q-246 0 -332 180q-33 63 -44 150.5t-11 261.5zM371 1614l211 258h211l211 -258h-191l-127 127l-125 -127h-190z" />
<glyph unicode="&#x135;" horiz-adv-x="466" d="M-63 1233l190 299h211l190 -299h-190l-107 168l-104 -168h-190zM4 -209h43q70 0 70 100v1199h233v-1205q0 -182 -61.5 -252.5t-222.5 -70.5h-62v229z" />
<glyph unicode="&#x136;" horiz-adv-x="1212" d="M145 0v1470h252v-598l461 598h326l-492 -602l520 -868h-323l-375 645l-117 -147v-498h-252zM494 -123h221v-211q0 -131 -63.5 -211t-157.5 -84v94q61 12 95 58.5t34 111.5v13h-129v229z" />
<glyph unicode="&#x137;" d="M117 0v1470h233v-794l295 414h289l-316 -422l326 -668h-282l-213 467l-99 -123v-344h-233zM395 -123h221v-211q0 -131 -63.5 -211t-157.5 -84v94q61 12 95 58.5t34 111.5v13h-129v229z" />
<glyph unicode="&#x139;" horiz-adv-x="1026" d="M127 0v1470h252v-1204h600v-266h-852zM129 1614l147 258h269l-256 -258h-160z" />
<glyph unicode="&#x13a;" horiz-adv-x="466" d="M117 0v1470h233v-1470h-233zM119 1614l147 258h269l-256 -258h-160z" />
<glyph unicode="&#x13b;" horiz-adv-x="1026" d="M127 0v1470h252v-1204h600v-266h-852zM442 -123h222v-211q0 -131 -63.5 -211t-158.5 -84v94q61 12 95 58.5t34 111.5v13h-129v229z" />
<glyph unicode="&#x13c;" horiz-adv-x="466" d="M117 0v1470h233v-1470h-233zM123 -123h221v-211q0 -131 -63.5 -211t-157.5 -84v94q61 12 95 58.5t34 111.5v13h-129v229z" />
<glyph unicode="&#x13d;" horiz-adv-x="1026" d="M127 0v1470h252v-1204h600v-266h-852zM496 965v94q61 12 95 58t34 112v12h-129v229h221v-210q0 -131 -63.5 -211t-157.5 -84z" />
<glyph unicode="&#x13e;" horiz-adv-x="466" d="M117 0v1470h233v-1470h-233zM467 965v94q61 12 95 58t34 112v12h-129v229h221v-210q0 -131 -63.5 -211t-157.5 -84z" />
<glyph unicode="&#x13f;" horiz-adv-x="1026" d="M127 0v1470h252v-1204h600v-266h-852zM649 657v236h234v-236h-234z" />
<glyph unicode="&#x140;" horiz-adv-x="700" d="M117 0v1470h233v-1470h-233zM467 657v236h233v-236h-233z" />
<glyph unicode="&#x141;" horiz-adv-x="1265" d="M113 346v219l192 142v763h252v-598l266 195v-217l-266 -197v-387h600v-266h-852v487z" />
<glyph unicode="&#x142;" horiz-adv-x="823" d="M74 633v205l221 133v499h233v-380l222 133v-205l-222 -133v-885h-233v766z" />
<glyph unicode="&#x143;" horiz-adv-x="1212" d="M117 0v1470h264l483 -1032v1032h234v-1470h-250l-498 1055v-1055h-233zM528 1614l148 258h268l-256 -258h-160z" />
<glyph unicode="&#x144;" horiz-adv-x="1026" d="M109 0v1090h225v-166q92 195 274 194q141 0 225.5 -98t84.5 -266v-754h-234v662q0 113 -36 164t-116 51q-88 0 -139 -68t-51 -184v-625h-233zM428 1233l158 299h258l-246 -299h-170z" />
<glyph unicode="&#x145;" horiz-adv-x="1212" d="M117 0v1470h264l483 -1032v1032h234v-1470h-250l-498 1055v-1055h-233zM498 -123h221v-211q0 -131 -63.5 -211t-157.5 -84v94q61 12 95 58.5t34 111.5v13h-129v229z" />
<glyph unicode="&#x146;" horiz-adv-x="1026" d="M109 0v1090h225v-166q92 195 274 194q141 0 225.5 -98t84.5 -266v-754h-234v662q0 113 -36 164t-116 51q-88 0 -139 -68t-51 -184v-625h-233zM403 -123h222v-211q0 -131 -63.5 -211t-158.5 -84v94q61 12 95 58.5t34 111.5v13h-129v229z" />
<glyph unicode="&#x147;" horiz-adv-x="1212" d="M117 0v1470h264l483 -1032v1032h234v-1470h-250l-498 1055v-1055h-233zM293 1872h190l127 -127l125 127h191l-211 -258h-211z" />
<glyph unicode="&#x148;" horiz-adv-x="1026" d="M109 0v1090h225v-166q92 195 274 194q141 0 225.5 -98t84.5 -266v-754h-234v662q0 113 -36 164t-116 51q-88 0 -139 -68t-51 -184v-625h-233zM217 1532h191l106 -168l104 168h191l-191 -299h-210z" />
<glyph unicode="&#x14a;" horiz-adv-x="1212" d="M117 0v1470h264l483 -1032v1032h234v-1517q0 -463 -389 -463q-246 0 -332 180q-37 74 -49 195h241q14 -72 44 -98.5t92 -26.5q66 0 112.5 41t46.5 102v82l-514 1090v-1055h-233z" />
<glyph unicode="&#x14b;" horiz-adv-x="1026" d="M109 0v1090h225v-166q92 195 274 194q141 0 225.5 -98t84.5 -266v-869q0 -182 -61.5 -252.5t-223.5 -70.5h-62v229h43q70 0 70 100v771q0 113 -36 164t-116 51q-88 0 -139 -68t-51 -184v-625h-233z" />
<glyph unicode="&#x14c;" horiz-adv-x="1306" d="M74 733q0 367 158.5 571.5t429.5 204.5q256 0 413.5 -206.5t157.5 -567.5q0 -362 -157.5 -568t-422.5 -206q-266 0 -422.5 207t-156.5 565zM326 739q0 -244 87 -381t240.5 -137t240.5 138.5t87 381.5q0 231 -88 369.5t-236 138.5q-156 0 -243.5 -136t-87.5 -374z M373 1669v150h579v-150h-579z" />
<glyph unicode="&#x14d;" horiz-adv-x="1026" d="M57 543q0 264 125 419.5t338 155.5q205 0 328 -157.5t123 -417.5t-125 -416t-332 -156t-332 156t-125 416zM223 1309v149h580v-149h-580zM299 545q0 -162 55.5 -247t159.5 -85t159.5 85t55.5 247q0 160 -55.5 246t-157.5 86q-217 0 -217 -332z" />
<glyph unicode="&#x14e;" horiz-adv-x="1306" d="M74 733q0 367 158.5 571.5t429.5 204.5q256 0 413.5 -206.5t157.5 -567.5q0 -362 -157.5 -568t-422.5 -206q-266 0 -422.5 207t-156.5 565zM326 739q0 -244 87 -381t240.5 -137t240.5 138.5t87 381.5q0 231 -88 369.5t-236 138.5q-156 0 -243.5 -136t-87.5 -374z M356 1872h111q33 -51 75 -75.5t119.5 -24.5t116.5 24.5t58 75.5h129q-68 -258 -314 -258q-232 0 -295 258z" />
<glyph unicode="&#x14f;" horiz-adv-x="1026" d="M57 543q0 264 125 419.5t338 155.5q205 0 328 -157.5t123 -417.5t-125 -416t-332 -156t-332 156t-125 416zM229 1532h111q14 -78 53 -109.5t121 -31.5t120 30.5t54 110.5h109q-31 -299 -293 -299q-248 0 -275 299zM299 545q0 -162 55.5 -247t159.5 -85t159.5 85t55.5 247 q0 160 -55.5 246t-157.5 86q-217 0 -217 -332z" />
<glyph unicode="&#x150;" horiz-adv-x="1306" d="M74 733q0 367 158.5 571.5t429.5 204.5q256 0 413.5 -206.5t157.5 -567.5q0 -362 -157.5 -568t-422.5 -206q-266 0 -422.5 207t-156.5 565zM326 739q0 -244 87 -381t240.5 -137t240.5 138.5t87 381.5q0 231 -88 369.5t-236 138.5q-156 0 -243.5 -136t-87.5 -374z M395 1614l158 299h260l-248 -299h-170zM739 1614l158 299h260l-248 -299h-170z" />
<glyph unicode="&#x151;" horiz-adv-x="1026" d="M57 543q0 264 125 419.5t338 155.5q205 0 328 -157.5t123 -417.5t-125 -416t-332 -156t-332 156t-125 416zM248 1233l158 299h260l-248 -299h-170zM299 545q0 -162 55.5 -247t159.5 -85t159.5 85t55.5 247q0 160 -55.5 246t-157.5 86q-217 0 -217 -332zM592 1233l158 299 h260l-248 -299h-170z" />
<glyph unicode="&#x152;" horiz-adv-x="1679" d="M61 727q0 362 134.5 572t367.5 210q158 0 260 -125v86h791v-260h-561v-309h522v-260h-522v-381h561v-260h-791v102q-59 -80 -114.5 -110.5t-143.5 -30.5q-231 0 -367.5 207t-136.5 559zM307 731q0 -236 78 -377t207 -141q88 0 151.5 56.5t63.5 131.5v666q0 84 -58.5 137 t-150.5 53q-137 0 -214 -140t-77 -386z" />
<glyph unicode="&#x153;" horiz-adv-x="1585" d="M57 547q0 256 124 413.5t327 157.5q186 0 313 -164q76 94 138.5 129t156.5 35q199 0 307.5 -157.5t108.5 -444.5v-51h-612q10 -137 59 -199.5t145 -62.5q121 0 156 119h242q-100 -350 -402 -351q-104 0 -176 35t-137 117q-111 -152 -293 -152q-207 0 -332 157t-125 419z M299 543q0 -160 55.5 -245t159.5 -85t159.5 85t55.5 247q0 160 -55.5 246t-157.5 86q-217 0 -217 -334zM926 653h364q-27 229 -184 230q-78 0 -121 -55.5t-59 -174.5z" />
<glyph unicode="&#x154;" horiz-adv-x="1212" d="M127 0v1470h608q174 0 277.5 -113.5t103.5 -303.5q0 -260 -186 -348q98 -53 125.5 -133t27.5 -310q0 -125 9.5 -166t44.5 -57v-39h-279q-29 131 -29 295q0 133 -20.5 192.5t-55 72.5t-120.5 13h-260v-573h-246zM373 823h297q100 0 147 48.5t47 148.5q0 96 -46 147.5 t-130 51.5h-315v-396zM492 1614l147 258h268l-256 -258h-159z" />
<glyph unicode="&#x155;" horiz-adv-x="653" d="M106 0v1090h226v-195q53 125 107.5 174t140.5 49q20 0 47 -4v-291q-33 4 -60 4q-227 0 -227 -260v-567h-234zM254 1233l158 299h258l-246 -299h-170z" />
<glyph unicode="&#x156;" horiz-adv-x="1212" d="M127 0v1470h608q174 0 277.5 -113.5t103.5 -303.5q0 -260 -186 -348q98 -53 125.5 -133t27.5 -310q0 -125 9.5 -166t44.5 -57v-39h-279q-29 131 -29 295q0 133 -20.5 192.5t-55 72.5t-120.5 13h-260v-573h-246zM373 823h297q100 0 147 48.5t47 148.5q0 96 -46 147.5 t-130 51.5h-315v-396zM461 -123h221v-211q0 -131 -63.5 -211t-157.5 -84v94q61 12 95 58.5t34 111.5v13h-129v229z" />
<glyph unicode="&#x157;" horiz-adv-x="653" d="M106 0v1090h226v-195q53 125 107.5 174t140.5 49q20 0 47 -4v-291q-33 4 -60 4q-227 0 -227 -260v-567h-234zM113 -123h221v-211q0 -131 -63.5 -211t-157.5 -84v94q61 12 95 58.5t34 111.5v13h-129v229z" />
<glyph unicode="&#x158;" horiz-adv-x="1212" d="M127 0v1470h608q174 0 277.5 -113.5t103.5 -303.5q0 -260 -186 -348q98 -53 125.5 -133t27.5 -310q0 -125 9.5 -166t44.5 -57v-39h-279q-29 131 -29 295q0 133 -20.5 192.5t-55 72.5t-120.5 13h-260v-573h-246zM256 1872h190l127 -127l125 127h191l-211 -258h-211z M373 823h297q100 0 147 48.5t47 148.5q0 96 -46 147.5t-130 51.5h-315v-396z" />
<glyph unicode="&#x159;" horiz-adv-x="653" d="M43 1532h190l107 -168l104 168h191l-191 -299h-211zM106 0v1090h226v-195q53 125 107.5 174t140.5 49q20 0 47 -4v-291q-33 4 -60 4q-227 0 -227 -260v-567h-234z" />
<glyph unicode="&#x15a;" horiz-adv-x="1120" d="M66 453h241q14 -240 262 -240q117 0 181.5 49t64.5 139q0 72 -46 111t-173 76l-129 37q-233 66 -308 155.5t-75 268.5q0 215 122 337.5t337 122.5q217 0 339 -121.5t136 -353.5h-242q-14 117 -71.5 170t-169.5 53q-100 0 -158 -48t-58 -130q0 -63 29 -98t98 -55l295 -88 q168 -51 242 -143.5t74 -256.5q0 -221 -131 -349t-359 -128q-233 0 -363 125t-138 367zM475 1614l148 258h268l-256 -258h-160z" />
<glyph unicode="&#x15b;" d="M51 348h242q6 -158 190 -158q72 0 113 31t41 82q0 82 -195 121q-186 35 -272 114.5t-86 217.5q0 168 99.5 265t271.5 97q178 0 272 -82t119 -278h-232q-12 80 -47 110.5t-112 30.5q-141 0 -142 -102q0 -84 193 -119q193 -37 279.5 -121t86.5 -217q0 -172 -106.5 -270.5 t-290.5 -98.5q-389 0 -424 377zM381 1233l158 299h258l-246 -299h-170z" />
<glyph unicode="&#x15c;" horiz-adv-x="1120" d="M66 453h241q14 -240 262 -240q117 0 181.5 49t64.5 139q0 72 -46 111t-173 76l-129 37q-233 66 -308 155.5t-75 268.5q0 215 122 337.5t337 122.5q217 0 339 -121.5t136 -353.5h-242q-14 117 -71.5 170t-169.5 53q-100 0 -158 -48t-58 -130q0 -63 29 -98t98 -55l295 -88 q168 -51 242 -143.5t74 -256.5q0 -221 -131 -349t-359 -128q-233 0 -363 125t-138 367zM238 1614l211 258h210l211 -258h-190l-127 127l-125 -127h-190z" />
<glyph unicode="&#x15d;" d="M51 348h242q6 -158 190 -158q72 0 113 31t41 82q0 82 -195 121q-186 35 -272 114.5t-86 217.5q0 168 99.5 265t271.5 97q178 0 272 -82t119 -278h-232q-12 80 -47 110.5t-112 30.5q-141 0 -142 -102q0 -84 193 -119q193 -37 279.5 -121t86.5 -217q0 -172 -106.5 -270.5 t-290.5 -98.5q-389 0 -424 377zM170 1233l190 299h211l191 -299h-191l-106 168l-105 -168h-190z" />
<glyph unicode="&#x15e;" horiz-adv-x="1120" d="M66 453h241q14 -240 262 -240q117 0 181.5 49t64.5 139q0 72 -46 111t-173 76l-129 37q-233 66 -308 155.5t-75 268.5q0 215 122 337.5t337 122.5q217 0 339 -121.5t136 -353.5h-242q-14 117 -71.5 170t-169.5 53q-100 0 -158 -48t-58 -130q0 -63 29 -98t98 -55l295 -88 q168 -51 242 -143.5t74 -256.5q0 -211 -120 -338t-329 -137l-37 -80h41q66 0 107 -45t41 -114q0 -92 -59.5 -154t-153.5 -62q-74 0 -189 52l37 98q92 -33 127 -33q39 0 59.5 28t20.5 64q0 31 -19.5 52.5t-45.5 21.5q-20 0 -66 -16l-35 41l72 147q-205 16 -319.5 140.5 t-122.5 349.5z" />
<glyph unicode="&#x15f;" d="M51 348h242q6 -158 190 -158q72 0 113 31t41 82q0 82 -195 121q-186 35 -272 114.5t-86 217.5q0 168 99.5 265t271.5 97q178 0 272 -82t119 -278h-232q-12 80 -47 110.5t-112 30.5q-141 0 -142 -102q0 -84 193 -119q193 -37 279.5 -121t86.5 -217q0 -164 -96 -261 t-266 -108l-41 -88h41q66 0 106.5 -45t40.5 -114q0 -92 -59 -154t-154 -62q-74 0 -188 52l37 98q92 -33 127 -33q39 0 59.5 28t20.5 64q0 31 -19.5 52.5t-46.5 21.5q-20 0 -65 -16l-35 41l78 157q-328 31 -361 375z" />
<glyph unicode="&#x160;" horiz-adv-x="1120" d="M66 453h241q14 -240 262 -240q117 0 181.5 49t64.5 139q0 72 -46 111t-173 76l-129 37q-233 66 -308 155.5t-75 268.5q0 215 122 337.5t337 122.5q217 0 339 -121.5t136 -353.5h-242q-14 117 -71.5 170t-169.5 53q-100 0 -158 -48t-58 -130q0 -63 29 -98t98 -55l295 -88 q168 -51 242 -143.5t74 -256.5q0 -221 -131 -349t-359 -128q-233 0 -363 125t-138 367zM240 1872h190l127 -127l125 127h190l-210 -258h-211z" />
<glyph unicode="&#x161;" d="M51 348h242q6 -158 190 -158q72 0 113 31t41 82q0 82 -195 121q-186 35 -272 114.5t-86 217.5q0 168 99.5 265t271.5 97q178 0 272 -82t119 -278h-232q-12 80 -47 110.5t-112 30.5q-141 0 -142 -102q0 -84 193 -119q193 -37 279.5 -121t86.5 -217q0 -172 -106.5 -270.5 t-290.5 -98.5q-389 0 -424 377zM170 1532h190l107 -168l104 168h191l-191 -299h-211z" />
<glyph unicode="&#x162;" horiz-adv-x="1026" d="M23 1210v260h981v-260h-365v-1210h-76l-53 -117h41q66 0 106.5 -45t40.5 -114q0 -92 -59 -154t-154 -62q-74 0 -188 52l37 98q92 -33 127 -33q39 0 59.5 28t20.5 64q0 31 -19.5 52.5t-46.5 21.5q-20 0 -65 -16l-35 41l90 184h-78v1210h-364z" />
<glyph unicode="&#x163;" horiz-adv-x="559" d="M16 885v205h121v294h234v-294h147v-205h-147v-592q0 -57 17.5 -72.5t78.5 -15.5q25 0 51 4v-217q-80 -4 -112 -4h-31h-23l-47 -105h41q66 0 107 -45t41 -114q0 -92 -59.5 -154t-153.5 -62q-74 0 -189 52l37 98q92 -33 127 -33q39 0 59.5 28t20.5 64q0 31 -19.5 52.5 t-46.5 21.5q-20 0 -65 -16l-35 41l90 186q-123 37 -123 221v662h-121z" />
<glyph unicode="&#x164;" horiz-adv-x="1026" d="M23 1210v260h981v-260h-365v-1210h-252v1210h-364zM199 1872h190l127 -127l125 127h190l-210 -258h-211z" />
<glyph unicode="&#x165;" horiz-adv-x="559" d="M16 885v205h121v294h234v-294h147v-205h-147v-592q0 -57 17.5 -72.5t78.5 -15.5q25 0 51 4v-217q-80 -4 -112 -4h-31q-129 0 -183.5 53t-54.5 182v662h-121zM430 1149v94q61 12 95 58.5t34 111.5v12h-129v230h221v-211q0 -131 -63.5 -211t-157.5 -84z" />
<glyph unicode="&#x168;" horiz-adv-x="1212" d="M121 496v974h256v-954q0 -141 59.5 -218t167.5 -77q115 0 174.5 72t59.5 209v968h256v-956q0 -270 -125 -411.5t-365 -141.5q-231 0 -357 140.5t-126 394.5zM301 1614q43 252 203 252q12 0 113.5 -37t111.5 -37q59 0 80 82h109q-41 -246 -181 -246q-23 0 -127 37t-125 37 q-59 0 -77 -88h-107z" />
<glyph unicode="&#x169;" horiz-adv-x="1026" d="M111 373v717h233v-676q0 -201 152 -201q88 0 137 66.5t49 181.5v629h233v-1090h-225v160q-90 -188 -278 -189q-143 0 -222 104.5t-79 297.5zM205 1253q41 252 203 252q12 0 113.5 -36.5t111.5 -36.5q59 0 80 81h108q-39 -246 -180 -245q-23 0 -127 36.5t-125 36.5 q-59 0 -78 -88h-106z" />
<glyph unicode="&#x16a;" horiz-adv-x="1212" d="M121 496v974h256v-954q0 -141 59.5 -218t167.5 -77q115 0 174.5 72t59.5 209v968h256v-956q0 -270 -125 -411.5t-365 -141.5q-231 0 -357 140.5t-126 394.5zM319 1669v150h580v-150h-580z" />
<glyph unicode="&#x16b;" horiz-adv-x="1026" d="M111 373v717h233v-676q0 -201 152 -201q88 0 137 66.5t49 181.5v629h233v-1090h-225v160q-90 -188 -278 -189q-143 0 -222 104.5t-79 297.5zM223 1309v149h580v-149h-580z" />
<glyph unicode="&#x16c;" horiz-adv-x="1212" d="M121 496v974h256v-954q0 -141 59.5 -218t167.5 -77q115 0 174.5 72t59.5 209v968h256v-956q0 -270 -125 -411.5t-365 -141.5q-231 0 -357 140.5t-126 394.5zM303 1872h111q33 -51 74.5 -75.5t119.5 -24.5t117 24.5t57 75.5h129q-68 -258 -313 -258q-232 0 -295 258z" />
<glyph unicode="&#x16d;" horiz-adv-x="1026" d="M111 373v717h233v-676q0 -201 152 -201q88 0 137 66.5t49 181.5v629h233v-1090h-225v160q-90 -188 -278 -189q-143 0 -222 104.5t-79 297.5zM229 1532h111q14 -78 53 -109.5t121 -31.5t120 30.5t54 110.5h109q-31 -299 -293 -299q-248 0 -275 299z" />
<glyph unicode="&#x16e;" horiz-adv-x="1212" d="M121 496v974h256v-954q0 -141 59.5 -218t167.5 -77q115 0 174.5 72t59.5 209v968h256v-956q0 -270 -125 -411.5t-365 -141.5q-231 0 -357 140.5t-126 394.5zM397 1786q0 72 64.5 125t148.5 53t148.5 -54.5t64.5 -127.5q0 -72 -63.5 -126t-149.5 -54t-149.5 54t-63.5 130z M504 1784q0 -37 30.5 -62.5t75.5 -25.5t76 25.5t31 60.5q0 37 -31 62.5t-76 25.5q-43 0 -74.5 -25.5t-31.5 -60.5z" />
<glyph unicode="&#x16f;" horiz-adv-x="1026" d="M111 373v717h233v-676q0 -201 152 -201q88 0 137 66.5t49 181.5v629h233v-1090h-225v160q-90 -188 -278 -189q-143 0 -222 104.5t-79 297.5zM301 1386q0 72 64.5 125.5t148.5 53.5t148.5 -54.5t64.5 -128.5q0 -72 -63.5 -126t-149.5 -54t-149.5 54t-63.5 130zM408 1384 q0 -37 30.5 -62.5t75.5 -25.5t76 26t31 60q0 37 -31 62.5t-76 25.5q-43 0 -74.5 -25.5t-31.5 -60.5z" />
<glyph unicode="&#x170;" horiz-adv-x="1212" d="M121 496v974h256v-954q0 -141 59.5 -218t167.5 -77q115 0 174.5 72t59.5 209v968h256v-956q0 -270 -125 -411.5t-365 -141.5q-231 0 -357 140.5t-126 394.5zM342 1614l158 299h260l-248 -299h-170zM686 1614l158 299h260l-248 -299h-170z" />
<glyph unicode="&#x171;" horiz-adv-x="1026" d="M111 373v717h233v-676q0 -201 152 -201q88 0 137 66.5t49 181.5v629h233v-1090h-225v160q-90 -188 -278 -189q-143 0 -222 104.5t-79 297.5zM248 1233l158 299h260l-248 -299h-170zM592 1233l158 299h260l-248 -299h-170z" />
<glyph unicode="&#x172;" horiz-adv-x="1212" d="M121 496v974h256v-954q0 -141 59.5 -218t167.5 -77q115 0 174.5 72t59.5 209v968h256v-956q0 -379 -244 -502q-180 -88 -180 -235q0 -47 39 -75t94 -28h82v-186h-82q-141 0 -235.5 49t-94.5 164q0 135 139 260h-8q-231 0 -357 140.5t-126 394.5z" />
<glyph unicode="&#x173;" horiz-adv-x="1026" d="M111 373v717h233v-676q0 -201 152 -201q88 0 137 66.5t49 181.5v629h233v-1090q-92 -39 -151 -117q-43 -59 -43 -106t39 -75t94 -28h82v-186h-82q-141 0 -235.5 49t-94.5 164q0 150 185 299h-19v160q-90 -188 -278 -189q-143 0 -222 104.5t-79 297.5z" />
<glyph unicode="&#x174;" horiz-adv-x="1585" d="M27 1470h268q164 -856 194 -1087l168 1087h269l180 -1087l199 1087h256l-340 -1470h-242l-188 1157l-138 -866l-51 -291h-233zM475 1614l211 258h211l211 -258h-190l-127 127l-125 -127h-191z" />
<glyph unicode="&#x175;" horiz-adv-x="1306" d="M16 1090h250l142 -793l129 793h235l137 -793l142 793h241l-258 -1090h-241l-142 805l-141 -805h-242zM356 1233l191 299h211l190 -299h-190l-107 168l-104 -168h-191z" />
<glyph unicode="&#x176;" horiz-adv-x="1120" d="M25 1470h297l249 -639l240 639h285l-404 -919v-551h-252v555zM250 1614l211 258h211l211 -258h-191l-127 127l-125 -127h-190z" />
<glyph unicode="&#x177;" d="M16 1090h263l192 -811l184 811h250l-307 -1072q-90 -315 -139 -380q-55 -76 -201 -76l-113 4v229q33 -4 50 -4q76 0 105.5 32t45.5 132zM170 1233l190 299h211l191 -299h-191l-106 168l-105 -168h-190z" />
<glyph unicode="&#x178;" horiz-adv-x="1120" d="M25 1470h297l249 -639l240 639h285l-404 -919v-551h-252v555zM301 1626v236h197v-236h-197zM639 1626v236h197v-236h-197z" />
<glyph unicode="&#x179;" horiz-adv-x="1026" d="M41 0v260l625 950h-609v260h924v-241l-633 -969h637v-260h-944zM440 1614l148 258h268l-256 -258h-160z" />
<glyph unicode="&#x17a;" horiz-adv-x="839" d="M33 0v223l461 637h-428v230h725v-236l-453 -618h469v-236h-774zM334 1233l158 299h258l-246 -299h-170z" />
<glyph unicode="&#x17b;" horiz-adv-x="1026" d="M41 0v260l625 950h-609v260h924v-241l-633 -969h637v-260h-944zM408 1626v236h233v-236h-233z" />
<glyph unicode="&#x17c;" horiz-adv-x="839" d="M33 0v223l461 637h-428v230h725v-236l-453 -618h469v-236h-774zM305 1266v235h234v-235h-234z" />
<glyph unicode="&#x17d;" horiz-adv-x="1026" d="M41 0v260l625 950h-609v260h924v-241l-633 -969h637v-260h-944zM205 1872h190l127 -127l125 127h191l-211 -258h-211z" />
<glyph unicode="&#x17e;" horiz-adv-x="839" d="M33 0v223l461 637h-428v230h725v-236l-453 -618h469v-236h-774zM123 1532h190l107 -168l104 168h191l-191 -299h-211z" />
<glyph unicode="&#x17f;" horiz-adv-x="559" d="M145 0v1178q0 162 67 236.5t208 74.5q57 0 110 -4v-232h-67q-55 0 -69.5 -21.5t-14.5 -98.5v-1133h-234z" />
<glyph unicode="&#x18e;" horiz-adv-x="1120" d="M127 0v260h670v381h-590v260h590v309h-641v260h886v-1470h-915z" />
<glyph unicode="&#x192;" d="M-16 -387l41 227q49 -35 86 -35q57 0 80.5 53.5t50.5 235.5l96 684h-205v199h229l33 178q35 184 104.5 269t190.5 85q72 0 176 -39l-41 -221q-51 31 -94 31t-72.5 -33t-37.5 -90l-25 -180h201v-199h-226l-98 -735q-33 -242 -110.5 -357.5t-210.5 -115.5q-57 0 -168 43z " />
<glyph unicode="&#x1a0;" horiz-adv-x="1306" d="M74 733q0 367 158.5 571.5t429.5 204.5q262 0 417 -213q39 70 39 177h-117v235h234v-235q0 -176 -90 -289q88 -182 88 -449q0 -362 -157.5 -568t-422.5 -206q-266 0 -422.5 207t-156.5 565zM326 739q0 -244 87 -381t240.5 -137t240.5 138.5t87 381.5q0 231 -88 369.5 t-236 138.5q-156 0 -243.5 -136t-87.5 -374z" />
<glyph unicode="&#x1a1;" horiz-adv-x="1048" d="M57 543q0 264 125 419.5t338 155.5q223 0 344 -182q29 63 29 156h-117v235h234v-235q0 -168 -82 -279q43 -117 43 -270q0 -260 -125 -416t-332 -156t-332 156t-125 416zM299 545q0 -162 55.5 -247t159.5 -85t159.5 85t55.5 247q0 160 -55.5 246t-157.5 86 q-217 0 -217 -332z" />
<glyph unicode="&#x1af;" horiz-adv-x="1404" d="M121 496v974h256v-954q0 -141 59.5 -218t167.5 -77q115 0 174.5 72t59.5 209v968h256v-251q78 0 116.5 74.5t38.5 179.5h-116v235h233v-235q0 -154 -73.5 -267.5t-198.5 -113.5v-578q0 -270 -125 -411.5t-365 -141.5q-231 0 -357 140.5t-126 394.5z" />
<glyph unicode="&#x1b0;" horiz-adv-x="1226" d="M111 373v717h233v-676q0 -201 152 -201q88 0 137 66.5t49 181.5v629h233v-252q78 0 117 74.5t39 179.5h-117v235h234v-235q0 -154 -74 -267.5t-199 -113.5v-711h-225v160q-90 -188 -278 -189q-143 0 -222 104.5t-79 297.5z" />
<glyph unicode="&#x1dd;" d="M39 573v52h612q-10 137 -59 199.5t-146 62.5q-121 0 -155 -119h-242q100 350 402 350q209 0 322.5 -150.5t113.5 -426.5q0 -266 -112.5 -418t-311.5 -152q-205 0 -314.5 155.5t-109.5 446.5zM281 436q25 -229 184 -229q78 0 121 55t59 174h-364z" />
<glyph unicode="&#x1e6;" horiz-adv-x="1306" d="M74 725q0 360 159.5 572t430.5 212q215 0 356 -130t174 -365h-254q-18 106 -94 174.5t-176 68.5q-158 0 -249 -143t-91 -389q0 -240 89 -372t251 -132q113 0 188.5 74t116.5 248h-283v250h506v-793h-168l-26 184q-88 -125 -171 -174t-206 -49q-248 0 -400.5 211 t-152.5 553zM348 1872h191l127 -127l125 127h190l-211 -258h-211z" />
<glyph unicode="&#x1e7;" horiz-adv-x="1026" d="M68 555q0 256 102 409.5t270 153.5q92 0 154.5 -46t107.5 -150v168h226v-1033q0 -270 -108.5 -385.5t-327.5 -115.5q-360 0 -406 327h256q10 -57 46 -82.5t110 -25.5q102 0 148 58t46 190v141q-45 -94 -98 -132t-143 -38q-176 0 -279.5 150.5t-103.5 410.5zM217 1532h191 l106 -168l104 168h191l-191 -299h-210zM309 547q0 -145 50.5 -228t138.5 -83q94 0 145 81.5t51 229.5q0 143 -54 232t-142 89t-138.5 -85.5t-50.5 -235.5z" />
<glyph unicode="&#x1ea;" horiz-adv-x="1306" d="M74 733q0 367 158.5 571.5t429.5 204.5q256 0 413.5 -206.5t157.5 -567.5q0 -242 -73 -417t-206 -267q-55 -39 -81.5 -60.5t-66.5 -59t-58.5 -75.5t-18.5 -79q0 -47 39 -75t94 -28h82v-186h-82q-141 0 -235.5 49t-94.5 164q0 135 140 260h-19q-266 0 -422.5 207 t-156.5 565zM326 739q0 -244 87 -381t240.5 -137t240.5 138.5t87 381.5q0 231 -88 369.5t-236 138.5q-156 0 -243.5 -136t-87.5 -374z" />
<glyph unicode="&#x1eb;" horiz-adv-x="1026" d="M57 543q0 264 125 419.5t338 155.5q205 0 328 -157.5t123 -417.5q0 -172 -57.5 -302t-159.5 -200q-188 -129 -189 -264q0 -47 39 -75t94 -28h82v-186h-82q-141 0 -235 49t-94 164q0 135 151 270h-6q-207 0 -332 156t-125 416zM299 545q0 -162 55.5 -247t159.5 -85 t159.5 85t55.5 247q0 160 -55.5 246t-157.5 86q-217 0 -217 -332z" />
<glyph unicode="&#x1f4;" horiz-adv-x="1306" d="M74 725q0 360 159.5 572t430.5 212q215 0 356 -130t174 -365h-254q-18 106 -94 174.5t-176 68.5q-158 0 -249 -143t-91 -389q0 -240 89 -372t251 -132q113 0 188.5 74t116.5 248h-283v250h506v-793h-168l-26 184q-88 -125 -171 -174t-206 -49q-248 0 -400.5 211 t-152.5 553zM584 1614l147 258h268l-256 -258h-159z" />
<glyph unicode="&#x1f5;" horiz-adv-x="1026" d="M68 555q0 256 102 409.5t270 153.5q92 0 154.5 -46t107.5 -150v168h226v-1033q0 -270 -108.5 -385.5t-327.5 -115.5q-360 0 -406 327h256q10 -57 46 -82.5t110 -25.5q102 0 148 58t46 190v141q-45 -94 -98 -132t-143 -38q-176 0 -279.5 150.5t-103.5 410.5zM309 547 q0 -145 50.5 -228t138.5 -83q94 0 145 81.5t51 229.5q0 143 -54 232t-142 89t-138.5 -85.5t-50.5 -235.5zM428 1233l158 299h258l-246 -299h-170z" />
<glyph unicode="&#x1fa;" horiz-adv-x="1212" d="M33 0l430 1470h291l426 -1470h-275l-78 303h-444l-84 -303h-266zM397 1786q0 72 64.5 125t148.5 53t148.5 -54.5t64.5 -127.5q0 -72 -63.5 -126t-149.5 -54t-149.5 54t-63.5 130zM451 555h307l-152 590zM504 1784q0 -37 30.5 -62.5t75.5 -25.5t76 25.5t31 60.5 q0 37 -31 62.5t-76 25.5q-43 0 -74.5 -25.5t-31.5 -60.5zM528 2005l148 258h268l-256 -258h-160z" />
<glyph unicode="&#x1fb;" d="M49 291q0 143 68.5 233t193.5 113l211 39q82 14 82 90q0 123 -145 123q-76 0 -111 -34t-45 -118h-225q20 207 112.5 294t278.5 87q174 0 269.5 -83t95.5 -232v-590q0 -143 51 -170v-43h-252q-14 55 -23 129q-70 -88 -133 -123t-149 -35q-129 0 -204 86.5t-75 233.5z M258 1405q0 72 64.5 125t148.5 53t148.5 -54t64.5 -128q0 -72 -63.5 -126t-149.5 -54t-149.5 54t-63.5 130zM285 309q0 -61 30.5 -97t81.5 -36q86 0 146.5 62.5t60.5 152.5v139q-39 -35 -160 -59q-88 -18 -123.5 -55t-35.5 -107zM365 1403q0 -37 30.5 -62.5t75.5 -25.5 t76 25.5t31 60.5q0 37 -31 62.5t-76 25.5q-43 0 -74.5 -25.5t-31.5 -60.5zM389 1624l148 258h268l-256 -258h-160z" />
<glyph unicode="&#x1fc;" horiz-adv-x="1679" d="M8 0l441 1470h1140v-260h-622v-309h561v-260h-561v-381h635v-260h-881v313h-361l-88 -313h-264zM426 555h295v655h-109zM764 1614l147 258h269l-256 -258h-160z" />
<glyph unicode="&#x1fd;" horiz-adv-x="1492" d="M49 301q0 127 60.5 210t166.5 105l220 46q78 14 99 32.5t21 71.5q0 63 -36.5 93t-118.5 30q-76 0 -111 -37t-39 -117h-229q18 199 114.5 291t276.5 92q168 0 287 -121q70 68 130 94.5t140 26.5q195 0 303.5 -158.5t108.5 -443.5v-51h-613q10 -137 59.5 -199.5 t145.5 -62.5q121 0 156 119h242q-100 -350 -406 -351q-117 0 -187.5 39t-133.5 137q-104 -176 -338 -176q-154 0 -236 86t-82 244zM285 309q0 -63 32.5 -98t92.5 -35q80 0 141 63.5t61 145.5v135q-33 -35 -174 -61q-90 -16 -121.5 -48t-31.5 -102zM662 1233l157 299h258 l-246 -299h-169zM836 653h364q-25 229 -184 230q-78 0 -121 -55.5t-59 -174.5z" />
<glyph unicode="&#x1fe;" horiz-adv-x="1306" d="M55 23l144 190q-125 215 -125 518q0 365 157.5 571.5t419.5 206.5q211 0 391 -166l138 183l69 -78l-141 -188q125 -215 125 -521q0 -365 -157.5 -571.5t-422.5 -206.5q-219 0 -389 168l-139 -184zM326 733q0 -164 45 -287l510 682q-98 121 -228 121q-152 0 -239.5 -138 t-87.5 -378zM424 344q96 -123 229 -123q152 0 240 138.5t88 375.5q0 172 -47 291zM573 1614l148 258h268l-256 -258h-160z" />
<glyph unicode="&#x1ff;" horiz-adv-x="1026" d="M37 0l123 158q-102 166 -103 387q0 262 124 417.5t333 155.5q166 0 301 -121l115 150l59 -66l-119 -151q100 -166 101 -385q0 -260 -125 -417t-332 -157q-166 0 -297 119l-117 -149zM299 547q0 -100 25 -180l342 438q-63 72 -152 72q-104 0 -159.5 -85t-55.5 -245z M367 283q55 -70 145 -70q106 0 161.5 85t55.5 249q0 100 -24 172zM428 1233l158 299h258l-246 -299h-170z" />
<glyph unicode="&#x200;" horiz-adv-x="1212" d="M33 0l430 1470h291l426 -1470h-275l-78 303h-444l-84 -303h-266zM113 1913h260l157 -299h-170zM451 555h307l-152 590zM457 1913h260l157 -299h-169z" />
<glyph unicode="&#x201;" d="M-27 1532h260l158 -299h-170zM49 291q0 143 68.5 233t193.5 113l211 39q82 14 82 90q0 123 -145 123q-76 0 -111 -34t-45 -118h-225q20 207 112.5 294t278.5 87q174 0 269.5 -83t95.5 -232v-590q0 -143 51 -170v-43h-252q-14 55 -23 129q-70 -88 -133 -123t-149 -35 q-129 0 -204 86.5t-75 233.5zM285 309q0 -61 30.5 -97t81.5 -36q86 0 146.5 62.5t60.5 152.5v139q-39 -35 -160 -59q-88 -18 -123.5 -55t-35.5 -107zM317 1532h261l157 -299h-170z" />
<glyph unicode="&#x204;" horiz-adv-x="1120" d="M76 1913h260l158 -299h-170zM127 0v1470h887v-260h-641v-309h590v-260h-590v-381h669v-260h-915zM420 1913h260l158 -299h-170z" />
<glyph unicode="&#x205;" d="M-29 1532h260l158 -299h-170zM39 549q0 266 112.5 417.5t311.5 151.5q205 0 314.5 -155.5t109.5 -446.5v-51h-613q10 -137 59.5 -199.5t145.5 -62.5q121 0 156 119h242q-100 -350 -402 -351q-209 0 -322.5 151t-113.5 427zM281 653h364q-25 229 -184 230 q-78 0 -121 -55.5t-59 -174.5zM315 1532h260l158 -299h-170z" />
<glyph unicode="&#x208;" horiz-adv-x="466" d="M-262 1913h260l158 -299h-170zM82 1913h260l158 -299h-170zM106 0v1470h252v-1470h-252z" />
<glyph unicode="&#x209;" horiz-adv-x="466" d="M-262 1532h260l158 -299h-170zM82 1532h260l158 -299h-170zM117 0v1090h233v-1090h-233z" />
<glyph unicode="&#x20c;" horiz-adv-x="1306" d="M74 733q0 367 158.5 571.5t429.5 204.5q256 0 413.5 -206.5t157.5 -567.5q0 -362 -157.5 -568t-422.5 -206q-266 0 -422.5 207t-156.5 565zM166 1913h260l158 -299h-170zM326 739q0 -244 87 -381t240.5 -137t240.5 138.5t87 381.5q0 231 -88 369.5t-236 138.5 q-156 0 -243.5 -136t-87.5 -374zM510 1913h260l158 -299h-170z" />
<glyph unicode="&#x20d;" horiz-adv-x="1026" d="M16 1532h260l158 -299h-170zM57 543q0 264 125 419.5t338 155.5q205 0 328 -157.5t123 -417.5t-125 -416t-332 -156t-332 156t-125 416zM299 545q0 -162 55.5 -247t159.5 -85t159.5 85t55.5 247q0 160 -55.5 246t-157.5 86q-217 0 -217 -332zM360 1532h261l157 -299h-170 z" />
<glyph unicode="&#x210;" horiz-adv-x="1212" d="M76 1913h260l158 -299h-170zM127 0v1470h608q174 0 277.5 -113.5t103.5 -303.5q0 -260 -186 -348q98 -53 125.5 -133t27.5 -310q0 -125 9.5 -166t44.5 -57v-39h-279q-29 131 -29 295q0 133 -20.5 192.5t-55 72.5t-120.5 13h-260v-573h-246zM373 823h297q100 0 147 48.5 t47 148.5q0 96 -46 147.5t-130 51.5h-315v-396zM420 1913h260l158 -299h-170z" />
<glyph unicode="&#x211;" horiz-adv-x="653" d="M-156 1532h260l158 -299h-170zM106 0v1090h226v-195q53 125 107.5 174t140.5 49q20 0 47 -4v-291q-33 4 -60 4q-227 0 -227 -260v-567h-234zM188 1532h261l157 -299h-170z" />
<glyph unicode="&#x214;" horiz-adv-x="1212" d="M113 1913h260l157 -299h-170zM121 496v974h256v-954q0 -141 59.5 -218t167.5 -77q115 0 174.5 72t59.5 209v968h256v-956q0 -270 -125 -411.5t-365 -141.5q-231 0 -357 140.5t-126 394.5zM457 1913h260l157 -299h-169z" />
<glyph unicode="&#x215;" horiz-adv-x="1026" d="M16 1532h260l158 -299h-170zM111 373v717h233v-676q0 -201 152 -201q88 0 137 66.5t49 181.5v629h233v-1090h-225v160q-90 -188 -278 -189q-143 0 -222 104.5t-79 297.5zM360 1532h261l157 -299h-170z" />
<glyph unicode="&#x218;" horiz-adv-x="1120" d="M66 453h241q14 -240 262 -240q117 0 181.5 49t64.5 139q0 72 -46 111t-173 76l-129 37q-233 66 -308 155.5t-75 268.5q0 215 122 337.5t337 122.5q217 0 339 -121.5t136 -353.5h-242q-14 117 -71.5 170t-169.5 53q-100 0 -158 -48t-58 -130q0 -63 29 -98t98 -55l295 -88 q168 -51 242 -143.5t74 -256.5q0 -221 -131 -349t-359 -128q-233 0 -363 125t-138 367zM444 -123h222v-211q0 -131 -63.5 -211t-158.5 -84v94q61 12 95 58.5t34 111.5v13h-129v229z" />
<glyph unicode="&#x219;" d="M51 348h242q6 -158 190 -158q72 0 113 31t41 82q0 82 -195 121q-186 35 -272 114.5t-86 217.5q0 168 99.5 265t271.5 97q178 0 272 -82t119 -278h-232q-12 80 -47 110.5t-112 30.5q-141 0 -142 -102q0 -84 193 -119q193 -37 279.5 -121t86.5 -217q0 -172 -106.5 -270.5 t-290.5 -98.5q-389 0 -424 377zM356 -123h222v-211q0 -131 -63.5 -211t-158.5 -84v94q61 12 95 58.5t34 111.5v13h-129v229z" />
<glyph unicode="&#x21a;" horiz-adv-x="1026" d="M23 1210v260h981v-260h-365v-1210h-252v1210h-364zM403 -123h222v-211q0 -131 -63.5 -211t-158.5 -84v94q61 12 95 58.5t34 111.5v13h-129v229z" />
<glyph unicode="&#x21b;" horiz-adv-x="559" d="M16 885v205h121v294h234v-294h147v-205h-147v-592q0 -57 17.5 -72.5t78.5 -15.5q25 0 51 4v-217q-80 -4 -112 -4h-31q-129 0 -183.5 53t-54.5 182v662h-121zM217 -123h221v-211q0 -131 -63.5 -211t-157.5 -84v94q61 12 95 58.5t34 111.5v13h-129v229z" />
<glyph unicode="&#x258;" d="M39 465v51q0 291 109.5 446.5t314.5 155.5q199 0 311.5 -151.5t112.5 -417.5q0 -276 -114 -427t-322 -151q-301 0 -402 351h242q35 -119 155 -119q96 0 145.5 62.5t59.5 199.5h-612zM281 653h364q-16 119 -59 174.5t-121 55.5q-159 -1 -184 -230z" />
<glyph unicode="&#x259;" d="M39 573v52h612q-10 137 -59 199.5t-146 62.5q-121 0 -155 -119h-242q100 350 402 350q209 0 322.5 -150.5t113.5 -426.5q0 -266 -112.5 -418t-311.5 -152q-205 0 -314.5 155.5t-109.5 446.5zM281 436q25 -229 184 -229q78 0 121 55t59 174h-364z" />
<glyph unicode="&#x2be;" horiz-adv-x="815" d="M117 926q0 18 16 18h158q16 0 16 -14q20 -104 86 -105q111 0 111 207t-103 207q-39 0 -63.5 -30.5t-28.5 -82.5q0 -14 -16 -14h-158q-20 0 -16 18q18 145 93 222.5t196 77.5q139 0 214.5 -101.5t75.5 -288.5q0 -193 -79.5 -301t-219.5 -108q-121 0 -194.5 75t-87.5 220z " />
<glyph unicode="&#x2bf;" horiz-adv-x="815" d="M117 1020q0 193 79.5 301.5t219.5 108.5q121 0 194.5 -75t87.5 -220q0 -18 -16 -19h-158q-16 0 -16 14q-20 104 -86 105q-111 0 -111 -207t103 -207q39 0 63.5 31t28.5 82q0 14 16 14h158q20 0 16 -18q-18 -145 -93 -222t-195 -77q-139 0 -215 101.5t-76 287.5z" />
<glyph unicode="&#x2c6;" horiz-adv-x="559" d="M-16 1233l190 299h211l190 -299h-190l-106 168l-105 -168h-190z" />
<glyph unicode="&#x2c7;" horiz-adv-x="559" d="M-16 1532h190l107 -168l104 168h190l-190 -299h-211z" />
<glyph unicode="&#x2d8;" horiz-adv-x="559" d="M-4 1532h110q14 -78 53.5 -109.5t121 -31.5t119.5 30.5t55 110.5h108q-31 -299 -293 -299q-247 0 -274 299z" />
<glyph unicode="&#x2d9;" horiz-adv-x="559" d="M166 1266v235h233v-235h-233z" />
<glyph unicode="&#x2da;" horiz-adv-x="559" d="M68 1386q0 72 64.5 125.5t148.5 53.5t148.5 -54.5t64.5 -128.5q0 -72 -63.5 -126t-149.5 -54t-149.5 54t-63.5 130zM174 1384q0 -37 31 -62.5t76 -25.5t75.5 26t30.5 60q0 37 -30.5 62.5t-75.5 25.5q-43 0 -75 -25.5t-32 -60.5z" />
<glyph unicode="&#x2db;" horiz-adv-x="559" d="M82 -299q0 150 184 299h187q-174 -117 -174 -223q0 -47 38.5 -75t94.5 -28h82v-186h-82q-141 0 -235.5 49t-94.5 164z" />
<glyph unicode="&#x2dc;" horiz-adv-x="559" d="M-29 1253q41 252 203 252q12 0 113.5 -36.5t111.5 -36.5q59 0 80 81h109q-39 -246 -180 -245q-23 0 -127.5 36.5t-124.5 36.5q-59 0 -78 -88h-107z" />
<glyph unicode="&#x2dd;" horiz-adv-x="559" d="M14 1233l158 299h260l-248 -299h-170zM358 1233l158 299h260l-248 -299h-170z" />
<glyph unicode="&#x300;" horiz-adv-x="0" d="M-797 1532h258l158 -299h-170z" />
<glyph unicode="&#x301;" horiz-adv-x="0" d="M-551 1233l158 299h258l-246 -299h-170z" />
<glyph unicode="&#x302;" horiz-adv-x="0" d="M-762 1233l191 299h211l190 -299h-190l-107 168l-104 -168h-191z" />
<glyph unicode="&#x303;" horiz-adv-x="0" d="M-774 1253q41 252 203 252q12 0 113.5 -36.5t111.5 -36.5q59 0 80 81h108q-41 -246 -180 -245q-23 0 -127 36.5t-125 36.5q-59 0 -78 -88h-106z" />
<glyph unicode="&#x304;" horiz-adv-x="0" d="M-756 1309v149h580v-149h-580z" />
<glyph unicode="&#x306;" horiz-adv-x="0" d="M-750 1532h111q14 -78 53 -109.5t121 -31.5t120 30.5t54 110.5h109q-31 -299 -293 -299q-248 0 -275 299z" />
<glyph unicode="&#x307;" horiz-adv-x="0" d="M-580 1266v235h234v-235h-234z" />
<glyph unicode="&#x308;" horiz-adv-x="0" d="M-733 1266v235h196v-235h-196zM-395 1266v235h196v-235h-196z" />
<glyph unicode="&#x309;" horiz-adv-x="0" d="M-692 1378q0 188 237 189q104 0 165 -38t61 -104q0 -39 -21.5 -65.5t-81.5 -61.5q-47 -31 -59 -41t-12 -24v-49h-127v55q0 37 22.5 61.5t85.5 57.5v-2q66 41 66 69q0 23 -29 37.5t-76 14.5q-70 0 -92 -29v2q-14 -16 -14 -72h-125z" />
<glyph unicode="&#x30a;" horiz-adv-x="0" d="M-678 1386q0 72 64.5 125.5t148.5 53.5t148.5 -54.5t64.5 -128.5q0 -72 -63.5 -126t-149.5 -54t-149.5 54t-63.5 130zM-571 1384q0 -37 30.5 -62.5t75.5 -25.5t76 26t31 60q0 37 -31 62.5t-76 25.5q-43 0 -74.5 -25.5t-31.5 -60.5z" />
<glyph unicode="&#x30b;" horiz-adv-x="0" d="M-731 1233l158 299h260l-248 -299h-170zM-387 1233l158 299h260l-248 -299h-170z" />
<glyph unicode="&#x30c;" horiz-adv-x="0" d="M-762 1532h191l106 -168l105 168h190l-190 -299h-211z" />
<glyph unicode="&#x30f;" horiz-adv-x="0" d="M-963 1532h261l157 -299h-170zM-618 1532h260l157 -299h-170z" />
<glyph unicode="&#x311;" horiz-adv-x="0" d="M-750 1233q31 299 293 299q248 0 275 -299h-111q-14 78 -53 109.5t-121 31.5t-120 -30.5t-54 -110.5h-109z" />
<glyph unicode="&#x323;" horiz-adv-x="0" d="M-580 -174h234v-236h-234v236z" />
<glyph unicode="&#x326;" horiz-adv-x="0" d="M-575 -123h221v-211q0 -131 -63.5 -211t-157.5 -84v94q61 12 95 58.5t34 111.5v13h-129v229z" />
<glyph unicode="&#x32e;" horiz-adv-x="0" d="M-770 -164h111q33 -51 74.5 -75.5t119.5 -24.5t117 24.5t57 75.5h129q-68 -258 -313 -258q-232 0 -295 258z" />
<glyph unicode="&#x32f;" horiz-adv-x="0" d="M-770 -422q68 258 313 258q231 0 295 -258h-110q-33 51 -75 75.5t-120 24.5t-117 -24.5t-57 -75.5h-129z" />
<glyph unicode="&#x330;" horiz-adv-x="0" d="M-774 -422q41 252 203 252q12 0 113.5 -37t111.5 -37q59 0 80 82h108q-41 -246 -180 -246q-23 0 -127 37t-125 37q-59 0 -78 -88h-106z" />
<glyph unicode="&#x331;" horiz-adv-x="0" d="M-756 -217h580v-150h-580v150z" />
<glyph unicode="&#x332;" horiz-adv-x="0" d="M-756 -217h580v-150h-580v150z" />
<glyph unicode="&#x391;" horiz-adv-x="1212" d="M33 0l430 1470h291l426 -1470h-275l-78 303h-444l-84 -303h-266zM451 555h307l-152 590z" />
<glyph unicode="&#x392;" horiz-adv-x="1212" d="M127 0v1470h586q174 0 273 -102t99 -281q0 -109 -34.5 -178t-112.5 -116q186 -102 186 -351q0 -184 -104 -311q-63 -76 -144 -103.5t-239 -27.5h-510zM369 252h309q195 0 194 209q0 88 -48 136t-134 48h-321v-393zM369 895h295q86 0 133 43t47 125q0 156 -187 156h-288 v-324z" />
<glyph unicode="&#x393;" horiz-adv-x="1026" d="M127 0v1470h858v-260h-606v-1210h-252z" />
<glyph unicode="&#x394;" horiz-adv-x="1028" d="M14 0l387 1417h226l387 -1417h-1000zM319 233h390l-195 711z" />
<glyph unicode="&#x395;" horiz-adv-x="1120" d="M127 0v1470h887v-260h-641v-309h590v-260h-590v-381h669v-260h-915z" />
<glyph unicode="&#x396;" horiz-adv-x="1026" d="M41 0v260l625 950h-609v260h924v-241l-633 -969h637v-260h-944z" />
<glyph unicode="&#x397;" horiz-adv-x="1212" d="M119 0v1470h252v-557h471v557h252v-1470h-252v662h-471v-662h-252z" />
<glyph unicode="&#x398;" horiz-adv-x="1306" d="M74 733q0 367 158.5 571.5t429.5 204.5q256 0 413.5 -206.5t157.5 -567.5q0 -362 -157.5 -568t-422.5 -206q-266 0 -422.5 207t-156.5 565zM326 739q0 -244 87 -381t240.5 -137t240.5 138.5t87 381.5q0 231 -88 369.5t-236 138.5q-156 0 -243.5 -136t-87.5 -374zM436 618 v234h434v-234h-434z" />
<glyph unicode="&#x399;" horiz-adv-x="466" d="M106 0v1470h252v-1470h-252z" />
<glyph unicode="&#x39a;" horiz-adv-x="1212" d="M145 0v1470h252v-598l461 598h326l-492 -602l520 -868h-323l-375 645l-117 -147v-498h-252z" />
<glyph unicode="&#x39b;" horiz-adv-x="1212" d="M33 0l430 1470h291l426 -1470h-275l-299 1145l-307 -1145h-266z" />
<glyph unicode="&#x39c;" horiz-adv-x="1398" d="M117 0v1470h366l222 -1167l217 1167h362v-1470h-233v1247l-230 -1247h-248l-223 1247v-1247h-233z" />
<glyph unicode="&#x39d;" horiz-adv-x="1212" d="M117 0v1470h264l483 -1032v1032h234v-1470h-250l-498 1055v-1055h-233z" />
<glyph unicode="&#x39e;" horiz-adv-x="1212" d="M125 0v250h962v-250h-962zM125 1221v249h962v-249h-962zM375 618v234h463v-234h-463z" />
<glyph unicode="&#x39f;" horiz-adv-x="1306" d="M74 733q0 367 158.5 571.5t429.5 204.5q256 0 413.5 -206.5t157.5 -567.5q0 -362 -157.5 -568t-422.5 -206q-266 0 -422.5 207t-156.5 565zM326 739q0 -244 87 -381t240.5 -137t240.5 138.5t87 381.5q0 231 -88 369.5t-236 138.5q-156 0 -243.5 -136t-87.5 -374z" />
<glyph unicode="&#x3a0;" horiz-adv-x="1212" d="M119 0v1470h975v-1470h-252v1219h-471v-1219h-252z" />
<glyph unicode="&#x3a1;" horiz-adv-x="1120" d="M127 0v1470h551q170 0 272.5 -124.5t102.5 -331.5q0 -219 -105.5 -350.5t-279.5 -131.5h-289v-532h-252zM379 784h233q188 0 189 224q0 113 -51.5 162t-169.5 49h-201v-435z" />
<glyph unicode="&#x3a3;" horiz-adv-x="1032" d="M61 0v276l367 459l-367 459v276h910v-245h-619l391 -490l-391 -489h619v-246h-910z" />
<glyph unicode="&#x3a4;" horiz-adv-x="1026" d="M23 1210v260h981v-260h-365v-1210h-252v1210h-364z" />
<glyph unicode="&#x3a5;" horiz-adv-x="1120" d="M25 1470h297l249 -639l240 639h285l-404 -919v-551h-252v555z" />
<glyph unicode="&#x3a6;" horiz-adv-x="1312" d="M117 735q0 174 117.5 305t295.5 170v260h252v-260q178 -39 296 -170t118 -305t-117.5 -305t-296.5 -170v-260h-252v260q-178 39 -295.5 170t-117.5 305zM358 735q0 -76 48.5 -135t123.5 -88v446q-76 -29 -124 -88t-48 -135zM782 512q76 29 124 88t48 135t-48 135.5 t-124 87.5v-446z" />
<glyph unicode="&#x3a7;" horiz-adv-x="1120" d="M23 0l389 752l-367 718h299l215 -475l221 475h291l-369 -706l394 -764h-308l-229 502l-242 -502h-294z" />
<glyph unicode="&#x3a8;" horiz-adv-x="1290" d="M117 1090v380h241v-380q0 -125 41 -230.5t119 -157.5v768h252v-768q78 51 119 157t41 231v380h241v-380q0 -229 -109.5 -412.5t-291.5 -235.5v-442h-252v442q-182 51 -291.5 235t-109.5 413z" />
<glyph unicode="&#x3a9;" horiz-adv-x="1298" d="M61 0v246h238v123q-178 190 -178 481q0 256 149.5 445.5t379 189.5t380 -189.5t150.5 -445.5q0 -289 -181 -481v-123h238v-246h-489v481q84 41 132 143.5t48 225.5q0 158 -76 273.5t-203 115.5t-201.5 -115.5t-74.5 -273.5q0 -123 47 -225.5t131 -143.5v-481h-490z" />
<glyph unicode="&#x3b1;" horiz-adv-x="1345" d="M117 506q0 254 134 440.5t349 186.5q217 0 348 -240q51 211 72 250l209 -107q-66 -131 -154 -532q49 -246 154 -451l-209 -106q-49 92 -82 211q-139 -201 -338 -201q-205 0 -344 163t-139 386zM350 506q0 -125 71 -216t179 -91q182 0 260 309q-16 84 -32.5 140.5 t-46 117.5t-74.5 93t-107 32q-121 0 -185.5 -113.5t-64.5 -271.5z" />
<glyph unicode="&#x3b2;" horiz-adv-x="1005" d="M61 -492v1596q0 180 106.5 286.5t289.5 106.5q184 0 288.5 -103.5t104.5 -285.5t-123 -266q104 -66 147.5 -149t43.5 -220q0 -229 -110 -365.5t-296 -136.5q-127 0 -217 58v-521h-234zM295 262l119 -53h8q8 -2 41 -2q219 0 219 252q0 129 -56.5 184t-199.5 68v198 q109 4 148.5 42t39.5 134q0 88 -43 135.5t-120 47.5q-72 0 -114 -49.5t-42 -133.5v-823z" />
<glyph unicode="&#x3b3;" horiz-adv-x="1179" d="M117 1090h245l228 -707l227 707h246l-356 -1110v-472h-234v472z" />
<glyph unicode="&#x3b4;" horiz-adv-x="1026" d="M61 440q0 141 85 252t227 170q-184 156 -185 314q0 129 110 211.5t259 82.5q176 0 328 -92l-123 -200q-96 57 -205 57q-135 0 -135 -59q0 -61 43 -111.5t102.5 -82.5t120.5 -71q127 -76 202 -201.5t75 -269.5q0 -193 -132.5 -331t-320.5 -138t-319.5 138t-131.5 331z M295 440q0 -94 63.5 -163.5t153.5 -69.5q92 0 155.5 69.5t63.5 163.5q0 86 -45 159t-121 112q-113 0 -191.5 -79t-78.5 -192z" />
<glyph unicode="&#x3b5;" horiz-adv-x="1011" d="M117 352q0 156 155 248q-117 86 -116 223q0 152 92 260.5t231 108.5q162 0 371 -129l-98 -164q-86 51 -273 51q-41 0 -65.5 -38t-24.5 -89q0 -72 74 -105.5t178 -33.5v-192q-291 0 -291 -140q0 -86 60.5 -148.5t146.5 -62.5q164 0 229 45l109 -157q-190 -129 -338 -129 q-184 0 -312 133t-128 319z" />
<glyph unicode="&#x3b6;" horiz-adv-x="968" d="M117 545q0 213 94 403.5t258 329.5h-352v192h792v-192h-127q-201 -98 -316.5 -298t-115.5 -435q0 -125 48 -216t143 -91h61q133 0 220 -109t87 -258q0 -143 -88 -248.5t-219 -105.5v217q74 0 74 137q0 51 -18.5 88t-55.5 37h-61q-188 0 -306 164t-118 385z" />
<glyph unicode="&#x3b7;" horiz-adv-x="1026" d="M117 0v1090h233v-5q88 47 191 48q156 0 262 -120t106 -286v-1219h-233v1219q0 66 -38 115t-97 49q-117 0 -191 -84v-807h-233z" />
<glyph unicode="&#x3b8;" horiz-adv-x="980" d="M117 696q0 133 6 235.5t29.5 217.5t62.5 190.5t108.5 124.5t166 49t167 -49t109.5 -124.5t62.5 -190.5t29.5 -217.5t6 -235.5q0 -739 -375 -739q-109 0 -185.5 63.5t-115 175t-55 233.5t-16.5 267zM350 575q4 -174 33 -275t106 -101q80 0 109 101t33 275h-281zM350 817 h281q-4 209 -33 332t-108.5 123t-107.5 -122t-32 -333z" />
<glyph unicode="&#x3b9;" horiz-adv-x="778" d="M233 328v762h234v-762q0 -61 58.5 -95t136.5 -34v-242q-174 0 -301.5 105.5t-127.5 265.5z" />
<glyph unicode="&#x3ba;" d="M117 0v1090h233v-414l295 414h289l-316 -422l326 -668h-282l-213 467l-99 -123v-344h-233z" />
<glyph unicode="&#x3bb;" horiz-adv-x="1304" d="M117 0l485 989l-20 60q-29 84 -85.5 140t-131.5 56v217q147 0 267 -93t169 -239l387 -1130h-246l-231 674l-332 -674h-262z" />
<glyph unicode="&#x3bc;" horiz-adv-x="1259" d="M233 -492v1582h234v-738q47 -154 164 -153q115 0 162 153v738h233v-1090h-233v6q-76 -49 -162 -49q-88 0 -164 49v-498h-234z" />
<glyph unicode="&#x3bd;" horiz-adv-x="1056" d="M59 1090h246l268 -834q193 197 193 471q0 164 -41 363h238q37 -164 36 -363q0 -233 -112.5 -437t-308.5 -331l-175 64z" />
<glyph unicode="&#x3be;" horiz-adv-x="1026" d="M117 467q0 215 172 350q-133 113 -133 279q0 102 61 182h-100v192h792v-192h-354q-74 -20 -120 -68.5t-46 -113.5q0 -74 63.5 -122t149.5 -48v-217q-104 0 -178 -71t-74 -171q0 -94 54.5 -161.5t136.5 -67.5h61q133 0 220 -109t87 -258q0 -143 -88 -248.5t-219 -105.5 v217q74 0 74 137q0 51 -18.5 88t-55.5 37h-61q-180 0 -302 139t-122 332z" />
<glyph unicode="&#x3bf;" horiz-adv-x="1026" d="M57 543q0 264 125 419.5t338 155.5q205 0 328 -157.5t123 -417.5t-125 -416t-332 -156t-332 156t-125 416zM299 545q0 -162 55.5 -247t159.5 -85t159.5 85t55.5 247q0 160 -55.5 246t-157.5 86q-217 0 -217 -332z" />
<glyph unicode="&#x3c0;" horiz-adv-x="1251" d="M61 641q0 236 119 342.5t367 106.5h643v-236h-103v-854h-233v854h-190v-854h-234v854q-82 0 -107.5 -51t-25.5 -162h-236z" />
<glyph unicode="&#x3c1;" horiz-adv-x="1157" d="M117 -492v1037q0 238 129 413t332 175q205 0 333.5 -175.5t128.5 -413t-129 -412.5t-333 -175q-121 0 -228 68v-517h-233zM350 295q76 -96 228 -96q109 0 169 103.5t60 242.5t-60.5 242.5t-168.5 103.5q-106 0 -167 -103.5t-61 -242.5v-250z" />
<glyph unicode="&#x3c2;" horiz-adv-x="1026" d="M117 565q0 227 116.5 397.5t307.5 170.5q150 0 254 -111t102 -264l-209 2q0 55 -44 93t-103 38q-96 0 -143.5 -95.5t-47.5 -230.5q0 -137 47 -232t144 -95h61q133 0 220 -109t87 -258q0 -143 -88 -248.5t-219 -105.5v217q74 0 74 137q0 51 -18.5 88t-55.5 37h-61 q-190 0 -307 170t-117 399z" />
<glyph unicode="&#x3c3;" horiz-adv-x="1234" d="M117 543q0 264 125 419.5t338 155.5q55 0 104 -12q172 23 387 131l107 -217q-117 -55 -254 -84q106 -156 106 -393q0 -260 -125 -416t-331.5 -156t-331.5 156t-125 416zM358 545q0 -162 55.5 -247t160 -85t159.5 85t55 247q0 160 -55 246t-158 86q-217 0 -217 -332z" />
<glyph unicode="&#x3c4;" horiz-adv-x="837" d="M117 852v242h588v-242h-179v-524q0 -61 58.5 -95t136.5 -34v-242q-174 0 -301 105.5t-127 265.5v524h-176z" />
<glyph unicode="&#x3c5;" horiz-adv-x="1026" d="M117 362v728h233v-728q0 -66 35 -114.5t90 -48.5q96 0 148.5 93t52.5 220q0 276 -82 578h242q74 -270 73 -578q0 -223 -121.5 -389t-312.5 -166q-154 0 -256 119.5t-102 285.5z" />
<glyph unicode="&#x3c6;" horiz-adv-x="1540" d="M117 545q0 172 89 321.5t240 237.5l111 -184q-98 -57 -152.5 -157.5t-54.5 -217.5q0 -123 86 -212t217 -120v299q0 162 39 298t129 229.5t217 93.5q125 0 214 -87.5t130 -218.5t41 -282q0 -219 -154.5 -380t-381.5 -198v-459h-234v459q-227 37 -381.5 198t-154.5 380z M887 213q131 31 217 120t86 212q0 74 -4 125t-18.5 107.5t-47.5 85t-82 28.5q-43 0 -73.5 -24.5t-45 -55.5t-22.5 -91.5t-9 -98t-1 -109.5v-299z" />
<glyph unicode="&#x3c7;" horiz-adv-x="1189" d="M117 -492l350 791l-350 791h258l221 -500l221 500h258l-350 -791l350 -791h-258l-221 500l-221 -500h-258z" />
<glyph unicode="&#x3c8;" horiz-adv-x="1306" d="M117 362v728h233v-728q0 -123 187 -155v1263h233v-1263q186 33 186 155v728h234v-728q0 -156 -120 -261t-300 -134v-459h-233v459q-180 29 -300 134t-120 261z" />
<glyph unicode="&#x3c9;" horiz-adv-x="1357" d="M117 584q0 252 172 506h200q-139 -205 -139 -506q0 -88 2 -136.5t11.5 -117t33 -100t60.5 -31.5q98 0 127 147q-20 131 -21 381h234q0 -160 3 -248t27.5 -184t73.5 -96q37 0 60.5 31.5t33 100t11.5 117t2 136.5q0 301 -140 506h201q172 -254 172 -506 q0 -121 -17.5 -226.5t-54 -198.5t-105.5 -147.5t-163 -54.5q-147 0 -231 127q-74 -127 -213 -127q-94 0 -163 54.5t-105.5 147.5t-54 198.5t-17.5 226.5z" />
<glyph unicode="&#x3d1;" horiz-adv-x="1142" d="M117 362v365h233v-365q0 -70 47 -118.5t117 -48.5q68 0 115 49t47 118v433q-498 63 -498 376q0 162 95.5 279t240.5 117q170 0 282.5 -142.5t112.5 -334.5v-121h117v-195l-117 2v-414q0 -166 -115.5 -283.5t-279.5 -117.5q-166 0 -281.5 117.5t-115.5 283.5zM367 1171 q0 -158 309 -190v109q0 119 -40 201.5t-122 82.5q-68 0 -107.5 -60.5t-39.5 -142.5z" />
<glyph unicode="&#x3d5;" horiz-adv-x="1439" d="M119 545q0 213 138 372.5t347 200.5v352h234v-352q209 -41 348 -200.5t139 -372.5t-139 -373t-348 -201v-463h-234v463q-209 41 -347 201t-138 373zM352 545q0 -117 71 -207t181 -125v664q-111 -35 -181.5 -125t-70.5 -207zM838 213q111 35 182.5 125t71.5 207t-72 207 t-182 125v-664z" />
<glyph unicode="&#x3d6;" horiz-adv-x="1357" d="M117 584q0 252 172 506h200q-139 -205 -139 -506q0 -88 2 -136.5t11.5 -117t33 -100t60.5 -31.5q98 0 127 147q-20 131 -21 381h234q0 -160 3 -248t27.5 -184t73.5 -96q37 0 60.5 31.5t33 100t11.5 117t2 136.5q0 96 -1 147t-6.5 141.5t-14.5 141.5t-29.5 115.5t-48 99.5 t-71.5 59.5t-102 24.5q-205 0 -389 -105l-84 144q221 129 473 129q137 0 238.5 -77t158 -209t83 -284.5t26.5 -326.5q0 -121 -17.5 -226.5t-54 -198.5t-105.5 -147.5t-163 -54.5q-147 0 -231 127q-74 -127 -213 -127q-94 0 -163 54.5t-105.5 147.5t-54 198.5t-17.5 226.5z " />
<glyph unicode="&#x3f5;" d="M57 530q0 276 113 432t311 156q299 0 379 -301h-256q-39 59 -112 60q-156 0 -187 -224h318v-217h-318q25 -229 172 -229q74 0 123 65h254q-90 -301 -385 -301q-199 0 -305.5 145.5t-106.5 413.5z" />
<glyph unicode="&#x400;" horiz-adv-x="1120" d="M127 0v1470h887v-260h-641v-309h590v-260h-590v-381h669v-260h-915zM362 1974h259l157 -299h-170z" />
<glyph unicode="&#x401;" horiz-adv-x="1120" d="M127 0v1470h887v-260h-641v-309h590v-260h-590v-381h669v-260h-915zM291 1638v236h211v-236h-211zM618 1638v236h211v-236h-211z" />
<glyph unicode="&#x402;" horiz-adv-x="1333" d="M23 1210v260h817v-260h-283v-288q78 55 252 55q203 0 314.5 -91t111.5 -270v-616q0 -360 -475 -360v251q78 0 150.5 28t72.5 89v600q0 61 -72.5 89t-150.5 28q-61 0 -132 -29.5t-71 -87.5v-608h-252v1210h-282z" />
<glyph unicode="&#x403;" horiz-adv-x="1026" d="M127 0v1470h858v-260h-606v-1210h-252zM444 1585l158 299h258l-246 -299h-170z" />
<glyph unicode="&#x404;" horiz-adv-x="1212" d="M74 731.5q0 358.5 150.5 568t408.5 209.5q143 0 257 -67.5t183 -192.5q59 -109 76 -260h-252q-23 94 -59 156q-70 98 -199 98q-117 0 -193.5 -89t-103.5 -253h424v-260h-434q16 -197 94 -305.5t205 -108.5q135 0 209 115q33 53 57 162h252q-25 -129 -53.5 -205 t-81.5 -147q-141 -190 -387 -191q-256 0 -404.5 206t-148.5 564.5z" />
<glyph unicode="&#x405;" horiz-adv-x="1120" d="M66 453h241q14 -240 262 -240q117 0 181.5 49t64.5 139q0 72 -46 111t-173 76l-129 37q-211 59 -281 131q-102 98 -102 293q0 215 122 337.5t337 122.5q217 0 339 -121.5t136 -353.5h-242q-14 117 -71.5 170t-169.5 53q-100 0 -158 -48t-58 -130q0 -63 29 -97t98 -56 l295 -88q168 -51 242 -143.5t74 -256.5q0 -221 -131 -349t-359 -128q-326 0 -446 240q-49 100 -55 252z" />
<glyph unicode="&#x406;" horiz-adv-x="466" d="M106 0v1470h252v-1470h-252z" />
<glyph unicode="&#x407;" horiz-adv-x="466" d="M-35 1638v236h211v-236h-211zM109 0v1470h251v-1470h-251zM293 1638v236h211v-236h-211z" />
<glyph unicode="&#x408;" d="M37 555h235q2 -209 31 -275.5t117 -66.5q78 0 109.5 47t31.5 166v1044h252v-1044q0 -463 -389 -463q-246 0 -332 180q-33 61 -44 150.5t-11 261.5z" />
<glyph unicode="&#x409;" horiz-adv-x="1845" d="M31 0v248q92 -2 162.5 235.5t70.5 520.5v466h840v-532h289q174 0 279.5 -131t105.5 -350q0 -207 -102.5 -332t-272.5 -125h-551l4 1219h-340v-226q0 -172 -25.5 -338t-80 -317.5t-152.5 -244.5t-227 -93zM1104 252h201q119 0 170 49t51 162q0 223 -189 223h-233v-434z " />
<glyph unicode="&#x40a;" horiz-adv-x="1835" d="M119 0v1470h252v-557h471v557h252v-532h288q174 0 279.5 -131t105.5 -350q0 -207 -102 -332t-272 -125h-551v662h-471v-662h-252zM1094 252h200q119 0 170.5 49t51.5 162q0 223 -189 223h-233v-434z" />
<glyph unicode="&#x40b;" horiz-adv-x="1333" d="M23 1210v260h817v-260h-283v-288q78 55 252 55q203 0 314.5 -91t111.5 -270v-616h-252v608q0 61 -72.5 89t-150.5 28q-61 0 -132 -29.5t-71 -87.5v-608h-252v1210h-282z" />
<glyph unicode="&#x40c;" horiz-adv-x="1212" d="M145 0v1470h252v-528l461 528h326l-611 -704l639 -766h-323l-492 582v-582h-252zM557 1585l158 299h258l-246 -299h-170z" />
<glyph unicode="&#x40d;" horiz-adv-x="1212" d="M117 0v1470h233v-1054l498 1054h250v-1470h-234v1032l-483 -1032h-264zM399 1974h258l158 -299h-170z" />
<glyph unicode="&#x40e;" horiz-adv-x="1120" d="M25 1470h297l260 -593l229 593h285l-635 -1470h-285l262 578zM303 1868h111q14 -78 53 -110t121 -32t119.5 31t54.5 111h108q-31 -299 -292 -299q-248 0 -275 299z" />
<glyph unicode="&#x40f;" horiz-adv-x="1112" d="M61 0v1462h252v-1212h488v1212h252v-1462h-387v-301h-217v301h-388z" />
<glyph unicode="&#x410;" horiz-adv-x="1212" d="M33 0l430 1470h291l426 -1470h-275l-78 303h-444l-84 -303h-266zM451 555h307l-152 590z" />
<glyph unicode="&#x411;" horiz-adv-x="1212" d="M127 0v1470h858v-260h-616v-315h295q84 0 150.5 -15.5t104 -32t71.5 -51t44 -50t27 -54.5l18 -37q45 -90 45 -213q0 -184 -104 -311q-63 -76 -144 -103.5t-239 -27.5h-510zM369 252h309q195 0 194 209q0 88 -48 136t-134 48h-321v-393z" />
<glyph unicode="&#x412;" horiz-adv-x="1212" d="M127 0v1470h586q174 0 273 -102t99 -281q0 -109 -34.5 -178t-112.5 -116q98 -53 141 -138q45 -90 45 -213q0 -184 -104 -311q-63 -76 -144 -103.5t-239 -27.5h-510zM369 252h309q195 0 194 209q0 88 -48 136t-134 48h-321v-393zM369 895h295q86 0 133 43t47 125 q0 156 -187 156h-288v-324z" />
<glyph unicode="&#x413;" horiz-adv-x="1026" d="M127 0v1470h858v-260h-606v-1210h-252z" />
<glyph unicode="&#x414;" horiz-adv-x="1458" d="M51 -246v492h133q92 0 163 238.5t71 519.5v466h844v-1224h145v-492h-219v246h-918v-246h-219zM524 252h486v967h-340v-226q2 -199 -35 -398.5t-111 -342.5z" />
<glyph unicode="&#x415;" horiz-adv-x="1120" d="M127 0v1470h887v-260h-641v-309h590v-260h-590v-381h669v-260h-915z" />
<glyph unicode="&#x416;" horiz-adv-x="1798" d="M0 0l598 766l-569 704h325l420 -528v528h250v-528l420 528h325l-569 -704l598 -766h-323l-451 582v-582h-250v582l-450 -582h-324z" />
<glyph unicode="&#x417;" horiz-adv-x="1120" d="M66 453h241q14 -240 262 -240q117 0 181.5 49t64.5 139.5t-50 160t-169 69.5h-162v239h221q66 0 96.5 65.5t30.5 143.5q0 82 -57 130t-158 48q-113 0 -170 -53t-71 -170h-242q14 231 136 353t339 122q215 0 337 -122.5t122 -337.5q0 -195 -103 -293q141 -98 142 -318 q0 -221 -131 -349t-359 -128q-326 0 -446 240q-49 100 -55 252z" />
<glyph unicode="&#x418;" horiz-adv-x="1212" d="M117 0v1470h233v-1054l498 1054h250v-1470h-234v1032l-483 -1032h-264z" />
<glyph unicode="&#x419;" horiz-adv-x="1212" d="M117 0v1470h233v-1054l498 1054h250v-1470h-234v1032l-483 -1032h-264zM338 1868h111q14 -78 53 -110t121 -32t119.5 31t54.5 111h108q-31 -299 -293 -299q-247 0 -274 299z" />
<glyph unicode="&#x41a;" horiz-adv-x="1212" d="M145 0v1470h252v-528l461 528h326l-611 -704l639 -766h-323l-492 582v-582h-252z" />
<glyph unicode="&#x41b;" horiz-adv-x="1212" d="M31 0v248q92 -2 162.5 235.5t70.5 520.5v466h844v-1470h-252v1219h-340v-226q0 -172 -25.5 -338t-80 -317.5t-152.5 -244.5t-227 -93z" />
<glyph unicode="&#x41c;" horiz-adv-x="1398" d="M117 0v1470h366l222 -1167l217 1167h362v-1470h-233v1247l-230 -1247h-248l-223 1247v-1247h-233z" />
<glyph unicode="&#x41d;" horiz-adv-x="1212" d="M119 0v1470h252v-557h471v557h252v-1470h-252v662h-471v-662h-252z" />
<glyph unicode="&#x41e;" horiz-adv-x="1306" d="M74 733q0 381 166 582q160 195 422 194q115 0 222 -52t183 -142q166 -201 166 -580t-166 -579q-160 -195 -414 -195q-158 0 -289 84t-202 231q-88 187 -88 457zM326 739q0 -244 87 -381t240.5 -137t240.5 138.5t87 381.5q0 268 -111 402q-84 106 -213 106 q-156 0 -243.5 -136t-87.5 -374z" />
<glyph unicode="&#x41f;" horiz-adv-x="1212" d="M119 0v1470h975v-1470h-252v1219h-471v-1219h-252z" />
<glyph unicode="&#x420;" horiz-adv-x="1120" d="M127 0v1470h551q170 0 272.5 -124.5t102.5 -331.5q0 -219 -105.5 -350.5t-279.5 -131.5h-289v-532h-252zM379 784h233q188 0 189 224q0 113 -51.5 162t-169.5 49h-201v-435z" />
<glyph unicode="&#x421;" horiz-adv-x="1212" d="M74 731.5q0 358.5 150.5 568t408.5 209.5q143 0 257 -67.5t183 -192.5q59 -109 76 -260h-252q-23 94 -59 156q-70 98 -199 98q-145 0 -227 -136t-82 -378q0 -236 79.5 -369t221.5 -133q135 0 209 115q33 53 57 162h252q-25 -129 -53.5 -205t-81.5 -147 q-141 -190 -387 -191q-256 0 -404.5 206t-148.5 564.5z" />
<glyph unicode="&#x422;" horiz-adv-x="1026" d="M23 1210v260h981v-260h-365v-1210h-252v1210h-364z" />
<glyph unicode="&#x423;" horiz-adv-x="1120" d="M25 1470h297l260 -593l229 593h285l-635 -1470h-285l262 578z" />
<glyph unicode="&#x424;" horiz-adv-x="1671" d="M61 743q0 115 52.5 222.5t142.5 183.5q162 135 453 160v161h254v-159q287 -25 452 -162q195 -160 195 -414q0 -158 -84 -289t-232 -202q-143 -68 -331 -82v-162h-254v160q-291 29 -453 162q-195 159 -195 421zM322 739q0 -133 102 -217t285 -106v641q-188 -27 -281 -105 q-106 -84 -106 -213zM963 414q182 23 284.5 107.5t102.5 213.5q0 131 -101.5 215t-285.5 107v-643z" />
<glyph unicode="&#x425;" horiz-adv-x="1120" d="M23 0l389 752l-367 718h299l215 -475l221 475h291l-369 -706l394 -764h-308l-229 502l-242 -502h-294z" />
<glyph unicode="&#x426;" horiz-adv-x="1384" d="M119 0v1470h252v-1218h471v1218h252v-1224h239v-492h-219v246h-995z" />
<glyph unicode="&#x427;" horiz-adv-x="1150" d="M102 854v616h252v-608q0 -61 73 -89t151 -28q61 0 131.5 30t70.5 87v608h252v-1470h-252v549q-78 -55 -252 -55q-203 0 -314.5 91t-111.5 269z" />
<glyph unicode="&#x428;" horiz-adv-x="1517" d="M119 0v1470h252v-1218l272 2v1216h252v-1216l252 -2v1218h252v-1470h-1280z" />
<glyph unicode="&#x429;" horiz-adv-x="1689" d="M119 0v1470h252v-1218h272v1218h252v-1218h252v1218h252v-1224h239v-492h-219v246h-1300z" />
<glyph unicode="&#x42a;" horiz-adv-x="1460" d="M20 1210v260h699v-532h289q174 0 279.5 -131t105.5 -350q0 -207 -102.5 -332t-272.5 -125h-551v1210h-447zM719 252h201q119 0 170 49t51 162q0 223 -189 223h-233v-434z" />
<glyph unicode="&#x42b;" horiz-adv-x="1490" d="M127 0v1470h252v-532h289q174 0 279.5 -131t105.5 -350q0 -207 -102.5 -332t-272.5 -125h-551zM379 252h201q119 0 170 49t51 162q0 223 -189 223h-233v-434zM1120 0v1470h252v-1470h-252z" />
<glyph unicode="&#x42c;" horiz-adv-x="1120" d="M127 0v1470h252v-532h289q174 0 279.5 -131t105.5 -350q0 -207 -102.5 -332t-272.5 -125h-551zM379 252h201q119 0 170 49t51 162q0 223 -189 223h-233v-434z" />
<glyph unicode="&#x42d;" horiz-adv-x="1212" d="M74 504h252q25 -109 57 -162q74 -115 209 -115q127 0 204.5 109.5t92.5 304.5h-432v260h424q-27 164 -104 253t-193 89q-129 0 -199 -98q-37 -61 -59 -156h-252q16 152 76 260q70 125 183 192.5t257 67.5q258 0 408.5 -209.5t150.5 -568t-148.5 -564.5t-404.5 -206 q-246 0 -387 191q-53 72 -81.5 147.5t-53.5 204.5z" />
<glyph unicode="&#x42e;" horiz-adv-x="1871" d="M119 0v1470h252v-557h280q31 254 154 402q160 195 422 194q115 0 222 -52t183 -142q166 -201 166 -580t-166 -579q-160 -195 -413 -195q-158 0 -289 84t-203 231q-76 162 -88 386h-268v-662h-252zM891 739q0 -244 87 -381t240.5 -137t240.5 138.5t87 381.5 q0 268 -110 402q-84 106 -213 106q-156 0 -244 -136t-88 -374z" />
<glyph unicode="&#x42f;" horiz-adv-x="1167" d="M61 0l418 532q-164 10 -260 140.5t-96 341.5q0 207 102.5 331.5t272.5 124.5h551v-1470h-252v532l-412 -532h-324zM375 1008q0 -223 188 -224h234v435h-201q-119 0 -170 -49t-51 -162z" />
<glyph unicode="&#x430;" d="M49 291q0 143 68.5 233t193.5 113l211 39q82 14 82 90q0 123 -145 123q-76 0 -111 -34t-45 -118h-225q16 154 69 242q94 139 322 139q174 0 269.5 -83t95.5 -232v-590q0 -143 51 -170v-43h-252q-14 55 -23 129q-70 -88 -133 -123t-149 -35q-129 0 -204 86.5t-75 233.5z M285 309q0 -61 30.5 -97t81.5 -36q86 0 146.5 62.5t60.5 152.5v139q-39 -35 -160 -59q-88 -18 -123.5 -55t-35.5 -107z" />
<glyph unicode="&#x431;" horiz-adv-x="1026" d="M57 543q0 102 1 150t6.5 151.5t20.5 165t40 139.5t66.5 131t99.5 88q76 45 150.5 65.5t142 25.5t88.5 11q35 10 55.5 26.5t28.5 39.5t20 53h213q-18 -70 -26.5 -96.5t-35 -76.5t-67.5 -85q-43 -37 -92 -55.5t-112.5 -29.5t-98.5 -21q-96 -33 -140 -60.5t-65 -77.5 q76 31 168 31q205 0 328 -157.5t123 -417.5t-125 -416t-332 -156t-332 156t-125 416zM299 545q0 -162 55.5 -247t159.5 -85t159.5 85t55.5 247q0 160 -55.5 246t-157.5 86q-217 0 -217 -332z" />
<glyph unicode="&#x432;" horiz-adv-x="978" d="M111 0v1090h436q174 0 273.5 -76t99.5 -209q0 -152 -148 -217q98 -39 141 -103q45 -68 45 -157q0 -137 -104 -230q-63 -57 -144 -77.5t-239 -20.5h-360zM340 217h172q98 0 146.5 31t48.5 104q0 115 -183 115h-184v-250zM340 674h158q92 0 136 20.5t44 77.5t-43 78.5 t-143 21.5h-152v-198z" />
<glyph unicode="&#x433;" horiz-adv-x="786" d="M109 0v1090h651v-234h-418v-856h-233z" />
<glyph unicode="&#x434;" horiz-adv-x="1304" d="M61 225h154q45 0 94 165t49 390v310h740v-865h145v-471h-213v246h-756v-246h-213v471zM487 233h377v623h-272v-63q-1 -318 -105 -560z" />
<glyph unicode="&#x435;" d="M39 549q0 266 112.5 417.5t311.5 151.5q205 0 314.5 -155.5t109.5 -446.5v-51h-613q10 -137 59.5 -199.5t145.5 -62.5q121 0 156 119h242q-29 -102 -62 -159t-88 -104q-100 -88 -252 -88q-209 0 -322.5 151t-113.5 427zM281 653h364q-25 229 -184 230q-78 0 -121 -55.5 t-59 -174.5z" />
<glyph unicode="&#x436;" horiz-adv-x="1400" d="M-10 0l424 578l-414 512h289l295 -381v381h233v-381l295 381h289l-414 -512l424 -578h-283l-311 426v-426h-235l2 426l-312 -426h-282z" />
<glyph unicode="&#x437;" d="M51 348h242q6 -158 190 -158q72 0 113 31t41 82q0 59 -33 105.5t-123 48.5l-96 2v188l76 2q68 2 104.5 29t43.5 53.5t7 65.5q0 102 -141 102q-78 0 -112.5 -30.5t-47.5 -110.5h-231q14 113 41 174t82 106q98 80 268 80q225 0 318 -155q53 -90 53 -207q0 -109 -55 -183 l40 -67q41 -63 41 -166q0 -172 -106.5 -270.5t-290.5 -98.5q-188 0 -303 97q-57 47 -84 107t-37 173z" />
<glyph unicode="&#x438;" horiz-adv-x="1015" d="M109 0v1090h233v-703l307 703h269v-1090h-234v700l-307 -700h-268z" />
<glyph unicode="&#x439;" horiz-adv-x="1015" d="M109 0v1090h233v-703l307 703h269v-1090h-234v700l-307 -700h-268zM242 1536h110q14 -78 53 -109.5t121 -31.5t120 30.5t54 110.5h109q-31 -299 -293 -299q-247 0 -274 299z" />
<glyph unicode="&#x43a;" d="M117 0v1090h233v-381l295 381h289l-414 -512l424 -578h-282l-312 426v-426h-233z" />
<glyph unicode="&#x43b;" horiz-adv-x="1015" d="M35 0v236q45 0 94 160.5t49 383.5v310h740v-1090h-234v856h-272v-63q0 -80 -10.5 -175.5t-38 -208t-67.5 -201.5t-108.5 -148.5t-152.5 -59.5z" />
<glyph unicode="&#x43c;" horiz-adv-x="1323" d="M109 0v1090h364l186 -811l191 811h364v-1090h-233v686l-203 -686h-248l-188 641v-641h-233z" />
<glyph unicode="&#x43d;" horiz-adv-x="1015" d="M109 0v1090h233v-404h342v404h234v-1090h-234v453h-342v-453h-233z" />
<glyph unicode="&#x43e;" horiz-adv-x="1026" d="M57 543q0 264 125 419.5t338 155.5q205 0 328 -157.5t123 -417.5t-125 -416t-332 -156t-332 156t-125 416zM299 545q0 -162 55.5 -247t159.5 -85t159.5 85t55.5 247q0 160 -55.5 246t-157.5 86q-217 0 -217 -332z" />
<glyph unicode="&#x43f;" horiz-adv-x="1026" d="M109 0v1090h809v-1090h-234v856h-342v-856h-233z" />
<glyph unicode="&#x440;" horiz-adv-x="1026" d="M104 -424v1514h226v-164q51 102 112.5 147t151.5 45q170 0 273.5 -153.5t103.5 -407.5q0 -268 -102.5 -427t-276.5 -159q-90 0 -148.5 40t-105.5 134v-569h-234zM330 532q0 -158 52 -241.5t150 -83.5q90 0 143.5 91t53.5 245q0 152 -53 238.5t-148 86.5q-198 0 -198 -336 z" />
<glyph unicode="&#x441;" d="M57 530q0 276 113 432t311 156q111 0 200 -50t140 -142q45 -84 60 -226h-238q-16 92 -52 134.5t-99 42.5q-193 0 -193 -334q0 -336 178 -336q68 0 112 52t52 138h238q-27 -207 -131.5 -316.5t-278.5 -109.5q-199 0 -305.5 145.5t-106.5 413.5z" />
<glyph unicode="&#x442;" horiz-adv-x="753" d="M16 885v205h721v-205h-243v-885h-234v885h-244z" />
<glyph unicode="&#x443;" d="M16 1090h263l192 -811l184 811h250l-307 -1072q-90 -315 -139 -380q-55 -76 -201 -76l-113 4v229q33 -4 50 -4q76 0 105.5 32t45.5 132z" />
<glyph unicode="&#x444;" horiz-adv-x="1609" d="M55 557q0 254 103.5 407.5t273.5 153.5q193 0 256 -192v379h234v-379q47 109 105 150.5t151 41.5q170 0 273 -153.5t103 -407.5q0 -268 -102 -427t-276 -159q-90 0 -148.5 40t-105.5 134v-569h-234v569q-47 -94 -105.5 -134t-148.5 -40q-174 0 -276.5 159t-102.5 427z M297 543q0 -154 53 -245t144 -91q98 0 150 84t52 241q0 336 -198 336q-94 0 -147.5 -86.5t-53.5 -238.5zM913 532q0 -158 52.5 -241.5t150.5 -83.5q90 0 143.5 91t53.5 245q0 152 -53.5 238.5t-147.5 86.5q-199 0 -199 -336z" />
<glyph unicode="&#x445;" d="M25 0l305 555l-293 535h285l151 -318l150 318h276l-295 -535l305 -555h-291l-155 328l-154 -328h-284z" />
<glyph unicode="&#x446;" horiz-adv-x="1179" d="M109 0v1090h233v-857h342v857h234v-865h233v-471h-213v246h-829z" />
<glyph unicode="&#x447;" horiz-adv-x="923" d="M72 645v445h233v-439q0 -86 141 -86q53 0 99.5 20.5t46.5 71.5v433h233v-1090h-233v418q-23 -29 -65 -41t-78.5 -10t-71.5 0q-113 0 -209 78.5t-96 199.5z" />
<glyph unicode="&#x448;" horiz-adv-x="1384" d="M109 0v1090h233v-857h233v857h234v-857h233v857h234v-1090h-1167z" />
<glyph unicode="&#x449;" horiz-adv-x="1529" d="M109 0v1090h233v-857h233v857h234v-857h233v857h234v-865h233v-471h-213v246h-1187z" />
<glyph unicode="&#x44a;" horiz-adv-x="1150" d="M20 885v205h494v-416h158q59 0 110.5 -6t87 -15.5t68.5 -26t51.5 -28.5t38 -32.5t26.5 -30t19 -29t14 -21.5q45 -68 46 -157q0 -137 -105 -230q-63 -57 -144 -77.5t-239 -20.5h-360v885h-265zM514 217h172q98 0 146.5 31t48.5 104q0 115 -183 115h-184v-250z" />
<glyph unicode="&#x44b;" horiz-adv-x="1396" d="M111 0v1090h229v-416h158q59 0 110 -6t87 -15.5t69 -26t51.5 -28.5t37.5 -32.5t26.5 -30t19.5 -29t14 -21.5q45 -68 45 -157q0 -137 -104 -230q-63 -57 -144 -77.5t-239 -20.5h-360zM340 217h172q98 0 146.5 31t48.5 104q0 115 -183 115h-184v-250zM1063 0v1090h233 v-1090h-233z" />
<glyph unicode="&#x44c;" horiz-adv-x="978" d="M111 0v1090h229v-416h158q59 0 110 -6t87 -15.5t69 -26t51.5 -28.5t37.5 -32.5t26.5 -30t19.5 -29t14 -21.5q45 -68 45 -157q0 -137 -104 -230q-63 -57 -144 -77.5t-239 -20.5h-360zM340 217h172q98 0 146.5 31t48.5 104q0 115 -183 115h-184v-250z" />
<glyph unicode="&#x44d;" d="M57 700q14 141 60 226q51 92 140 142t200 50q199 0 311.5 -155.5t112.5 -432.5q0 -268 -106.5 -413.5t-305.5 -145.5q-174 0 -278.5 109.5t-131.5 316.5h238q8 -86 52 -138t112 -52q152 0 174 246h-223v233h215q-33 190 -181 191q-63 0 -99 -42t-52 -135h-238z" />
<glyph unicode="&#x44e;" horiz-adv-x="1478" d="M109 0v1090h233v-404h180q31 203 150 317.5t301 114.5q205 0 327.5 -157.5t122.5 -417.5t-124.5 -416t-331.5 -156q-188 0 -308 130t-143 352h-174v-453h-233zM752 545q0 -162 55 -247t159.5 -85t160 85t55.5 247q0 160 -55.5 246t-157.5 86q-217 0 -217 -332z" />
<glyph unicode="&#x44f;" horiz-adv-x="978" d="M20 762q0 137 105 229q63 57 144 78t239 21h360v-1090h-229v416l-307 -416h-283l309 424q-76 10 -133 34.5t-83.5 51.5t-49 53.5t-26.5 40.5q-46 68 -46 158zM272 737q0 -115 183 -114h184v249h-172q-98 0 -146.5 -30.5t-48.5 -104.5z" />
<glyph unicode="&#x450;" d="M39 549q0 266 112.5 417.5t311.5 151.5q205 0 314.5 -155.5t109.5 -446.5v-51h-613q10 -137 59.5 -199.5t145.5 -62.5q121 0 156 119h242q-29 -102 -62 -159t-88 -104q-100 -88 -252 -88q-209 0 -322.5 151t-113.5 427zM256 1593h258l158 -299h-170zM281 653h364 q-25 229 -184 230q-78 0 -121 -55.5t-59 -174.5z" />
<glyph unicode="&#x451;" d="M39 549q0 266 112.5 417.5t311.5 151.5q205 0 314.5 -155.5t109.5 -446.5v-51h-613q10 -137 59.5 -199.5t145.5 -62.5q121 0 156 119h242q-29 -102 -62 -159t-88 -104q-100 -88 -252 -88q-209 0 -322.5 151t-113.5 427zM199 1257v236h211v-236h-211zM281 653h364 q-25 229 -184 230q-78 0 -121 -55.5t-59 -174.5zM526 1257v236h211v-236h-211z" />
<glyph unicode="&#x452;" horiz-adv-x="1046" d="M4 1126v150h125v194h233v-194h304v-150h-304v-288q72 178 269 178q139 0 223 -99.5t84 -265.5v-653q0 -205 -98.5 -285t-286.5 -80v242q80 0 116 50t36 161v473q0 113 -36 164t-116 51q-88 0 -139.5 -67.5t-51.5 -184.5v-522h-233v1126h-125z" />
<glyph unicode="&#x453;" horiz-adv-x="786" d="M109 0v1090h651v-234h-418v-856h-233zM348 1278l158 299h258l-246 -299h-170z" />
<glyph unicode="&#x454;" d="M57 530q0 276 113 432t311 156q111 0 200 -50t140 -142q45 -84 60 -226h-238q-16 92 -52 134.5t-99 42.5q-147 0 -181 -191h215v-233h-223q23 -246 174 -246q68 0 112 52t52 138h238q-27 -207 -131.5 -316.5t-278.5 -109.5q-199 0 -305.5 145.5t-106.5 413.5z" />
<glyph unicode="&#x455;" d="M51 348h242q6 -158 190 -158q72 0 113 31t41 82q0 82 -195 121q-186 35 -272 114.5t-86 217.5q0 117 53 207q92 156 318 155q170 0 268 -80q55 -45 81.5 -106.5t41.5 -173.5h-232q-12 80 -47 110.5t-112 30.5q-141 0 -142 -102q0 -84 193 -119q117 -23 204 -69t121 -103 q41 -70 41 -166q0 -172 -106.5 -270.5t-290.5 -98.5q-188 0 -303 97q-57 47 -84 107t-37 173z" />
<glyph unicode="&#x456;" horiz-adv-x="466" d="M117 0v1090h233v-1090h-233zM117 1219v266h233v-266h-233z" />
<glyph unicode="&#x457;" horiz-adv-x="466" d="M-35 1257v236h211v-236h-211zM117 0v1090h233v-1090h-233zM293 1257v236h211v-236h-211z" />
<glyph unicode="&#x458;" horiz-adv-x="466" d="M4 -209h43q70 0 70 100v1199h233v-1205q0 -182 -61.5 -252.5t-222.5 -70.5h-62v229zM117 1219v266h233v-266h-233z" />
<glyph unicode="&#x459;" horiz-adv-x="1564" d="M35 0v236q45 0 94 160.5t49 383.5v310h735v-416h158q59 0 110.5 -6t87.5 -15.5t68.5 -26t51 -28.5t38 -32.5t26.5 -30t19.5 -29t14.5 -21.5q45 -68 45 -157q0 -137 -105 -230q-63 -57 -144 -77.5t-239 -20.5h-360v856h-272v-63q0 -80 -10.5 -175.5t-38 -208t-67.5 -201.5 t-108.5 -148.5t-152.5 -59.5zM913 217h172q98 0 146.5 31t48.5 104q0 115 -182 115h-185v-250z" />
<glyph unicode="&#x45a;" horiz-adv-x="1552" d="M109 0v1090h233v-404h342v404h229v-416h158q59 0 110.5 -6t87.5 -15.5t68.5 -26t51 -28.5t38 -32.5t26.5 -30t19.5 -29t14.5 -21.5q45 -68 45 -157q0 -137 -105 -230q-63 -57 -144 -77.5t-239 -20.5h-360v453h-342v-453h-233zM913 217h172q98 0 146.5 31t48.5 104 q0 115 -182 115h-185v-250z" />
<glyph unicode="&#x45b;" horiz-adv-x="1046" d="M4 1126v150h125v194h233v-194h304v-150h-304v-288q72 178 269 178q139 0 223 -99.5t84 -265.5v-651h-233v559q0 113 -36 164t-116 51q-88 0 -139.5 -67.5t-51.5 -184.5v-522h-233v1126h-125z" />
<glyph unicode="&#x45c;" d="M117 0v1090h233v-381l295 381h289l-414 -512l424 -578h-282l-312 426v-426h-233zM391 1278l158 299h258l-246 -299h-170z" />
<glyph unicode="&#x45d;" horiz-adv-x="1015" d="M109 0v1090h233v-703l307 703h269v-1090h-234v700l-307 -700h-268zM305 1593h258l158 -299h-170z" />
<glyph unicode="&#x45e;" d="M16 1090h263l192 -811l184 811h250l-307 -1072q-90 -315 -139 -380q-55 -76 -201 -76l-113 4v229q33 -4 50 -4q76 0 105.5 32t45.5 132zM193 1536h110q14 -78 53 -109.5t121 -31.5t120 30.5t54 110.5h109q-31 -299 -293 -299q-247 0 -274 299z" />
<glyph unicode="&#x45f;" horiz-adv-x="929" d="M57 0v1090h236v-863h342v863h235v-1090h-313v-250h-186v250h-314z" />
<glyph unicode="&#x48c;" horiz-adv-x="1120" d="M-10 1178v149h137v143h252v-143h190v-149h-190v-240h289q174 0 279.5 -131t105.5 -350q0 -207 -102.5 -332t-272.5 -125h-551v1178h-137zM379 252h201q119 0 170 49t51 162q0 223 -189 223h-233v-434z" />
<glyph unicode="&#x48d;" horiz-adv-x="978" d="M-10 809v149h121v132h229v-132h229v-149h-229v-135h213q106 0 185 -24.5t120 -59.5t64.5 -86t29.5 -90t6 -86q0 -170 -103 -249t-345 -79h-399v809h-121zM340 217h172q98 0 146.5 31t48.5 104q0 115 -183 115h-184v-250z" />
<glyph unicode="&#x48e;" horiz-adv-x="1120" d="M127 0v1470h551q170 0 272.5 -124.5t102.5 -331.5q0 -219 -105.5 -350.5t-279.5 -131.5h-289v-532h-252zM379 784h233q188 0 189 224q0 113 -51.5 162t-169.5 49h-201v-435z" />
<glyph unicode="&#x48f;" horiz-adv-x="1026" d="M104 -424v1514h226v-164q51 102 112.5 147t151.5 45q170 0 273.5 -153.5t103.5 -407.5q0 -268 -102.5 -427t-276.5 -159q-90 0 -148.5 40t-105.5 134v-569h-234zM330 532q0 -158 52 -241.5t150 -83.5q90 0 143.5 91t53.5 245q0 152 -53 238.5t-148 86.5q-198 0 -198 -336 z" />
<glyph unicode="&#x490;" horiz-adv-x="1026" d="M127 0v1470h606v213h252v-473h-606v-1210h-252z" />
<glyph unicode="&#x491;" horiz-adv-x="786" d="M109 0v1090l430 2v219h221v-455h-418v-856h-233z" />
<glyph unicode="&#x492;" horiz-adv-x="1026" d="M0 870v201h127v399h858v-260h-606v-139h356v-201h-356v-870h-252v870h-127z" />
<glyph unicode="&#x493;" horiz-adv-x="786" d="M0 524v183h109v383h651v-234h-418v-149h231v-183h-231v-524h-233v524h-109z" />
<glyph unicode="&#x494;" horiz-adv-x="1026" d="M127 0v1470h858v-260h-606v-1210h-252z" />
<glyph unicode="&#x495;" horiz-adv-x="786" d="M109 0v1090h651v-234h-418v-856h-233z" />
<glyph unicode="&#x496;" horiz-adv-x="1798" d="M0 0l598 766l-569 704h325l420 -528v528h250v-528l420 528h325l-569 -704l406 -520h192v-492h-219v246h-104l-451 582v-582h-250v582l-450 -582h-324z" />
<glyph unicode="&#x497;" horiz-adv-x="1400" d="M-10 0l424 578l-414 512h289l295 -381v381h233v-381l295 381h289l-414 -512l258 -353h166v-471h-213v246h-70l-311 426v-426h-235l2 426l-312 -426h-282z" />
<glyph unicode="&#x498;" horiz-adv-x="1120" d="M66 453h241q14 -240 262 -240q117 0 181.5 49t64.5 139.5t-50 160t-169 69.5h-162v239h221q66 0 96.5 65.5t30.5 143.5q0 82 -57 130t-158 48q-113 0 -170 -53t-71 -170h-242q14 231 136 353t339 122q215 0 337 -122.5t122 -337.5q0 -195 -103 -293q141 -98 142 -318 q0 -221 -131 -349t-359 -128q-326 0 -446 240q-49 100 -55 252z" />
<glyph unicode="&#x499;" d="M51 348h242q6 -158 190 -158q72 0 113 31t41 82q0 59 -33 105.5t-123 48.5l-96 2v188l76 2q68 2 104.5 29t43.5 53.5t7 65.5q0 102 -141 102q-78 0 -112.5 -30.5t-47.5 -110.5h-231q14 113 41 174t82 106q98 80 268 80q225 0 318 -155q53 -90 53 -207q0 -109 -55 -183 l40 -67q41 -63 41 -166q0 -172 -106.5 -270.5t-290.5 -98.5q-188 0 -303 97q-57 47 -84 107t-37 173z" />
<glyph unicode="&#x49a;" horiz-adv-x="1212" d="M145 0v1470h252v-528l461 528h326l-611 -704l435 -520h204v-492h-219v246h-104l-492 582v-582h-252z" />
<glyph unicode="&#x49b;" d="M117 0v1090h233v-381l295 381h289l-414 -512l258 -353h166v-471h-213v246h-69l-312 426v-426h-233z" />
<glyph unicode="&#x49c;" horiz-adv-x="1212" d="M145 0v1470h252v-528l461 528h326l-611 -704l639 -766h-323l-492 582v-582h-252z" />
<glyph unicode="&#x49d;" d="M117 0v1090h233v-381l295 381h289l-414 -512l424 -578h-282l-312 426v-426h-233z" />
<glyph unicode="&#x49e;" horiz-adv-x="1212" d="M145 0v1470h252v-528l461 528h326l-611 -704l639 -766h-323l-492 582v-582h-252z" />
<glyph unicode="&#x49f;" d="M117 0v1090h233v-381l295 381h289l-414 -512l424 -578h-282l-312 426v-426h-233z" />
<glyph unicode="&#x4a0;" horiz-adv-x="1212" d="M145 0v1470h252v-528l461 528h326l-611 -704l639 -766h-323l-492 582v-582h-252z" />
<glyph unicode="&#x4a1;" d="M117 0v1090h233v-381l295 381h289l-414 -512l424 -578h-282l-312 426v-426h-233z" />
<glyph unicode="&#x4a2;" horiz-adv-x="1212" d="M119 0v1470h252v-557h471v557h252v-1470h-252v662h-471v-662h-252z" />
<glyph unicode="&#x4a3;" horiz-adv-x="1015" d="M109 0v1090h233v-404h342v404h234v-1090h-234v453h-342v-453h-233z" />
<glyph unicode="&#x4a4;" horiz-adv-x="1212" d="M119 0v1470h975v-1470h-252v1219h-471v-1219h-252z" />
<glyph unicode="&#x4a5;" horiz-adv-x="1026" d="M109 0v1090h809v-1090h-234v856h-342v-856h-233z" />
<glyph unicode="&#x4a6;" horiz-adv-x="1212" d="M74 731.5q0 358.5 150.5 568t408.5 209.5q143 0 257 -67.5t183 -192.5q59 -109 76 -260h-252q-23 94 -59 156q-70 98 -199 98q-145 0 -227 -136t-82 -378q0 -236 79.5 -369t221.5 -133q135 0 209 115q33 53 57 162h252q-25 -129 -53.5 -205t-81.5 -147 q-141 -190 -387 -191q-256 0 -404.5 206t-148.5 564.5z" />
<glyph unicode="&#x4a7;" d="M57 530q0 276 113 432t311 156q111 0 200 -50t140 -142q45 -84 60 -226h-238q-16 92 -52 134.5t-99 42.5q-193 0 -193 -334q0 -336 178 -336q68 0 112 52t52 138h238q-27 -207 -131.5 -316.5t-278.5 -109.5q-199 0 -305.5 145.5t-106.5 413.5z" />
<glyph unicode="&#x4a8;" horiz-adv-x="1212" d="M74 731.5q0 358.5 150.5 568t408.5 209.5q143 0 257 -67.5t183 -192.5q59 -109 76 -260h-252q-23 94 -59 156q-70 98 -199 98q-145 0 -227 -136t-82 -378q0 -236 79.5 -369t221.5 -133q135 0 209 115q33 53 57 162h252q-25 -129 -53.5 -205t-81.5 -147 q-141 -190 -387 -191q-256 0 -404.5 206t-148.5 564.5z" />
<glyph unicode="&#x4a9;" d="M57 530q0 276 113 432t311 156q111 0 200 -50t140 -142q45 -84 60 -226h-238q-16 92 -52 134.5t-99 42.5q-193 0 -193 -334q0 -336 178 -336q68 0 112 52t52 138h238q-27 -207 -131.5 -316.5t-278.5 -109.5q-199 0 -305.5 145.5t-106.5 413.5z" />
<glyph unicode="&#x4aa;" horiz-adv-x="1026" d="M23 1210v260h981v-260h-365v-964h188v-492h-219v246h-221v1210h-364z" />
<glyph unicode="&#x4ab;" horiz-adv-x="753" d="M16 885v205h721v-205h-243v-660h182v-471h-213v246h-203v885h-244z" />
<glyph unicode="&#x4ac;" horiz-adv-x="1120" d="M25 1470h297l249 -639l240 639h285l-404 -919v-551h-252v555z" />
<glyph unicode="&#x4ad;" horiz-adv-x="1120" d="M66 1090h296l209 -639l199 639h285l-363 -920v-551h-252v555z" />
<glyph unicode="&#x4ae;" horiz-adv-x="1120" d="M25 1470h297l249 -639l240 639h285l-404 -919v-47h348v-205h-348v-299h-252v299h-348v205h348v51z" />
<glyph unicode="&#x4af;" horiz-adv-x="1120" d="M66 1090h296l209 -639l199 639h285l-363 -916h348v-188h-348v-367h-252v367h-348v188h348z" />
<glyph unicode="&#x4b0;" horiz-adv-x="1120" d="M23 0l389 752l-367 718h299l215 -475l221 475h291l-369 -706l267 -518h127v-492h-219v246h-89l-229 502l-242 -502h-294z" />
<glyph unicode="&#x4b1;" d="M25 0l305 555l-293 535h285l151 -318l150 318h276l-295 -535l180 -330h125v-471h-213v246h-78l-155 328l-154 -328h-284z" />
<glyph unicode="&#x4b2;" horiz-adv-x="1384" d="M119 0v1470h252v-1218h471v1218h252v-1224h239v-492h-219v246h-995z" />
<glyph unicode="&#x4b3;" horiz-adv-x="1179" d="M109 0v1090h233v-857h342v857h234v-865h233v-471h-213v246h-829z" />
<glyph unicode="&#x4b4;" horiz-adv-x="1150" d="M102 854v616h252v-608q0 -61 73 -89t151 -28q61 0 131.5 30t70.5 87v608h252v-1470h-252v549q-78 -55 -252 -55q-203 0 -314.5 91t-111.5 269z" />
<glyph unicode="&#x4b5;" horiz-adv-x="923" d="M72 645v445h233v-439q0 -86 141 -86q53 0 99.5 20.5t46.5 71.5v433h233v-1090h-233v418q-23 -29 -65 -41t-78.5 -10t-71.5 0q-113 0 -209 78.5t-96 199.5z" />
<glyph unicode="&#x4b6;" horiz-adv-x="1150" d="M102 854v616h252v-608q0 -61 73 -89t151 -28q61 0 131.5 30t70.5 87v608h252v-1470h-252v549q-78 -55 -252 -55q-203 0 -314.5 91t-111.5 269z" />
<glyph unicode="&#x4b7;" horiz-adv-x="923" d="M72 645v445h233v-439q0 -86 141 -86q53 0 99.5 20.5t46.5 71.5v433h233v-1090h-233v418q-23 -29 -65 -41t-78.5 -10t-71.5 0q-113 0 -209 78.5t-96 199.5z" />
<glyph unicode="&#x4b8;" horiz-adv-x="1150" d="M102 0v1470h252v-548q78 55 252 55q203 0 314.5 -91t111.5 -270v-616h-252v608q0 61 -72.5 89t-150.5 28q-61 0 -132 -29.5t-71 -87.5v-608h-252z" />
<glyph unicode="&#x4b9;" horiz-adv-x="923" d="M72 0v1090h233v-418q23 29 65 41t78.5 10t71.5 0q113 0 209 -79t96 -200v-444h-233v438q0 86 -141 86q-53 0 -99.5 -20.5t-46.5 -71.5v-432h-233z" />
<glyph unicode="&#x4ba;" horiz-adv-x="1212" d="M74 731.5q0 358.5 150.5 568t408.5 209.5q143 0 257 -67.5t183 -192.5q59 -109 76 -260h-252q-23 94 -59 156q-70 98 -199 98q-145 0 -227 -136t-82 -378q0 -236 79.5 -369t221.5 -133q135 0 209 115q33 53 57 162h252q-25 -129 -53.5 -205t-81.5 -147 q-141 -190 -387 -191q-256 0 -404.5 206t-148.5 564.5z" />
<glyph unicode="&#x4bb;" d="M57 530q0 276 113 432t311 156q111 0 200 -50t140 -142q45 -84 60 -226h-238q-16 92 -52 134.5t-99 42.5q-193 0 -193 -334q0 -336 178 -336q68 0 112 52t52 138h238q-27 -207 -131.5 -316.5t-278.5 -109.5q-199 0 -305.5 145.5t-106.5 413.5z" />
<glyph unicode="&#x4bc;" horiz-adv-x="1212" d="M74 731.5q0 358.5 150.5 568t408.5 209.5q143 0 257 -67.5t183 -192.5q59 -109 76 -260h-252q-23 94 -59 156q-70 98 -199 98q-145 0 -227 -136t-82 -378q0 -236 79.5 -369t221.5 -133q135 0 209 115q33 53 57 162h252q-25 -129 -53.5 -205t-81.5 -147 q-141 -190 -387 -191q-256 0 -404.5 206t-148.5 564.5z" />
<glyph unicode="&#x4bd;" d="M57 530q0 276 113 432t311 156q111 0 200 -50t140 -142q45 -84 60 -226h-238q-16 92 -52 134.5t-99 42.5q-193 0 -193 -334q0 -336 178 -336q68 0 112 52t52 138h238q-27 -207 -131.5 -316.5t-278.5 -109.5q-199 0 -305.5 145.5t-106.5 413.5z" />
<glyph unicode="&#x4be;" horiz-adv-x="466" d="M106 0v1470h252v-1470h-252z" />
<glyph unicode="&#x4bf;" horiz-adv-x="1798" d="M0 0l598 766l-569 704h325l420 -528v528h250v-528l420 528h325l-569 -704l598 -766h-323l-451 582v-582h-250v582l-450 -582h-324zM614 1974h111q14 -78 53 -109.5t121 -31.5t120 30.5t54 110.5h109q-31 -299 -293 -299q-248 0 -275 299z" />
<glyph unicode="&#x4c0;" horiz-adv-x="1400" d="M-10 0l424 578l-414 512h289l295 -381v381h233v-381l295 381h289l-414 -512l424 -578h-283l-311 426v-426h-235l2 426l-312 -426h-282zM418 1593h110q14 -78 53.5 -109.5t121 -31.5t119.5 30.5t55 110.5h108q-31 -299 -293 -299q-247 0 -274 299z" />
<glyph unicode="&#x4c1;" horiz-adv-x="1212" d="M145 0v1470h252v-528l461 528h326l-611 -704l639 -766h-323l-492 582v-582h-252z" />
<glyph unicode="&#x4c2;" d="M117 0v1090h233v-381l295 381h289l-414 -512l424 -578h-282l-312 426v-426h-233z" />
<glyph unicode="&#x4c3;" horiz-adv-x="1212" d="M119 0v1470h252v-557h471v557h252v-1470h-252v662h-471v-662h-252z" />
<glyph unicode="&#x4c4;" horiz-adv-x="1015" d="M109 0v1090h233v-404h342v404h234v-1090h-234v453h-342v-453h-233z" />
<glyph unicode="&#x4c7;" horiz-adv-x="1150" d="M102 854v616h252v-608q0 -61 73 -89t151 -28q61 0 131.5 30t70.5 87v608h252v-1470h-252v549q-78 -55 -252 -55q-203 0 -314.5 91t-111.5 269z" />
<glyph unicode="&#x4c8;" horiz-adv-x="923" d="M72 645v445h233v-439q0 -86 141 -86q53 0 99.5 20.5t46.5 71.5v433h233v-1090h-233v418q-23 -29 -65 -41t-78.5 -10t-71.5 0q-113 0 -209 78.5t-96 199.5z" />
<glyph unicode="&#x4cb;" horiz-adv-x="1212" d="M33 0l430 1470h291l426 -1470h-275l-78 303h-444l-84 -303h-266zM324 1974h110q14 -78 53 -109.5t121 -31.5t120 30.5t54 110.5h109q-31 -299 -293 -299q-247 0 -274 299zM451 555h307l-152 590z" />
<glyph unicode="&#x4cc;" d="M49 291q0 143 68.5 233t193.5 113l211 39q82 14 82 90q0 123 -145 123q-76 0 -111 -34t-45 -118h-225q16 154 69 242q94 139 322 139q174 0 269.5 -83t95.5 -232v-590q0 -143 51 -170v-43h-252q-14 55 -23 129q-70 -88 -133 -123t-149 -35q-129 0 -204 86.5t-75 233.5z M57 1593h111q14 -78 53 -109.5t121 -31.5t120 30.5t54 110.5h109q-31 -299 -293 -299q-248 0 -275 299zM285 309q0 -61 30.5 -97t81.5 -36q86 0 146.5 62.5t60.5 152.5v139q-39 -35 -160 -59q-88 -18 -123.5 -55t-35.5 -107z" />
<glyph unicode="&#x4d0;" horiz-adv-x="1212" d="M33 0l430 1470h291l426 -1470h-275l-78 303h-444l-84 -303h-266zM338 1675v236h211v-236h-211zM451 555h307l-152 590zM666 1675v236h211v-236h-211z" />
<glyph unicode="&#x4d1;" d="M49 291q0 143 68.5 233t193.5 113l211 39q82 14 82 90q0 123 -145 123q-76 0 -111 -34t-45 -118h-225q16 154 69 242q94 139 322 139q174 0 269.5 -83t95.5 -232v-590q0 -143 51 -170v-43h-252q-14 55 -23 129q-70 -88 -133 -123t-149 -35q-129 0 -204 86.5t-75 233.5z M72 1294v236h211v-236h-211zM285 309q0 -61 30.5 -97t81.5 -36q86 0 146.5 62.5t60.5 152.5v139q-39 -35 -160 -59q-88 -18 -123.5 -55t-35.5 -107zM399 1294v236h211v-236h-211z" />
<glyph unicode="&#x4d2;" horiz-adv-x="1679" d="M8 0l441 1470h1140v-260h-622v-309h561v-260h-561v-381h635v-260h-881v313h-361l-88 -313h-264zM426 555h295v655h-109z" />
<glyph unicode="&#x4d3;" horiz-adv-x="1492" d="M49 301q0 127 59.5 210t167.5 105l220 46q80 16 100 34.5t20 69.5q0 63 -36.5 93t-118.5 30q-76 0 -111 -37t-39 -117h-229q14 150 65 232q98 152 326 151q168 0 287 -121q70 68 130 94.5t140 26.5q178 0 285 -133q127 -158 127 -469v-51h-613q10 -137 59.5 -199.5 t145.5 -62.5q121 0 156 119h242q-29 -102 -62 -159t-88 -104q-102 -88 -256 -88q-117 0 -187.5 39t-133.5 137q-104 -176 -338 -176q-154 0 -236 86t-82 244zM285 309q0 -63 32.5 -98t92.5 -35q80 0 141 63.5t61 145.5v135q-33 -35 -174 -61q-90 -16 -121.5 -48t-31.5 -102z M836 653h364q-25 229 -184 230q-78 0 -121 -55.5t-59 -174.5z" />
<glyph unicode="&#x4d4;" horiz-adv-x="1120" d="M127 0v1470h887v-260h-641v-309h590v-260h-590v-381h669v-260h-915zM287 1974h110q14 -78 53 -109.5t121 -31.5t120 30.5t54 110.5h109q-31 -299 -293 -299q-247 0 -274 299z" />
<glyph unicode="&#x4d5;" d="M39 549q0 266 112.5 417.5t311.5 151.5q205 0 314.5 -155.5t109.5 -446.5v-51h-613q10 -137 59.5 -199.5t145.5 -62.5q121 0 156 119h242q-29 -102 -62 -159t-88 -104q-100 -88 -252 -88q-209 0 -322.5 151t-113.5 427zM180 1593h111q14 -78 53 -109.5t121 -31.5 t120 30.5t54 110.5h109q-31 -299 -293 -299q-248 0 -275 299zM281 653h364q-25 229 -184 230q-78 0 -121 -55.5t-59 -174.5z" />
<glyph unicode="&#x4d6;" horiz-adv-x="1212" d="M74 481h252q23 -94 59 -155q70 -98 199 -99q145 0 227 136.5t82 377.5q0 236 -80 369t-221 133q-135 0 -209 -115q-33 -53 -57 -161h-252q25 129 53.5 204.5t81.5 147.5q141 190 387 190q256 0 404.5 -205.5t148.5 -564t-150.5 -568.5t-408.5 -210q-143 0 -257 67.5 t-183 192.5q-60 108 -76 260z" />
<glyph unicode="&#x4d7;" d="M57 700q14 141 60 226q51 92 140 142t200 50q199 0 311.5 -155.5t112.5 -432.5q0 -268 -106.5 -413.5t-305.5 -145.5q-174 0 -278.5 109.5t-131.5 316.5h238q8 -86 52 -138t112 -52q178 0 178 336q0 334 -193 334q-63 0 -99 -42t-52 -135h-238z" />
<glyph unicode="&#x4d8;" horiz-adv-x="1212" d="M74 481h252q23 -94 59 -155q70 -98 199 -99q145 0 227 136.5t82 377.5q0 236 -80 369t-221 133q-135 0 -209 -115q-33 -53 -57 -161h-252q25 129 53.5 204.5t81.5 147.5q141 190 387 190q256 0 404.5 -205.5t148.5 -564t-150.5 -568.5t-408.5 -210q-143 0 -257 67.5 t-183 192.5q-60 108 -76 260zM215 1675v236h211v-236h-211zM543 1675v236h211v-236h-211z" />
<glyph unicode="&#x4d9;" d="M57 700q14 141 60 226q51 92 140 142t200 50q199 0 311.5 -155.5t112.5 -432.5q0 -268 -106.5 -413.5t-305.5 -145.5q-174 0 -278.5 109.5t-131.5 316.5h238q8 -86 52 -138t112 -52q178 0 178 336q0 334 -193 334q-63 0 -99 -42t-52 -135h-238zM80 1294v236h211v-236 h-211zM408 1294v236h210v-236h-210z" />
<glyph unicode="&#x4da;" horiz-adv-x="1798" d="M0 0l598 766l-569 704h325l420 -528v528h250v-528l420 528h325l-569 -704l598 -766h-323l-451 582v-582h-250v582l-450 -582h-324zM629 1675v236h211v-236h-211zM956 1675v236h211v-236h-211z" />
<glyph unicode="&#x4db;" horiz-adv-x="1400" d="M-10 0l424 578l-414 512h289l295 -381v381h233v-381l295 381h289l-414 -512l424 -578h-283l-311 426v-426h-235l2 426l-312 -426h-282zM432 1294v236h211v-236h-211zM760 1294v236h211v-236h-211z" />
<glyph unicode="&#x4dc;" horiz-adv-x="1120" d="M66 453h241q14 -240 262 -240q117 0 181.5 49t64.5 139.5t-50 160t-169 69.5h-162v239h221q66 0 96.5 65.5t30.5 143.5q0 82 -57 130t-158 48q-113 0 -170 -53t-71 -170h-242q14 231 136 353t339 122q215 0 337 -122.5t122 -337.5q0 -195 -103 -293q141 -98 142 -318 q0 -221 -131 -349t-359 -128q-326 0 -446 240q-49 100 -55 252zM285 1675v236h211v-236h-211zM612 1675v236h211v-236h-211z" />
<glyph unicode="&#x4dd;" d="M51 348h242q6 -158 190 -158q72 0 113 31t41 82q0 59 -33 105.5t-123 48.5l-96 2v188l76 2q68 2 104.5 29t43.5 53.5t7 65.5q0 102 -141 102q-78 0 -112.5 -30.5t-47.5 -110.5h-231q14 113 41 174t82 106q98 80 268 80q225 0 318 -155q53 -90 53 -207q0 -109 -55 -183 l40 -67q41 -63 41 -166q0 -172 -106.5 -270.5t-290.5 -98.5q-188 0 -303 97q-57 47 -84 107t-37 173zM195 1294v236h211v-236h-211zM522 1294v236h211v-236h-211z" />
<glyph unicode="&#x4de;" horiz-adv-x="1120" d="M66 453h241q14 -240 262 -240q117 0 181.5 49t64.5 139.5t-50 160t-169 69.5h-162v239h221q66 0 96.5 65.5t30.5 143.5q0 82 -57 130t-158 48q-113 0 -170 -53t-71 -170h-242q14 231 136 353t339 122q215 0 337 -122.5t122 -337.5q0 -195 -103 -293q141 -98 142 -318 q0 -221 -131 -349t-359 -128q-326 0 -446 240q-49 100 -55 252z" />
<glyph unicode="&#x4df;" d="M51 348h242q6 -158 190 -158q72 0 113 31t41 82q0 59 -33 105.5t-123 48.5l-96 2v188l76 2q68 2 104.5 29t43.5 53.5t7 65.5q0 102 -141 102q-78 0 -112.5 -30.5t-47.5 -110.5h-231q14 113 41 174t82 106q98 80 268 80q225 0 318 -155q53 -90 53 -207q0 -109 -55 -183 l40 -67q41 -63 41 -166q0 -172 -106.5 -270.5t-290.5 -98.5q-188 0 -303 97q-57 47 -84 107t-37 173z" />
<glyph unicode="&#x4e0;" horiz-adv-x="1212" d="M117 0v1470h233v-1054l498 1054h250v-1470h-234v1032l-483 -1032h-264zM317 1675v150h580v-150h-580z" />
<glyph unicode="&#x4e1;" horiz-adv-x="1015" d="M109 0v1090h233v-703l307 703h269v-1090h-234v700l-307 -700h-268zM223 1294v150h580v-150h-580z" />
<glyph unicode="&#x4e2;" horiz-adv-x="1212" d="M117 0v1470h233v-1054l498 1054h250v-1470h-234v1032l-483 -1032h-264zM338 1675v236h211v-236h-211zM666 1675v236h211v-236h-211z" />
<glyph unicode="&#x4e3;" horiz-adv-x="1015" d="M109 0v1090h233v-703l307 703h269v-1090h-234v700l-307 -700h-268zM244 1294v236h211v-236h-211zM571 1294v236h211v-236h-211z" />
<glyph unicode="&#x4e4;" horiz-adv-x="1306" d="M74 733q0 381 166 582q160 195 422 194q115 0 222 -52t183 -142q166 -201 166 -580t-166 -579q-160 -195 -414 -195q-158 0 -289 84t-202 231q-88 187 -88 457zM326 739q0 -244 87 -381t240.5 -137t240.5 138.5t87 381.5q0 268 -111 402q-84 106 -213 106 q-156 0 -243.5 -136t-87.5 -374zM383 1675v236h211v-236h-211zM711 1675v236h211v-236h-211z" />
<glyph unicode="&#x4e5;" horiz-adv-x="1026" d="M57 543q0 264 125 419.5t338 155.5q205 0 328 -157.5t123 -417.5t-125 -416t-332 -156t-332 156t-125 416zM244 1294v236h211v-236h-211zM299 545q0 -162 55.5 -247t159.5 -85t159.5 85t55.5 247q0 160 -55.5 246t-157.5 86q-217 0 -217 -332zM571 1294v236h211v-236 h-211z" />
<glyph unicode="&#x4e6;" horiz-adv-x="1306" d="M74 733q0 381 166 582q160 195 422 194q115 0 222 -52t183 -142q166 -201 166 -580t-166 -579q-160 -195 -414 -195q-158 0 -289 84t-202 231q-88 187 -88 457zM328 664q14 -209 99 -326t226.5 -117t226.5 117t99 326h-651zM328 813h651q-16 219 -109 330 q-84 106 -213 106q-141 0 -228 -115.5t-101 -320.5z" />
<glyph unicode="&#x4e7;" horiz-adv-x="1026" d="M57 543q0 264 125 419.5t338 155.5q205 0 328 -157.5t123 -417.5t-125 -416t-332 -156t-332 156t-125 416zM301 616h424q-10 127 -64.5 194t-144.5 67q-190 -1 -215 -261zM303 467q25 -254 211 -254t211 254h-422z" />
<glyph unicode="&#x4e8;" horiz-adv-x="1306" d="M74 733q0 381 166 582q160 195 422 194q115 0 222 -52t183 -142q166 -201 166 -580t-166 -579q-160 -195 -414 -195q-158 0 -289 84t-202 231q-88 187 -88 457zM328 664q14 -209 99 -326t226.5 -117t226.5 117t99 326h-651zM328 813h651q-16 219 -109 330 q-84 106 -213 106q-141 0 -228 -115.5t-101 -320.5zM383 1675v236h211v-236h-211zM711 1675v236h211v-236h-211z" />
<glyph unicode="&#x4e9;" horiz-adv-x="1026" d="M57 543q0 264 125 419.5t338 155.5q205 0 328 -157.5t123 -417.5t-125 -416t-332 -156t-332 156t-125 416zM244 1294v236h211v-236h-211zM301 616h424q-10 127 -64.5 194t-144.5 67q-190 -1 -215 -261zM303 467q25 -254 211 -254t211 254h-422zM571 1294v236h211v-236 h-211z" />
<glyph unicode="&#x4ea;" horiz-adv-x="1212" d="M74 504h252q25 -109 57 -162q74 -115 209 -115q127 0 204.5 109.5t92.5 304.5h-432v260h424q-27 164 -104 253t-193 89q-129 0 -199 -98q-37 -61 -59 -156h-252q16 152 76 260q70 125 183 192.5t257 67.5q258 0 408.5 -209.5t150.5 -568t-148.5 -564.5t-404.5 -206 q-246 0 -387 191q-53 72 -81.5 147.5t-53.5 204.5zM207 1675v236h211v-236h-211zM535 1675v236h210v-236h-210z" />
<glyph unicode="&#x4eb;" d="M57 700q14 141 60 226q51 92 140 142t200 50q199 0 311.5 -155.5t112.5 -432.5q0 -268 -106.5 -413.5t-305.5 -145.5q-174 0 -278.5 109.5t-131.5 316.5h238q8 -86 52 -138t112 -52q152 0 174 246h-223v233h215q-33 190 -181 191q-63 0 -99 -42t-52 -135h-238zM72 1294 v236h211v-236h-211zM399 1294v236h211v-236h-211z" />
<glyph unicode="&#x4ec;" horiz-adv-x="1120" d="M25 1470h297l260 -593l229 593h285l-635 -1470h-285l262 578zM270 1675v150h580v-150h-580z" />
<glyph unicode="&#x4ed;" d="M16 1090h263l192 -811l184 811h250l-307 -1072q-90 -315 -139 -380q-55 -76 -201 -76l-113 4v229q33 -4 50 -4q76 0 105.5 32t45.5 132zM170 1294v150h580v-150h-580z" />
<glyph unicode="&#x4ee;" horiz-adv-x="1120" d="M25 1470h297l260 -593l229 593h285l-635 -1470h-285l262 578zM291 1675v236h211v-236h-211zM618 1675v236h211v-236h-211z" />
<glyph unicode="&#x4ef;" d="M16 1090h263l192 -811l184 811h250l-307 -1072q-90 -315 -139 -380q-55 -76 -201 -76l-113 4v229q33 -4 50 -4q76 0 105.5 32t45.5 132zM190 1294v236h211v-236h-211zM518 1294v236h211v-236h-211z" />
<glyph unicode="&#x4f0;" horiz-adv-x="1120" d="M25 1470h297l260 -593l229 593h285l-635 -1470h-285l262 578zM158 1675l157 299h260l-247 -299h-170zM543 1675l157 299h261l-248 -299h-170z" />
<glyph unicode="&#x4f1;" d="M16 1090h263l192 -811l184 811h250l-307 -1072q-90 -315 -139 -380q-55 -76 -201 -76l-113 4v229q33 -4 50 -4q76 0 105.5 32t45.5 132zM59 1294l158 299h260l-248 -299h-170zM444 1294l158 299h260l-248 -299h-170z" />
<glyph unicode="&#x4f2;" horiz-adv-x="1150" d="M102 854v616h252v-608q0 -61 73 -89t151 -28q61 0 131.5 30t70.5 87v608h252v-1470h-252v549q-78 -55 -252 -55q-203 0 -314.5 91t-111.5 269zM297 1632v236h211v-236h-211zM625 1632v236h211v-236h-211z" />
<glyph unicode="&#x4f3;" horiz-adv-x="923" d="M72 645v445h233v-439q0 -86 141 -86q53 0 99.5 20.5t46.5 71.5v433h233v-1090h-233v418q-23 -29 -65 -41t-78.5 -10t-71.5 0q-113 0 -209 78.5t-96 199.5zM178 1241v236h211v-236h-211zM506 1241v236h211v-236h-211z" />
<glyph unicode="&#x4f4;" horiz-adv-x="1490" d="M127 0v1470h252v-532h289q174 0 279.5 -131t105.5 -350q0 -207 -102.5 -332t-272.5 -125h-551zM379 252h201q119 0 170 49t51 162q0 223 -189 223h-233v-434zM481 1675v236h211v-236h-211zM809 1675v236h211v-236h-211zM1120 0v1470h252v-1470h-252z" />
<glyph unicode="&#x4f5;" horiz-adv-x="1396" d="M111 0v1090h229v-416h158q59 0 110 -6t87 -15.5t69 -26t51.5 -28.5t37.5 -32.5t26.5 -30t19.5 -29t14 -21.5q45 -68 45 -157q0 -137 -104 -230q-63 -57 -144 -77.5t-239 -20.5h-360zM340 217h172q98 0 146.5 31t48.5 104q0 115 -183 115h-184v-250zM434 1294v236h211 v-236h-211zM762 1294v236h211v-236h-211zM1063 0v1090h233v-1090h-233z" />
<glyph unicode="&#x4f8;" horiz-adv-x="786" d="M109 0v1090h651v-234h-418v-856h-233z" />
<glyph unicode="&#x4f9;" horiz-adv-x="1026" d="M57 543q6 166 40 275.5t132 197.5q-106 53 -95 129t66.5 139.5t108.5 83.5q84 33 151.5 52.5t131 32.5t80.5 17q35 10 55.5 26.5t28.5 39.5t20 53h213q-18 -70 -26.5 -96.5t-35 -76.5t-67.5 -85q-29 -25 -60.5 -42t-63 -27.5t-66.5 -17.5t-68 -11l-67 -8 q-49 -6 -88 -22.5t-54.5 -34t-8.5 -33t42 -17.5h94q205 0 328 -157.5t123 -417.5t-125 -416t-332 -156t-332 156t-125 416zM299 545q0 -162 55.5 -247t159.5 -85t159.5 85t55.5 247q0 160 -55.5 246t-157.5 86q-217 0 -217 -332z" />
<glyph unicode="&#xe3f;" horiz-adv-x="1212" d="M127 0v1470h354v170h168v-170h64q174 0 273 -102t99 -281q0 -109 -34.5 -178t-112.5 -116q186 -102 186 -351q0 -184 -104 -311q-61 -74 -140 -101.5t-231 -29.5v-170h-168v170h-354zM369 252h112v393h-112v-393zM369 895h112v324h-112v-324zM649 252h29q195 0 194 209 q0 88 -48 136t-134 48h-41v-393zM649 895h15q86 0 133 43t47 125q0 156 -187 156h-8v-324z" />
<glyph unicode="&#x1e0c;" horiz-adv-x="1212" d="M127 0v1470h532q233 0 362.5 -185t129.5 -519q0 -338 -131 -552t-371 -214h-522zM373 252h245q131 0 204 133t73 373q0 461 -281 461h-241v-967zM500 -174h233v-236h-233v236z" />
<glyph unicode="&#x1e0d;" horiz-adv-x="1026" d="M57 557q0 254 102.5 407.5t272.5 153.5q86 0 146.5 -41t113.5 -135v528h234v-1470h-230v143q-84 -172 -262 -172q-172 0 -274.5 159t-102.5 427zM299 541q0 -154 53.5 -244t143.5 -90q98 0 151 85t53 240q0 160 -51 248t-145 88q-96 0 -150.5 -85.5t-54.5 -241.5z M399 -174h234v-236h-234v236z" />
<glyph unicode="&#x1e0e;" horiz-adv-x="1212" d="M127 0v1470h532q233 0 362.5 -185t129.5 -519q0 -338 -131 -552t-371 -214h-522zM326 -217h579v-150h-579v150zM373 252h245q131 0 204 133t73 373q0 461 -281 461h-241v-967z" />
<glyph unicode="&#x1e0f;" horiz-adv-x="1026" d="M57 557q0 254 102.5 407.5t272.5 153.5q86 0 146.5 -41t113.5 -135v528h234v-1470h-230v143q-84 -172 -262 -172q-172 0 -274.5 159t-102.5 427zM223 -217h580v-150h-580v150zM299 541q0 -154 53.5 -244t143.5 -90q98 0 151 85t53 240q0 160 -51 248t-145 88 q-96 0 -150.5 -85.5t-54.5 -241.5z" />
<glyph unicode="&#x1e24;" horiz-adv-x="1212" d="M119 0v1470h252v-557h471v557h252v-1470h-252v662h-471v-662h-252zM492 -174h233v-236h-233v236z" />
<glyph unicode="&#x1e25;" horiz-adv-x="1026" d="M109 0v1470h233v-530q72 178 268 178q139 0 223.5 -99t84.5 -265v-754h-234v662q0 113 -36 164t-116 51q-88 0 -139 -68t-51 -184v-625h-233zM399 -174h234v-236h-234v236z" />
<glyph unicode="&#x1e26;" horiz-adv-x="1212" d="M119 0v1470h252v-557h471v557h252v-1470h-252v662h-471v-662h-252zM340 1626v236h197v-236h-197zM678 1626v236h196v-236h-196z" />
<glyph unicode="&#x1e27;" horiz-adv-x="1026" d="M109 0v1470h233v-530q72 178 268 178q139 0 223.5 -99t84.5 -265v-754h-234v662q0 113 -36 164t-116 51q-88 0 -139 -68t-51 -184v-625h-233zM246 1626v236h196v-236h-196zM584 1626v236h196v-236h-196z" />
<glyph unicode="&#x1e2a;" horiz-adv-x="1212" d="M119 0v1470h252v-557h471v557h252v-1470h-252v662h-471v-662h-252zM301 -164h111q33 -51 74.5 -75.5t119.5 -24.5t117 24.5t57 75.5h129q-68 -258 -313 -258q-232 0 -295 258z" />
<glyph unicode="&#x1e2b;" horiz-adv-x="1026" d="M109 0v1470h233v-530q72 178 268 178q139 0 223.5 -99t84.5 -265v-754h-234v662q0 113 -36 164t-116 51q-88 0 -139 -68t-51 -184v-625h-233zM209 -164h110q33 -51 75 -75.5t120 -24.5t117 24.5t57 75.5h129q-68 -258 -313 -258q-232 0 -295 258z" />
<glyph unicode="&#x1e36;" horiz-adv-x="1026" d="M127 0v1470h252v-1204h600v-266h-852zM438 -174h234v-236h-234v236z" />
<glyph unicode="&#x1e37;" horiz-adv-x="466" d="M117 0v1470h233v-1470h-233zM119 -174h233v-236h-233v236z" />
<glyph unicode="&#x1e38;" horiz-adv-x="1026" d="M-37 1669v150h580v-150h-580zM127 0v1470h252v-1204h600v-266h-852zM438 -174h234v-236h-234v236z" />
<glyph unicode="&#x1e39;" horiz-adv-x="466" d="M-55 1669v150h579v-150h-579zM117 0v1470h233v-1470h-233zM119 -174h233v-236h-233v236z" />
<glyph unicode="&#x1e42;" horiz-adv-x="1398" d="M117 0v1470h366l222 -1167l217 1167h362v-1470h-233v1247l-230 -1247h-248l-223 1247v-1247h-233zM586 -174h233v-236h-233v236z" />
<glyph unicode="&#x1e43;" horiz-adv-x="1492" d="M106 0v1090h226v-166q41 102 104.5 148t157.5 46q84 0 136 -37t106 -137q51 94 108 134t141 40q135 0 218 -100t83 -264v-754h-233v662q0 215 -133 215q-158 0 -158 -224v-653h-233v655q0 123 -31 172.5t-109 49.5q-150 0 -149 -213v-664h-234zM633 -174h233v-236h-233 v236z" />
<glyph unicode="&#x1e44;" horiz-adv-x="1212" d="M117 0v1470h264l483 -1032v1032h234v-1470h-250l-498 1055v-1055h-233zM496 1626v236h233v-236h-233z" />
<glyph unicode="&#x1e45;" horiz-adv-x="1026" d="M109 0v1090h225v-166q92 195 274 194q141 0 225.5 -98t84.5 -266v-754h-234v662q0 113 -36 164t-116 51q-88 0 -139 -68t-51 -184v-625h-233zM399 1266v235h234v-235h-234z" />
<glyph unicode="&#x1e46;" horiz-adv-x="1212" d="M117 0v1470h264l483 -1032v1032h234v-1470h-250l-498 1055v-1055h-233zM494 -174h233v-236h-233v236z" />
<glyph unicode="&#x1e47;" horiz-adv-x="1026" d="M109 0v1090h225v-166q92 195 274 194q141 0 225.5 -98t84.5 -266v-754h-234v662q0 113 -36 164t-116 51q-88 0 -139 -68t-51 -184v-625h-233zM399 -174h234v-236h-234v236z" />
<glyph unicode="&#x1e58;" horiz-adv-x="1212" d="M127 0v1470h608q174 0 277.5 -113.5t103.5 -303.5q0 -260 -186 -348q98 -53 125.5 -133t27.5 -310q0 -125 9.5 -166t44.5 -57v-39h-279q-29 131 -29 295q0 133 -20.5 192.5t-55 72.5t-120.5 13h-260v-573h-246zM373 823h297q100 0 147 48.5t47 148.5q0 96 -46 147.5 t-130 51.5h-315v-396zM459 1626v236h233v-236h-233z" />
<glyph unicode="&#x1e59;" horiz-adv-x="653" d="M106 0v1090h226v-195q53 125 107.5 174t140.5 49q20 0 47 -4v-291q-33 4 -60 4q-227 0 -227 -260v-567h-234zM225 1266v235h234v-235h-234z" />
<glyph unicode="&#x1e5a;" horiz-adv-x="1212" d="M127 0v1470h608q174 0 277.5 -113.5t103.5 -303.5q0 -260 -186 -348q98 -53 125.5 -133t27.5 -310q0 -125 9.5 -166t44.5 -57v-39h-279q-29 131 -29 295q0 133 -20.5 192.5t-55 72.5t-120.5 13h-260v-573h-246zM373 823h297q100 0 147 48.5t47 148.5q0 96 -46 147.5 t-130 51.5h-315v-396zM457 -174h233v-236h-233v236z" />
<glyph unicode="&#x1e5b;" horiz-adv-x="653" d="M106 0v1090h226v-195q53 125 107.5 174t140.5 49q20 0 47 -4v-291q-33 4 -60 4q-227 0 -227 -260v-567h-234zM109 -174h233v-236h-233v236z" />
<glyph unicode="&#x1e5c;" horiz-adv-x="1212" d="M127 0v1470h608q174 0 277.5 -113.5t103.5 -303.5q0 -260 -186 -348q98 -53 125.5 -133t27.5 -310q0 -125 9.5 -166t44.5 -57v-39h-279q-29 131 -29 295q0 133 -20.5 192.5t-55 72.5t-120.5 13h-260v-573h-246zM283 1669v150h579v-150h-579zM373 823h297q100 0 147 48.5 t47 148.5q0 96 -46 147.5t-130 51.5h-315v-396zM457 -174h233v-236h-233v236z" />
<glyph unicode="&#x1e5d;" horiz-adv-x="653" d="M49 1337v150h580v-150h-580zM106 0v1090h226v-195q53 125 107.5 174t140.5 49q20 0 47 -4v-291q-33 4 -60 4q-227 0 -227 -260v-567h-234zM109 -174h233v-236h-233v236z" />
<glyph unicode="&#x1e62;" horiz-adv-x="1120" d="M66 453h241q14 -240 262 -240q117 0 181.5 49t64.5 139q0 72 -46 111t-173 76l-129 37q-233 66 -308 155.5t-75 268.5q0 215 122 337.5t337 122.5q217 0 339 -121.5t136 -353.5h-242q-14 117 -71.5 170t-169.5 53q-100 0 -158 -48t-58 -130q0 -63 29 -98t98 -55l295 -88 q168 -51 242 -143.5t74 -256.5q0 -221 -131 -349t-359 -128q-233 0 -363 125t-138 367zM440 -174h234v-236h-234v236z" />
<glyph unicode="&#x1e63;" d="M51 348h242q6 -158 190 -158q72 0 113 31t41 82q0 82 -195 121q-186 35 -272 114.5t-86 217.5q0 168 99.5 265t271.5 97q178 0 272 -82t119 -278h-232q-12 80 -47 110.5t-112 30.5q-141 0 -142 -102q0 -84 193 -119q193 -37 279.5 -121t86.5 -217q0 -172 -106.5 -270.5 t-290.5 -98.5q-389 0 -424 377zM352 -174h234v-236h-234v236z" />
<glyph unicode="&#x1e6c;" horiz-adv-x="1026" d="M23 1210v260h981v-260h-365v-1210h-252v1210h-364zM399 -174h234v-236h-234v236z" />
<glyph unicode="&#x1e6d;" horiz-adv-x="559" d="M16 885v205h121v294h234v-294h147v-205h-147v-592q0 -57 17.5 -72.5t78.5 -15.5q25 0 51 4v-217q-80 -4 -112 -4h-31q-129 0 -183.5 53t-54.5 182v662h-121zM213 -174h233v-236h-233v236z" />
<glyph unicode="&#x1e6e;" horiz-adv-x="1026" d="M23 1210v260h981v-260h-365v-1210h-252v1210h-364zM225 -217h580v-150h-580v150z" />
<glyph unicode="&#x1e6f;" horiz-adv-x="559" d="M16 885v205h121v294h234v-294h147v-205h-147v-592q0 -57 17.5 -72.5t78.5 -15.5q25 0 51 4v-217q-80 -4 -112 -4h-31q-129 0 -183.5 53t-54.5 182v662h-121zM39 -217h579v-150h-579v150z" />
<glyph unicode="&#x1e80;" horiz-adv-x="1585" d="M27 1470h268q164 -856 194 -1087l168 1087h269l180 -1087l199 1087h256l-340 -1470h-242l-188 1157l-138 -866l-51 -291h-233zM459 1872h268l147 -258h-159z" />
<glyph unicode="&#x1e81;" horiz-adv-x="1306" d="M16 1090h250l142 -793l129 793h235l137 -793l142 793h241l-258 -1090h-241l-142 805l-141 -805h-242zM324 1532h258l157 -299h-170z" />
<glyph unicode="&#x1e82;" horiz-adv-x="1585" d="M27 1470h268q164 -856 194 -1087l168 1087h269l180 -1087l199 1087h256l-340 -1470h-242l-188 1157l-138 -866l-51 -291h-233zM713 1614l147 258h268l-256 -258h-159z" />
<glyph unicode="&#x1e83;" horiz-adv-x="1306" d="M16 1090h250l142 -793l129 793h235l137 -793l142 793h241l-258 -1090h-241l-142 805l-141 -805h-242zM567 1233l158 299h258l-246 -299h-170z" />
<glyph unicode="&#x1e84;" horiz-adv-x="1585" d="M27 1470h268q164 -856 194 -1087l168 1087h269l180 -1087l199 1087h256l-340 -1470h-242l-188 1157l-138 -866l-51 -291h-233zM526 1626v236h197v-236h-197zM864 1626v236h197v-236h-197z" />
<glyph unicode="&#x1e85;" horiz-adv-x="1306" d="M16 1090h250l142 -793l129 793h235l137 -793l142 793h241l-258 -1090h-241l-142 805l-141 -805h-242zM385 1266v235h197v-235h-197zM723 1266v235h197v-235h-197z" />
<glyph unicode="&#x1e92;" horiz-adv-x="1026" d="M41 0v260l625 950h-609v260h924v-241l-633 -969h637v-260h-944zM406 -174h233v-236h-233v236z" />
<glyph unicode="&#x1e93;" horiz-adv-x="839" d="M33 0v223l461 637h-428v230h725v-236l-453 -618h469v-236h-774zM305 -174h234v-236h-234v236z" />
<glyph unicode="&#x1e97;" horiz-adv-x="559" d="M-12 1540v236h196v-236h-196zM16 885v205h121v294h234v-294h147v-205h-147v-592q0 -57 17.5 -72.5t78.5 -15.5q25 0 51 4v-217q-80 -4 -112 -4h-31q-129 0 -183.5 53t-54.5 182v662h-121zM326 1540v236h196v-236h-196z" />
<glyph unicode="&#x1ea0;" horiz-adv-x="1212" d="M33 0l430 1470h291l426 -1470h-275l-78 303h-444l-84 -303h-266zM451 555h307l-152 590zM492 -174h233v-236h-233v236z" />
<glyph unicode="&#x1ea1;" d="M49 291q0 143 68.5 233t193.5 113l211 39q82 14 82 90q0 123 -145 123q-76 0 -111 -34t-45 -118h-225q20 207 112.5 294t278.5 87q174 0 269.5 -83t95.5 -232v-590q0 -143 51 -170v-43h-252q-14 55 -23 129q-70 -88 -133 -123t-149 -35q-129 0 -204 86.5t-75 233.5z M285 309q0 -61 30.5 -97t81.5 -36q86 0 146.5 62.5t60.5 152.5v139q-39 -35 -160 -59q-88 -18 -123.5 -55t-35.5 -107zM354 -174h234v-236h-234v236z" />
<glyph unicode="&#x1ea2;" horiz-adv-x="1212" d="M33 0l430 1470h291l426 -1470h-275l-78 303h-444l-84 -303h-266zM383 1759q0 188 238 189q104 0 164.5 -38t60.5 -104q0 -39 -21.5 -65.5t-81.5 -61.5q-47 -31 -59 -41t-12 -24v-49h-127v55q0 37 22.5 61.5t85.5 57.5v-2q66 41 66 69q0 23 -28.5 37.5t-76.5 14.5 q-70 0 -92 -29v2q-14 -16 -14 -72h-125zM451 555h307l-152 590z" />
<glyph unicode="&#x1ea3;" d="M49 291q0 143 68.5 233t193.5 113l211 39q82 14 82 90q0 123 -145 123q-76 0 -111 -34t-45 -118h-225q20 207 112.5 294t278.5 87q174 0 269.5 -83t95.5 -232v-590q0 -143 51 -170v-43h-252q-14 55 -23 129q-70 -88 -133 -123t-149 -35q-129 0 -204 86.5t-75 233.5z M244 1378q0 188 237 189q104 0 165 -38t61 -104q0 -39 -21.5 -65.5t-81.5 -61.5q-47 -31 -59.5 -41t-12.5 -24v-49h-126v55q0 37 22.5 61.5t85.5 57.5v-2q66 41 66 69q0 23 -29 37.5t-76 14.5q-70 0 -92 -29v2q-14 -16 -14 -72h-125zM285 309q0 -61 30.5 -97t81.5 -36 q86 0 146.5 62.5t60.5 152.5v139q-39 -35 -160 -59q-88 -18 -123.5 -55t-35.5 -107z" />
<glyph unicode="&#x1ea4;" horiz-adv-x="1212" d="M33 0l430 1470h291l426 -1470h-275l-78 303h-444l-84 -303h-266zM293 1614l211 258h211l211 -258h-191l-127 127l-125 -127h-190zM451 555h307l-152 590zM528 1913l148 258h268l-256 -258h-160z" />
<glyph unicode="&#x1ea5;" d="M49 291q0 143 68.5 233t193.5 113l211 39q82 14 82 90q0 123 -145 123q-76 0 -111 -34t-45 -118h-225q20 207 112.5 294t278.5 87q174 0 269.5 -83t95.5 -232v-590q0 -143 51 -170v-43h-252q-14 55 -23 129q-70 -88 -133 -123t-149 -35q-129 0 -204 86.5t-75 233.5z M154 1233l211 258h210l211 -258h-190l-127 127l-125 -127h-190zM285 309q0 -61 30.5 -97t81.5 -36q86 0 146.5 62.5t60.5 152.5v139q-39 -35 -160 -59q-88 -18 -123.5 -55t-35.5 -107zM389 1532l148 258h268l-256 -258h-160z" />
<glyph unicode="&#x1ea6;" horiz-adv-x="1212" d="M33 0l430 1470h291l426 -1470h-275l-78 303h-444l-84 -303h-266zM274 2171h269l147 -258h-160zM293 1614l211 258h211l211 -258h-191l-127 127l-125 -127h-190zM451 555h307l-152 590z" />
<glyph unicode="&#x1ea7;" d="M49 291q0 143 68.5 233t193.5 113l211 39q82 14 82 90q0 123 -145 123q-76 0 -111 -34t-45 -118h-225q20 207 112.5 294t278.5 87q174 0 269.5 -83t95.5 -232v-590q0 -143 51 -170v-43h-252q-14 55 -23 129q-70 -88 -133 -123t-149 -35q-129 0 -204 86.5t-75 233.5z M135 1790h268l148 -258h-160zM154 1233l211 258h210l211 -258h-190l-127 127l-125 -127h-190zM285 309q0 -61 30.5 -97t81.5 -36q86 0 146.5 62.5t60.5 152.5v139q-39 -35 -160 -59q-88 -18 -123.5 -55t-35.5 -107z" />
<glyph unicode="&#x1ea8;" horiz-adv-x="1212" d="M33 0l430 1470h291l426 -1470h-275l-78 303h-444l-84 -303h-266zM293 1614l211 258h211l211 -258h-191l-127 127l-125 -127h-190zM451 555h307l-152 590zM463 2089q0 168 237 168q104 0 165 -35t61 -92q0 -35 -21.5 -59.5t-81.5 -55.5q-47 -25 -59 -35t-12 -22v-45h-127 v49q0 35 22.5 56.5t85.5 52.5v-3q66 35 66 62q0 20 -29 33.5t-76 13.5q-70 0 -92 -27v2q-14 -16 -14 -63h-125z" />
<glyph unicode="&#x1ea9;" d="M49 291q0 143 68.5 233t193.5 113l211 39q82 14 82 90q0 123 -145 123q-76 0 -111 -34t-45 -118h-225q20 207 112.5 294t278.5 87q174 0 269.5 -83t95.5 -232v-590q0 -143 51 -170v-43h-252q-14 55 -23 129q-70 -88 -133 -123t-149 -35q-129 0 -204 86.5t-75 233.5z M154 1233l211 258h210l211 -258h-190l-127 127l-125 -127h-190zM285 309q0 -61 30.5 -97t81.5 -36q86 0 146.5 62.5t60.5 152.5v139q-39 -35 -160 -59q-88 -18 -123.5 -55t-35.5 -107zM324 1708q0 168 237 168q104 0 164.5 -35t60.5 -92q0 -35 -21.5 -59.5t-80.5 -55.5 q-47 -25 -59.5 -35t-12.5 -22v-45h-127v49q0 35 22.5 56.5t86.5 52.5v-2q66 35 65 61q0 20 -28.5 33.5t-75.5 13.5q-70 0 -92 -27v3q-14 -16 -14 -64h-125z" />
<glyph unicode="&#x1eaa;" horiz-adv-x="1212" d="M33 0l430 1470h291l426 -1470h-275l-78 303h-444l-84 -303h-266zM293 1614l211 258h211l211 -258h-191l-127 127l-125 -127h-190zM301 1933q43 252 203 252q12 0 113.5 -37t111.5 -37q59 0 80 82h109q-41 -246 -181 -245q-23 0 -127 36.5t-125 36.5q-59 0 -77 -88h-107z M451 555h307l-152 590z" />
<glyph unicode="&#x1eab;" d="M49 291q0 143 68.5 233t193.5 113l211 39q82 14 82 90q0 123 -145 123q-76 0 -111 -34t-45 -118h-225q20 207 112.5 294t278.5 87q174 0 269.5 -83t95.5 -232v-590q0 -143 51 -170v-43h-252q-14 55 -23 129q-70 -88 -133 -123t-149 -35q-129 0 -204 86.5t-75 233.5z M154 1233l211 258h210l211 -258h-190l-127 127l-125 -127h-190zM162 1552q43 252 203 252q12 0 113.5 -36.5t111.5 -36.5q59 0 80 81h108q-41 -246 -180 -245q-23 0 -127 36.5t-125 36.5q-59 0 -78 -88h-106zM285 309q0 -61 30.5 -97t81.5 -36q86 0 146.5 62.5t60.5 152.5 v139q-39 -35 -160 -59q-88 -18 -123.5 -55t-35.5 -107z" />
<glyph unicode="&#x1eac;" horiz-adv-x="1212" d="M33 0l430 1470h291l426 -1470h-275l-78 303h-444l-84 -303h-266zM291 1614l211 258h211l211 -258h-191l-127 127l-125 -127h-190zM451 555h307l-152 590zM492 -174h233v-236h-233v236z" />
<glyph unicode="&#x1ead;" d="M49 291q0 143 68.5 233t193.5 113l211 39q82 14 82 90q0 123 -145 123q-76 0 -111 -34t-45 -118h-225q20 207 112.5 294t278.5 87q174 0 269.5 -83t95.5 -232v-590q0 -143 51 -170v-43h-252q-14 55 -23 129q-70 -88 -133 -123t-149 -35q-129 0 -204 86.5t-75 233.5z M172 1233l190 299h211l191 -299h-191l-106 168l-105 -168h-190zM285 309q0 -61 30.5 -97t81.5 -36q86 0 146.5 62.5t60.5 152.5v139q-39 -35 -160 -59q-88 -18 -123.5 -55t-35.5 -107zM354 -174h234v-236h-234v236z" />
<glyph unicode="&#x1eae;" horiz-adv-x="1212" d="M33 0l430 1470h291l426 -1470h-275l-78 303h-444l-84 -303h-266zM305 1872h111q33 -51 74.5 -75.5t119.5 -24.5t117 24.5t57 75.5h129q-68 -258 -313 -258q-232 0 -295 258zM451 555h307l-152 590zM528 1931l148 258h268l-256 -258h-160z" />
<glyph unicode="&#x1eaf;" d="M49 291q0 143 68.5 233t193.5 113l211 39q82 14 82 90q0 123 -145 123q-76 0 -111 -34t-45 -118h-225q20 207 112.5 294t278.5 87q174 0 269.5 -83t95.5 -232v-590q0 -143 51 -170v-43h-252q-14 55 -23 129q-70 -88 -133 -123t-149 -35q-129 0 -204 86.5t-75 233.5z M166 1491h110q33 -51 75 -75.5t120 -24.5t117 24.5t57 75.5h129q-68 -258 -313 -258q-232 0 -295 258zM285 309q0 -61 30.5 -97t81.5 -36q86 0 146.5 62.5t60.5 152.5v139q-39 -35 -160 -59q-88 -18 -123.5 -55t-35.5 -107zM389 1550l148 258h268l-256 -258h-160z" />
<glyph unicode="&#x1eb0;" horiz-adv-x="1212" d="M33 0l430 1470h291l426 -1470h-275l-78 303h-444l-84 -303h-266zM274 2189h269l147 -258h-160zM305 1872h111q33 -51 74.5 -75.5t119.5 -24.5t117 24.5t57 75.5h129q-68 -258 -313 -258q-232 0 -295 258zM451 555h307l-152 590z" />
<glyph unicode="&#x1eb1;" d="M49 291q0 143 68.5 233t193.5 113l211 39q82 14 82 90q0 123 -145 123q-76 0 -111 -34t-45 -118h-225q20 207 112.5 294t278.5 87q174 0 269.5 -83t95.5 -232v-590q0 -143 51 -170v-43h-252q-14 55 -23 129q-70 -88 -133 -123t-149 -35q-129 0 -204 86.5t-75 233.5z M135 1808h268l148 -258h-160zM166 1491h110q33 -51 75 -75.5t120 -24.5t117 24.5t57 75.5h129q-68 -258 -313 -258q-232 0 -295 258zM285 309q0 -61 30.5 -97t81.5 -36q86 0 146.5 62.5t60.5 152.5v139q-39 -35 -160 -59q-88 -18 -123.5 -55t-35.5 -107z" />
<glyph unicode="&#x1eb2;" horiz-adv-x="1212" d="M33 0l430 1470h291l426 -1470h-275l-78 303h-444l-84 -303h-266zM305 1872h111q33 -51 74.5 -75.5t119.5 -24.5t117 24.5t57 75.5h129q-68 -258 -313 -258q-232 0 -295 258zM379 2028q0 168 237 167q104 0 165 -34.5t61 -92.5q0 -35 -21.5 -59t-81.5 -55q-45 -25 -58 -35 t-13 -23v-45h-127v50q0 35 22.5 56t85.5 52v-2q66 35 66 61q0 20 -29 34t-76 14q-70 0 -92 -27v2q-14 -16 -14 -63h-125zM451 555h307l-152 590z" />
<glyph unicode="&#x1eb3;" d="M49 291q0 143 68.5 233t193.5 113l211 39q82 14 82 90q0 123 -145 123q-76 0 -111 -34t-45 -118h-225q20 207 112.5 294t278.5 87q174 0 269.5 -83t95.5 -232v-590q0 -143 51 -170v-43h-252q-14 55 -23 129q-70 -88 -133 -123t-149 -35q-129 0 -204 86.5t-75 233.5z M166 1491h110q33 -51 75 -75.5t120 -24.5t117 24.5t57 75.5h129q-68 -258 -313 -258q-232 0 -295 258zM240 1647q0 168 237 168q104 0 164.5 -35t60.5 -92q0 -35 -21.5 -59.5t-80.5 -55.5q-45 -25 -58.5 -35t-13.5 -22v-46h-127v50q0 35 22.5 56t86.5 52v-2q66 35 65 62 q0 20 -28.5 33.5t-75.5 13.5q-70 0 -92 -27v2q-14 -16 -14 -63h-125zM285 309q0 -61 30.5 -97t81.5 -36q86 0 146.5 62.5t60.5 152.5v139q-39 -35 -160 -59q-88 -18 -123.5 -55t-35.5 -107z" />
<glyph unicode="&#x1eb4;" horiz-adv-x="1212" d="M33 0l430 1470h291l426 -1470h-275l-78 303h-444l-84 -303h-266zM301 1950q43 252 203 252q12 0 113.5 -37t111.5 -37q59 0 80 82h109q-41 -246 -181 -246q-23 0 -127 37t-125 37q-59 0 -77 -88h-107zM305 1872h111q33 -51 74.5 -75.5t119.5 -24.5t117 24.5t57 75.5h129 q-68 -258 -313 -258q-232 0 -295 258zM451 555h307l-152 590z" />
<glyph unicode="&#x1eb5;" d="M49 291q0 143 68.5 233t193.5 113l211 39q82 14 82 90q0 123 -145 123q-76 0 -111 -34t-45 -118h-225q20 207 112.5 294t278.5 87q174 0 269.5 -83t95.5 -232v-590q0 -143 51 -170v-43h-252q-14 55 -23 129q-70 -88 -133 -123t-149 -35q-129 0 -204 86.5t-75 233.5z M162 1569q43 252 203 252q12 0 113.5 -37t111.5 -37q59 0 80 82h108q-41 -246 -180 -246q-23 0 -127 37t-125 37q-59 0 -78 -88h-106zM166 1491h110q33 -51 75 -75.5t120 -24.5t117 24.5t57 75.5h129q-68 -258 -313 -258q-232 0 -295 258zM285 309q0 -61 30.5 -97t81.5 -36 q86 0 146.5 62.5t60.5 152.5v139q-39 -35 -160 -59q-88 -18 -123.5 -55t-35.5 -107z" />
<glyph unicode="&#x1eb6;" horiz-adv-x="1212" d="M33 0l430 1470h291l426 -1470h-275l-78 303h-444l-84 -303h-266zM303 1872h111q33 -51 74.5 -75.5t119.5 -24.5t117 24.5t57 75.5h129q-68 -258 -313 -258q-232 0 -295 258zM451 555h307l-152 590zM492 -174h233v-236h-233v236z" />
<glyph unicode="&#x1eb7;" d="M49 291q0 143 68.5 233t193.5 113l211 39q82 14 82 90q0 123 -145 123q-76 0 -111 -34t-45 -118h-225q20 207 112.5 294t278.5 87q174 0 269.5 -83t95.5 -232v-590q0 -143 51 -170v-43h-252q-14 55 -23 129q-70 -88 -133 -123t-149 -35q-129 0 -204 86.5t-75 233.5z M184 1532h111q14 -78 53 -109.5t121 -31.5t120 30.5t54 110.5h109q-31 -299 -293 -299q-248 0 -275 299zM285 309q0 -61 30.5 -97t81.5 -36q86 0 146.5 62.5t60.5 152.5v139q-39 -35 -160 -59q-88 -18 -123.5 -55t-35.5 -107zM354 -174h234v-236h-234v236z" />
<glyph unicode="&#x1eb8;" horiz-adv-x="1120" d="M127 0v1470h887v-260h-641v-309h590v-260h-590v-381h669v-260h-915zM446 -174h234v-236h-234v236z" />
<glyph unicode="&#x1eb9;" d="M39 549q0 266 112.5 417.5t311.5 151.5q205 0 314.5 -155.5t109.5 -446.5v-51h-613q10 -137 59.5 -199.5t145.5 -62.5q121 0 156 119h242q-100 -350 -402 -351q-209 0 -322.5 151t-113.5 427zM281 653h364q-25 229 -184 230q-78 0 -121 -55.5t-59 -174.5zM352 -174h234 v-236h-234v236z" />
<glyph unicode="&#x1eba;" horiz-adv-x="1120" d="M127 0v1470h887v-260h-641v-309h590v-260h-590v-381h669v-260h-915zM346 1759q0 188 238 189q104 0 164.5 -38t60.5 -104q0 -39 -21.5 -65.5t-80.5 -61.5q-47 -31 -59.5 -41t-12.5 -24v-49h-127v55q0 37 22.5 61.5t85.5 57.5v-2q66 41 66 69q0 23 -28.5 37.5t-75.5 14.5 q-70 0 -93 -29v2q-14 -16 -14 -72h-125z" />
<glyph unicode="&#x1ebb;" d="M39 549q0 266 112.5 417.5t311.5 151.5q205 0 314.5 -155.5t109.5 -446.5v-51h-613q10 -137 59.5 -199.5t145.5 -62.5q121 0 156 119h242q-100 -350 -402 -351q-209 0 -322.5 151t-113.5 427zM242 1378q0 188 237 189q104 0 165 -38t61 -104q0 -39 -21.5 -65.5 t-81.5 -61.5q-47 -31 -59.5 -41t-12.5 -24v-49h-127v55q0 37 23 61.5t86 57.5v-2q66 41 66 69q0 23 -29 37.5t-76 14.5q-70 0 -92 -29v2q-14 -16 -14 -72h-125zM281 653h364q-25 229 -184 230q-78 0 -121 -55.5t-59 -174.5z" />
<glyph unicode="&#x1ebc;" horiz-adv-x="1120" d="M127 0v1470h887v-260h-641v-309h590v-260h-590v-381h669v-260h-915zM264 1614q43 252 203 252q12 0 113.5 -37t111.5 -37q59 0 80 82h109q-41 -246 -181 -246q-23 0 -127 37t-124 37q-59 0 -78 -88h-107z" />
<glyph unicode="&#x1ebd;" d="M39 549q0 266 112.5 417.5t311.5 151.5q205 0 314.5 -155.5t109.5 -446.5v-51h-613q10 -137 59.5 -199.5t145.5 -62.5q121 0 156 119h242q-100 -350 -402 -351q-209 0 -322.5 151t-113.5 427zM158 1253q43 252 202 252q12 0 113.5 -36.5t112.5 -36.5q59 0 80 81h108 q-41 -246 -180 -245q-23 0 -127.5 36.5t-124.5 36.5q-59 0 -78 -88h-106zM281 653h364q-25 229 -184 230q-78 0 -121 -55.5t-59 -174.5z" />
<glyph unicode="&#x1ebe;" horiz-adv-x="1120" d="M127 0v1470h887v-260h-641v-309h590v-260h-590v-381h669v-260h-915zM256 1614l211 258h211l211 -258h-191l-127 127l-125 -127h-190zM492 1913l147 258h268l-256 -258h-159z" />
<glyph unicode="&#x1ebf;" d="M39 549q0 266 112.5 417.5t311.5 151.5q205 0 314.5 -155.5t109.5 -446.5v-51h-613q10 -137 59.5 -199.5t145.5 -62.5q121 0 156 119h242q-100 -350 -402 -351q-209 0 -322.5 151t-113.5 427zM152 1233l210 258h211l211 -258h-190l-127 127l-125 -127h-190zM281 653h364 q-25 229 -184 230q-78 0 -121 -55.5t-59 -174.5zM387 1532l148 258h268l-256 -258h-160z" />
<glyph unicode="&#x1ec0;" horiz-adv-x="1120" d="M127 0v1470h887v-260h-641v-309h590v-260h-590v-381h669v-260h-915zM238 2171h268l147 -258h-159zM256 1614l211 258h211l211 -258h-191l-127 127l-125 -127h-190z" />
<glyph unicode="&#x1ec1;" d="M39 549q0 266 112.5 417.5t311.5 151.5q205 0 314.5 -155.5t109.5 -446.5v-51h-613q10 -137 59.5 -199.5t145.5 -62.5q121 0 156 119h242q-100 -350 -402 -351q-209 0 -322.5 151t-113.5 427zM133 1790h268l148 -258h-160zM152 1233l210 258h211l211 -258h-190l-127 127 l-125 -127h-190zM281 653h364q-25 229 -184 230q-78 0 -121 -55.5t-59 -174.5z" />
<glyph unicode="&#x1ec2;" horiz-adv-x="1120" d="M127 0v1470h887v-260h-641v-309h590v-260h-590v-381h669v-260h-915zM256 1614l211 258h211l211 -258h-191l-127 127l-125 -127h-190zM426 2089q0 168 238 168q104 0 164.5 -35t60.5 -92q0 -35 -21.5 -59.5t-81.5 -55.5q-45 -25 -58 -35t-13 -22v-45h-127v49 q0 35 22.5 56.5t85.5 52.5v-3q66 35 66 62q0 20 -28.5 33.5t-76.5 13.5q-70 0 -92 -27v2q-14 -16 -14 -63h-125z" />
<glyph unicode="&#x1ec3;" d="M39 549q0 266 112.5 417.5t311.5 151.5q205 0 314.5 -155.5t109.5 -446.5v-51h-613q10 -137 59.5 -199.5t145.5 -62.5q121 0 156 119h242q-100 -350 -402 -351q-209 0 -322.5 151t-113.5 427zM152 1233l210 258h211l211 -258h-190l-127 127l-125 -127h-190zM281 653h364 q-25 229 -184 230q-78 0 -121 -55.5t-59 -174.5zM322 1708q0 168 237 168q104 0 164.5 -35t60.5 -92q0 -35 -21.5 -59.5t-80.5 -55.5q-47 -25 -59.5 -35t-12.5 -22v-45h-127v49q0 35 22.5 56.5t86.5 52.5v-2q66 35 65 61q0 20 -28.5 33.5t-75.5 13.5q-70 0 -92 -27v3 q-14 -16 -15 -64h-124z" />
<glyph unicode="&#x1ec4;" horiz-adv-x="1120" d="M127 0v1470h887v-260h-641v-309h590v-260h-590v-381h669v-260h-915zM256 1614l211 258h211l211 -258h-191l-127 127l-125 -127h-190zM264 1933q43 252 203 252q12 0 113.5 -37t111.5 -37q59 0 80 82h109q-41 -246 -181 -245q-23 0 -127 36.5t-124 36.5q-59 0 -78 -88 h-107z" />
<glyph unicode="&#x1ec5;" d="M39 549q0 266 112.5 417.5t311.5 151.5q205 0 314.5 -155.5t109.5 -446.5v-51h-613q10 -137 59.5 -199.5t145.5 -62.5q121 0 156 119h242q-100 -350 -402 -351q-209 0 -322.5 151t-113.5 427zM152 1233l210 258h211l211 -258h-190l-127 127l-125 -127h-190zM160 1552 q41 252 202 252q12 0 114 -36.5t112 -36.5q59 0 80 81h108q-41 -246 -180 -245q-23 0 -127 36.5t-125 36.5q-59 0 -78 -88h-106zM281 653h364q-25 229 -184 230q-78 0 -121 -55.5t-59 -174.5z" />
<glyph unicode="&#x1ec6;" horiz-adv-x="1120" d="M127 0v1470h887v-260h-641v-309h590v-260h-590v-381h669v-260h-915zM254 1614l211 258h211l211 -258h-191l-127 127l-125 -127h-190zM446 -174h234v-236h-234v236z" />
<glyph unicode="&#x1ec7;" d="M39 549q0 266 112.5 417.5t311.5 151.5q205 0 314.5 -155.5t109.5 -446.5v-51h-613q10 -137 59.5 -199.5t145.5 -62.5q121 0 156 119h242q-100 -350 -402 -351q-209 0 -322.5 151t-113.5 427zM170 1233l190 299h211l191 -299h-191l-106 168l-105 -168h-190zM281 653h364 q-25 229 -184 230q-78 0 -121 -55.5t-59 -174.5zM352 -174h234v-236h-234v236z" />
<glyph unicode="&#x1ec8;" horiz-adv-x="466" d="M8 1759q0 188 238 189q104 0 164.5 -38t60.5 -104q0 -39 -21.5 -65.5t-80.5 -61.5q-47 -31 -59.5 -41t-12.5 -24v-49h-127v55q0 37 22.5 61.5t86.5 57.5v-2q66 41 65 69q0 23 -28.5 37.5t-75.5 14.5q-70 0 -93 -29v2q-14 -16 -14 -72h-125zM106 0v1470h252v-1470h-252z " />
<glyph unicode="&#x1ec9;" horiz-adv-x="466" d="M8 1378q0 188 238 189q104 0 164.5 -38t60.5 -104q0 -39 -21.5 -65.5t-80.5 -61.5q-47 -31 -59.5 -41t-12.5 -24v-49h-127v55q0 37 22.5 61.5t86.5 57.5v-2q66 41 65 69q0 23 -28.5 37.5t-75.5 14.5q-70 0 -93 -29v2q-14 -16 -14 -72h-125zM117 0v1090h233v-1090h-233z " />
<glyph unicode="&#x1eca;" horiz-adv-x="466" d="M106 0v1470h252v-1470h-252zM119 -174h233v-236h-233v236z" />
<glyph unicode="&#x1ecb;" horiz-adv-x="466" d="M117 0v1090h233v-1090h-233zM119 -174h233v-236h-233v236zM119 1266v235h233v-235h-233z" />
<glyph unicode="&#x1ecc;" horiz-adv-x="1306" d="M74 733q0 367 158.5 571.5t429.5 204.5q256 0 413.5 -206.5t157.5 -567.5q0 -362 -157.5 -568t-422.5 -206q-266 0 -422.5 207t-156.5 565zM326 739q0 -244 87 -381t240.5 -137t240.5 138.5t87 381.5q0 231 -88 369.5t-236 138.5q-156 0 -243.5 -136t-87.5 -374z M547 -174h233v-236h-233v236z" />
<glyph unicode="&#x1ecd;" horiz-adv-x="1026" d="M57 543q0 264 125 419.5t338 155.5q205 0 328 -157.5t123 -417.5t-125 -416t-332 -156t-332 156t-125 416zM299 545q0 -162 55.5 -247t159.5 -85t159.5 85t55.5 247q0 160 -55.5 246t-157.5 86q-217 0 -217 -332zM399 -174h234v-236h-234v236z" />
<glyph unicode="&#x1ece;" horiz-adv-x="1306" d="M74 733q0 367 158.5 571.5t429.5 204.5q256 0 413.5 -206.5t157.5 -567.5q0 -362 -157.5 -568t-422.5 -206q-266 0 -422.5 207t-156.5 565zM326 739q0 -244 87 -381t240.5 -137t240.5 138.5t87 381.5q0 231 -88 369.5t-236 138.5q-156 0 -243.5 -136t-87.5 -374z M436 1759q0 188 238 189q104 0 164.5 -38t60.5 -104q0 -39 -21.5 -65.5t-80.5 -61.5q-47 -31 -59.5 -41t-12.5 -24v-49h-127v55q0 37 22.5 61.5t86.5 57.5v-2q66 41 65 69q0 23 -28.5 37.5t-75.5 14.5q-70 0 -93 -29v2q-14 -16 -14 -72h-125z" />
<glyph unicode="&#x1ecf;" horiz-adv-x="1026" d="M57 543q0 264 125 419.5t338 155.5q205 0 328 -157.5t123 -417.5t-125 -416t-332 -156t-332 156t-125 416zM289 1378q0 188 237 189q104 0 165 -38t61 -104q0 -39 -21.5 -65.5t-81.5 -61.5q-47 -31 -59 -41t-12 -24v-49h-127v55q0 37 22.5 61.5t85.5 57.5v-2q66 41 66 69 q0 23 -29 37.5t-76 14.5q-70 0 -92 -29v2q-14 -16 -14 -72h-125zM299 545q0 -162 55.5 -247t159.5 -85t159.5 85t55.5 247q0 160 -55.5 246t-157.5 86q-217 0 -217 -332z" />
<glyph unicode="&#x1ed0;" horiz-adv-x="1306" d="M74 733q0 367 158.5 571.5t429.5 204.5q256 0 413.5 -206.5t157.5 -567.5q0 -362 -157.5 -568t-422.5 -206q-266 0 -422.5 207t-156.5 565zM326 739q0 -244 87 -381t240.5 -137t240.5 138.5t87 381.5q0 231 -88 369.5t-236 138.5q-156 0 -243.5 -136t-87.5 -374z M346 1614l211 258h211l211 -258h-191l-126 127l-125 -127h-191zM582 1913l147 258h268l-256 -258h-159z" />
<glyph unicode="&#x1ed1;" horiz-adv-x="1026" d="M57 543q0 264 125 419.5t338 155.5q205 0 328 -157.5t123 -417.5t-125 -416t-332 -156t-332 156t-125 416zM197 1233l211 258h210l211 -258h-190l-127 127l-125 -127h-190zM299 545q0 -162 55.5 -247t159.5 -85t159.5 85t55.5 247q0 160 -55.5 246t-157.5 86 q-217 0 -217 -332zM432 1532l148 258h268l-256 -258h-160z" />
<glyph unicode="&#x1ed2;" horiz-adv-x="1306" d="M74 733q0 367 158.5 571.5t429.5 204.5q256 0 413.5 -206.5t157.5 -567.5q0 -362 -157.5 -568t-422.5 -206q-266 0 -422.5 207t-156.5 565zM326 739q0 -244 87 -381t240.5 -137t240.5 138.5t87 381.5q0 231 -88 369.5t-236 138.5q-156 0 -243.5 -136t-87.5 -374z M328 2171h268l147 -258h-159zM346 1614l211 258h211l211 -258h-191l-126 127l-125 -127h-191z" />
<glyph unicode="&#x1ed3;" horiz-adv-x="1026" d="M57 543q0 264 125 419.5t338 155.5q205 0 328 -157.5t123 -417.5t-125 -416t-332 -156t-332 156t-125 416zM178 1790h268l148 -258h-160zM197 1233l211 258h210l211 -258h-190l-127 127l-125 -127h-190zM299 545q0 -162 55.5 -247t159.5 -85t159.5 85t55.5 247 q0 160 -55.5 246t-157.5 86q-217 0 -217 -332z" />
<glyph unicode="&#x1ed4;" horiz-adv-x="1306" d="M74 733q0 367 158.5 571.5t429.5 204.5q256 0 413.5 -206.5t157.5 -567.5q0 -362 -157.5 -568t-422.5 -206q-266 0 -422.5 207t-156.5 565zM326 739q0 -244 87 -381t240.5 -137t240.5 138.5t87 381.5q0 231 -88 369.5t-236 138.5q-156 0 -243.5 -136t-87.5 -374z M346 1614l211 258h211l211 -258h-191l-126 127l-125 -127h-191zM516 2089q0 168 238 168q104 0 164.5 -35t60.5 -92q0 -35 -21.5 -59.5t-80.5 -55.5q-45 -25 -58.5 -35t-13.5 -22v-45h-127v49q0 35 22.5 56.5t85.5 52.5v-3q66 35 66 62q0 20 -28.5 33.5t-75.5 13.5 q-70 0 -93 -27v2q-14 -16 -14 -63h-125z" />
<glyph unicode="&#x1ed5;" horiz-adv-x="1026" d="M57 543q0 264 125 419.5t338 155.5q205 0 328 -157.5t123 -417.5t-125 -416t-332 -156t-332 156t-125 416zM197 1233l211 258h210l211 -258h-190l-127 127l-125 -127h-190zM299 545q0 -162 55.5 -247t159.5 -85t159.5 85t55.5 247q0 160 -55.5 246t-157.5 86 q-217 0 -217 -332zM367 1708q0 168 237 168q104 0 164.5 -35t60.5 -92q0 -35 -21.5 -59.5t-80.5 -55.5q-45 -25 -58.5 -35t-13.5 -22v-45h-127v49q0 35 22.5 56.5t86.5 52.5v-2q66 35 65 61q0 20 -28.5 33.5t-75.5 13.5q-70 0 -92 -27v3q-14 -16 -14 -64h-125z" />
<glyph unicode="&#x1ed6;" horiz-adv-x="1306" d="M74 733q0 367 158.5 571.5t429.5 204.5q256 0 413.5 -206.5t157.5 -567.5q0 -362 -157.5 -568t-422.5 -206q-266 0 -422.5 207t-156.5 565zM326 739q0 -244 87 -381t240.5 -137t240.5 138.5t87 381.5q0 231 -88 369.5t-236 138.5q-156 0 -243.5 -136t-87.5 -374z M346 1614l211 258h211l211 -258h-191l-126 127l-125 -127h-191zM354 1933q43 252 203 252q12 0 113.5 -37t111.5 -37q59 0 80 82h109q-41 -246 -180 -245q-23 0 -127.5 36.5t-124.5 36.5q-59 0 -78 -88h-107z" />
<glyph unicode="&#x1ed7;" horiz-adv-x="1026" d="M57 543q0 264 125 419.5t338 155.5q205 0 328 -157.5t123 -417.5t-125 -416t-332 -156t-332 156t-125 416zM197 1233l211 258h210l211 -258h-190l-127 127l-125 -127h-190zM205 1552q41 252 203 252q12 0 113.5 -36.5t111.5 -36.5q59 0 80 81h108q-39 -246 -180 -245 q-23 0 -127 36.5t-125 36.5q-59 0 -78 -88h-106zM299 545q0 -162 55.5 -247t159.5 -85t159.5 85t55.5 247q0 160 -55.5 246t-157.5 86q-217 0 -217 -332z" />
<glyph unicode="&#x1ed8;" horiz-adv-x="1306" d="M74 733q0 367 158.5 571.5t429.5 204.5q256 0 413.5 -206.5t157.5 -567.5q0 -362 -157.5 -568t-422.5 -206q-266 0 -422.5 207t-156.5 565zM326 739q0 -244 87 -381t240.5 -137t240.5 138.5t87 381.5q0 231 -88 369.5t-236 138.5q-156 0 -243.5 -136t-87.5 -374z M344 1614l211 258h211l211 -258h-191l-127 127l-124 -127h-191zM547 -174h233v-236h-233v236z" />
<glyph unicode="&#x1ed9;" horiz-adv-x="1026" d="M57 543q0 264 125 419.5t338 155.5q205 0 328 -157.5t123 -417.5t-125 -416t-332 -156t-332 156t-125 416zM217 1233l191 299h210l191 -299h-191l-106 168l-104 -168h-191zM299 545q0 -162 55.5 -247t159.5 -85t159.5 85t55.5 247q0 160 -55.5 246t-157.5 86 q-217 0 -217 -332zM399 -174h234v-236h-234v236z" />
<glyph unicode="&#x1eda;" horiz-adv-x="1306" d="M74 733q0 367 158.5 571.5t429.5 204.5q262 0 417 -213q39 70 39 177h-117v235h234v-235q0 -176 -90 -289q88 -182 88 -449q0 -362 -157.5 -568t-422.5 -206q-266 0 -422.5 207t-156.5 565zM326 739q0 -244 87 -381t240.5 -137t240.5 138.5t87 381.5q0 231 -88 369.5 t-236 138.5q-156 0 -243.5 -136t-87.5 -374zM582 1614l147 258h268l-256 -258h-159z" />
<glyph unicode="&#x1edb;" horiz-adv-x="1048" d="M57 543q0 264 125 419.5t338 155.5q223 0 344 -182q29 63 29 156h-117v235h234v-235q0 -168 -82 -279q43 -117 43 -270q0 -260 -125 -416t-332 -156t-332 156t-125 416zM299 545q0 -162 55.5 -247t159.5 -85t159.5 85t55.5 247q0 160 -55.5 246t-157.5 86 q-217 0 -217 -332zM428 1233l158 299h258l-246 -299h-170z" />
<glyph unicode="&#x1edc;" horiz-adv-x="1306" d="M74 733q0 367 158.5 571.5t429.5 204.5q262 0 417 -213q39 70 39 177h-117v235h234v-235q0 -176 -90 -289q88 -182 88 -449q0 -362 -157.5 -568t-422.5 -206q-266 0 -422.5 207t-156.5 565zM326 739q0 -244 87 -381t240.5 -137t240.5 138.5t87 381.5q0 231 -88 369.5 t-236 138.5q-156 0 -243.5 -136t-87.5 -374zM328 1872h268l147 -258h-159z" />
<glyph unicode="&#x1edd;" horiz-adv-x="1048" d="M57 543q0 264 125 419.5t338 155.5q223 0 344 -182q29 63 29 156h-117v235h234v-235q0 -168 -82 -279q43 -117 43 -270q0 -260 -125 -416t-332 -156t-332 156t-125 416zM182 1532h258l158 -299h-170zM299 545q0 -162 55.5 -247t159.5 -85t159.5 85t55.5 247 q0 160 -55.5 246t-157.5 86q-217 0 -217 -332z" />
<glyph unicode="&#x1ede;" horiz-adv-x="1306" d="M74 733q0 367 158.5 571.5t429.5 204.5q262 0 417 -213q39 70 39 177h-117v235h234v-235q0 -176 -90 -289q88 -182 88 -449q0 -362 -157.5 -568t-422.5 -206q-266 0 -422.5 207t-156.5 565zM326 739q0 -244 87 -381t240.5 -137t240.5 138.5t87 381.5q0 231 -88 369.5 t-236 138.5q-156 0 -243.5 -136t-87.5 -374zM436 1759q0 188 238 189q104 0 164.5 -38t60.5 -104q0 -39 -21.5 -65.5t-80.5 -61.5q-47 -31 -59.5 -41t-12.5 -24v-49h-127v55q0 37 22.5 61.5t86.5 57.5v-2q66 41 65 69q0 23 -28.5 37.5t-75.5 14.5q-70 0 -93 -29v2 q-14 -16 -14 -72h-125z" />
<glyph unicode="&#x1edf;" horiz-adv-x="1048" d="M57 543q0 264 125 419.5t338 155.5q223 0 344 -182q29 63 29 156h-117v235h234v-235q0 -168 -82 -279q43 -117 43 -270q0 -260 -125 -416t-332 -156t-332 156t-125 416zM289 1378q0 188 237 189q104 0 165 -38t61 -104q0 -39 -21.5 -65.5t-81.5 -61.5q-47 -31 -59 -41 t-12 -24v-49h-127v55q0 37 22.5 61.5t85.5 57.5v-2q66 41 66 69q0 23 -29 37.5t-76 14.5q-70 0 -92 -29v2q-14 -16 -14 -72h-125zM299 545q0 -162 55.5 -247t159.5 -85t159.5 85t55.5 247q0 160 -55.5 246t-157.5 86q-217 0 -217 -332z" />
<glyph unicode="&#x1ee0;" horiz-adv-x="1306" d="M74 733q0 367 158.5 571.5t429.5 204.5q262 0 417 -213q39 70 39 177h-117v235h234v-235q0 -176 -90 -289q88 -182 88 -449q0 -362 -157.5 -568t-422.5 -206q-266 0 -422.5 207t-156.5 565zM326 739q0 -244 87 -381t240.5 -137t240.5 138.5t87 381.5q0 231 -88 369.5 t-236 138.5q-156 0 -243.5 -136t-87.5 -374zM354 1614q43 252 203 252q12 0 113.5 -37t111.5 -37q59 0 80 82h109q-41 -246 -180 -246q-23 0 -127.5 37t-124.5 37q-59 0 -78 -88h-107z" />
<glyph unicode="&#x1ee1;" horiz-adv-x="1048" d="M57 543q0 264 125 419.5t338 155.5q223 0 344 -182q29 63 29 156h-117v235h234v-235q0 -168 -82 -279q43 -117 43 -270q0 -260 -125 -416t-332 -156t-332 156t-125 416zM205 1253q41 252 203 252q12 0 113.5 -36.5t111.5 -36.5q59 0 80 81h108q-39 -246 -180 -245 q-23 0 -127 36.5t-125 36.5q-59 0 -78 -88h-106zM299 545q0 -162 55.5 -247t159.5 -85t159.5 85t55.5 247q0 160 -55.5 246t-157.5 86q-217 0 -217 -332z" />
<glyph unicode="&#x1ee2;" horiz-adv-x="1306" d="M74 733q0 367 158.5 571.5t429.5 204.5q262 0 417 -213q39 70 39 177h-117v235h234v-235q0 -176 -90 -289q88 -182 88 -449q0 -362 -157.5 -568t-422.5 -206q-266 0 -422.5 207t-156.5 565zM326 739q0 -244 87 -381t240.5 -137t240.5 138.5t87 381.5q0 231 -88 369.5 t-236 138.5q-156 0 -243.5 -136t-87.5 -374zM547 -174h233v-236h-233v236z" />
<glyph unicode="&#x1ee3;" horiz-adv-x="1048" d="M57 543q0 264 125 419.5t338 155.5q223 0 344 -182q29 63 29 156h-117v235h234v-235q0 -168 -82 -279q43 -117 43 -270q0 -260 -125 -416t-332 -156t-332 156t-125 416zM299 545q0 -162 55.5 -247t159.5 -85t159.5 85t55.5 247q0 160 -55.5 246t-157.5 86 q-217 0 -217 -332zM399 -174h234v-236h-234v236z" />
<glyph unicode="&#x1ee4;" horiz-adv-x="1212" d="M121 496v974h256v-954q0 -141 59.5 -218t167.5 -77q115 0 174.5 72t59.5 209v968h256v-956q0 -270 -125 -411.5t-365 -141.5q-231 0 -357 140.5t-126 394.5zM494 -174h233v-236h-233v236z" />
<glyph unicode="&#x1ee5;" horiz-adv-x="1026" d="M111 373v717h233v-676q0 -201 152 -201q88 0 137 66.5t49 181.5v629h233v-1090h-225v160q-90 -188 -278 -189q-143 0 -222 104.5t-79 297.5zM399 -174h234v-236h-234v236z" />
<glyph unicode="&#x1ee6;" horiz-adv-x="1212" d="M121 496v974h256v-954q0 -141 59.5 -218t167.5 -77q115 0 174.5 72t59.5 209v968h256v-956q0 -270 -125 -411.5t-365 -141.5q-231 0 -357 140.5t-126 394.5zM383 1759q0 188 238 189q104 0 164.5 -38t60.5 -104q0 -39 -21.5 -65.5t-81.5 -61.5q-47 -31 -59 -41t-12 -24 v-49h-127v55q0 37 22.5 61.5t85.5 57.5v-2q66 41 66 69q0 23 -28.5 37.5t-76.5 14.5q-70 0 -92 -29v2q-14 -16 -14 -72h-125z" />
<glyph unicode="&#x1ee7;" horiz-adv-x="1026" d="M111 373v717h233v-676q0 -201 152 -201q88 0 137 66.5t49 181.5v629h233v-1090h-225v160q-90 -188 -278 -189q-143 0 -222 104.5t-79 297.5zM289 1378q0 188 237 189q104 0 165 -38t61 -104q0 -39 -21.5 -65.5t-81.5 -61.5q-47 -31 -59 -41t-12 -24v-49h-127v55 q0 37 22.5 61.5t85.5 57.5v-2q66 41 66 69q0 23 -29 37.5t-76 14.5q-70 0 -92 -29v2q-14 -16 -14 -72h-125z" />
<glyph unicode="&#x1ee8;" horiz-adv-x="1404" d="M121 496v974h256v-954q0 -141 59.5 -218t167.5 -77q115 0 174.5 72t59.5 209v968h256v-251q78 0 116.5 74.5t38.5 179.5h-116v235h233v-235q0 -154 -73.5 -267.5t-198.5 -113.5v-578q0 -270 -125 -411.5t-365 -141.5q-231 0 -357 140.5t-126 394.5zM528 1614l148 258h268 l-256 -258h-160z" />
<glyph unicode="&#x1ee9;" horiz-adv-x="1226" d="M111 373v717h233v-676q0 -201 152 -201q88 0 137 66.5t49 181.5v629h233v-252q78 0 117 74.5t39 179.5h-117v235h234v-235q0 -154 -74 -267.5t-199 -113.5v-711h-225v160q-90 -188 -278 -189q-143 0 -222 104.5t-79 297.5zM428 1233l158 299h258l-246 -299h-170z" />
<glyph unicode="&#x1eea;" horiz-adv-x="1404" d="M121 496v974h256v-954q0 -141 59.5 -218t167.5 -77q115 0 174.5 72t59.5 209v968h256v-251q78 0 116.5 74.5t38.5 179.5h-116v235h233v-235q0 -154 -73.5 -267.5t-198.5 -113.5v-578q0 -270 -125 -411.5t-365 -141.5q-231 0 -357 140.5t-126 394.5zM274 1872h269 l147 -258h-160z" />
<glyph unicode="&#x1eeb;" horiz-adv-x="1226" d="M111 373v717h233v-676q0 -201 152 -201q88 0 137 66.5t49 181.5v629h233v-252q78 0 117 74.5t39 179.5h-117v235h234v-235q0 -154 -74 -267.5t-199 -113.5v-711h-225v160q-90 -188 -278 -189q-143 0 -222 104.5t-79 297.5zM182 1532h258l158 -299h-170z" />
<glyph unicode="&#x1eec;" horiz-adv-x="1404" d="M121 496v974h256v-954q0 -141 59.5 -218t167.5 -77q115 0 174.5 72t59.5 209v968h256v-251q78 0 116.5 74.5t38.5 179.5h-116v235h233v-235q0 -154 -73.5 -267.5t-198.5 -113.5v-578q0 -270 -125 -411.5t-365 -141.5q-231 0 -357 140.5t-126 394.5zM383 1759 q0 188 238 189q104 0 164.5 -38t60.5 -104q0 -39 -21.5 -65.5t-81.5 -61.5q-47 -31 -59 -41t-12 -24v-49h-127v55q0 37 22.5 61.5t85.5 57.5v-2q66 41 66 69q0 23 -28.5 37.5t-76.5 14.5q-70 0 -92 -29v2q-14 -16 -14 -72h-125z" />
<glyph unicode="&#x1eed;" horiz-adv-x="1226" d="M111 373v717h233v-676q0 -201 152 -201q88 0 137 66.5t49 181.5v629h233v-252q78 0 117 74.5t39 179.5h-117v235h234v-235q0 -154 -74 -267.5t-199 -113.5v-711h-225v160q-90 -188 -278 -189q-143 0 -222 104.5t-79 297.5zM289 1378q0 188 237 189q104 0 165 -38t61 -104 q0 -39 -21.5 -65.5t-81.5 -61.5q-47 -31 -59 -41t-12 -24v-49h-127v55q0 37 22.5 61.5t85.5 57.5v-2q66 41 66 69q0 23 -29 37.5t-76 14.5q-70 0 -92 -29v2q-14 -16 -14 -72h-125z" />
<glyph unicode="&#x1eee;" horiz-adv-x="1404" d="M121 496v974h256v-954q0 -141 59.5 -218t167.5 -77q115 0 174.5 72t59.5 209v968h256v-251q78 0 116.5 74.5t38.5 179.5h-116v235h233v-235q0 -154 -73.5 -267.5t-198.5 -113.5v-578q0 -270 -125 -411.5t-365 -141.5q-231 0 -357 140.5t-126 394.5zM301 1614 q43 252 203 252q12 0 113.5 -37t111.5 -37q59 0 80 82h109q-41 -246 -181 -246q-23 0 -127 37t-125 37q-59 0 -77 -88h-107z" />
<glyph unicode="&#x1eef;" horiz-adv-x="1226" d="M111 373v717h233v-676q0 -201 152 -201q88 0 137 66.5t49 181.5v629h233v-252q78 0 117 74.5t39 179.5h-117v235h234v-235q0 -154 -74 -267.5t-199 -113.5v-711h-225v160q-90 -188 -278 -189q-143 0 -222 104.5t-79 297.5zM205 1253q41 252 203 252q12 0 113.5 -36.5 t111.5 -36.5q59 0 80 81h108q-39 -246 -180 -245q-23 0 -127 36.5t-125 36.5q-59 0 -78 -88h-106z" />
<glyph unicode="&#x1ef0;" horiz-adv-x="1404" d="M121 496v974h256v-954q0 -141 59.5 -218t167.5 -77q115 0 174.5 72t59.5 209v968h256v-251q78 0 116.5 74.5t38.5 179.5h-116v235h233v-235q0 -154 -73.5 -267.5t-198.5 -113.5v-578q0 -270 -125 -411.5t-365 -141.5q-231 0 -357 140.5t-126 394.5zM494 -174h233v-236 h-233v236z" />
<glyph unicode="&#x1ef1;" horiz-adv-x="1226" d="M111 373v717h233v-676q0 -201 152 -201q88 0 137 66.5t49 181.5v629h233v-252q78 0 117 74.5t39 179.5h-117v235h234v-235q0 -154 -74 -267.5t-199 -113.5v-711h-225v160q-90 -188 -278 -189q-143 0 -222 104.5t-79 297.5zM399 -174h234v-236h-234v236z" />
<glyph unicode="&#x1ef2;" horiz-adv-x="1120" d="M25 1470h297l249 -639l240 639h285l-404 -919v-551h-252v555zM233 1872h269l147 -258h-160z" />
<glyph unicode="&#x1ef3;" d="M16 1090h263l192 -811l184 811h250l-307 -1072q-90 -315 -139 -380q-55 -76 -201 -76l-113 4v229q33 -4 50 -4q76 0 105.5 32t45.5 132zM137 1532h258l158 -299h-170z" />
<glyph unicode="&#x1ef4;" horiz-adv-x="1120" d="M25 1470h297l249 -639l240 639h285l-404 -919v-551h-252v555zM453 -174h233v-236h-233v236z" />
<glyph unicode="&#x1ef5;" d="M16 1090h263l192 -811l184 811h250l-307 -1072q-90 -315 -139 -380q-55 -76 -201 -76l-113 4v229q33 -4 50 -4q76 0 105.5 32t45.5 132zM631 -174h233v-236h-233v236z" />
<glyph unicode="&#x1ef6;" horiz-adv-x="1120" d="M25 1470h297l249 -639l240 639h285l-404 -919v-551h-252v555zM342 1759q0 188 238 189q104 0 164.5 -38t60.5 -104q0 -39 -21.5 -65.5t-81.5 -61.5q-47 -31 -59 -41t-12 -24v-49h-127v55q0 37 22.5 61.5t85.5 57.5v-2q66 41 66 69q0 23 -28.5 37.5t-76.5 14.5 q-70 0 -92 -29v2q-14 -16 -14 -72h-125z" />
<glyph unicode="&#x1ef7;" d="M16 1090h263l192 -811l184 811h250l-307 -1072q-90 -315 -139 -380q-55 -76 -201 -76l-113 4v229q33 -4 50 -4q76 0 105.5 32t45.5 132zM242 1378q0 188 237 189q104 0 165 -38t61 -104q0 -39 -21.5 -65.5t-81.5 -61.5q-47 -31 -59.5 -41t-12.5 -24v-49h-127v55 q0 37 23 61.5t86 57.5v-2q66 41 66 69q0 23 -29 37.5t-76 14.5q-70 0 -92 -29v2q-14 -16 -14 -72h-125z" />
<glyph unicode="&#x1ef8;" horiz-adv-x="1120" d="M25 1470h297l249 -639l240 639h285l-404 -919v-551h-252v555zM260 1614q43 252 203 252q12 0 113.5 -37t111.5 -37q59 0 80 82h109q-41 -246 -181 -246q-23 0 -127 37t-125 37q-59 0 -77 -88h-107z" />
<glyph unicode="&#x1ef9;" d="M16 1090h263l192 -811l184 811h250l-307 -1072q-90 -315 -139 -380q-55 -76 -201 -76l-113 4v229q33 -4 50 -4q76 0 105.5 32t45.5 132zM158 1253q43 252 202 252q12 0 113.5 -36.5t112.5 -36.5q59 0 80 81h108q-41 -246 -180 -245q-23 0 -127.5 36.5t-124.5 36.5 q-59 0 -78 -88h-106z" />
<glyph unicode="&#x2000;" horiz-adv-x="1130" />
<glyph unicode="&#x2001;" horiz-adv-x="2263" />
<glyph unicode="&#x2002;" horiz-adv-x="1130" />
<glyph unicode="&#x2003;" horiz-adv-x="2263" />
<glyph unicode="&#x2004;" horiz-adv-x="753" />
<glyph unicode="&#x2005;" horiz-adv-x="565" />
<glyph unicode="&#x2006;" horiz-adv-x="376" />
<glyph unicode="&#x2007;" horiz-adv-x="376" />
<glyph unicode="&#x2008;" horiz-adv-x="282" />
<glyph unicode="&#x2009;" horiz-adv-x="452" />
<glyph unicode="&#x200a;" horiz-adv-x="124" />
<glyph unicode="&#x2010;" horiz-adv-x="559" d="M45 440v267h469v-267h-469z" />
<glyph unicode="&#x2011;" horiz-adv-x="559" d="M45 440v267h469v-267h-469z" />
<glyph unicode="&#x2012;" horiz-adv-x="559" d="M45 440v267h469v-267h-469z" />
<glyph unicode="&#x2013;" d="M0 463v219h934v-219h-934z" />
<glyph unicode="&#x2014;" horiz-adv-x="1679" d="M0 463v219h1679v-219h-1679z" />
<glyph unicode="&#x2016;" horiz-adv-x="980" d="M227 -401v1880h176v-1880h-176zM580 -401v1880h176v-1880h-176z" />
<glyph unicode="&#x2018;" horiz-adv-x="466" d="M117 930v209q0 143 52 228t177 122v-105q-68 -27 -94.5 -69.5t-28.5 -124.5h127v-260h-233z" />
<glyph unicode="&#x2019;" horiz-adv-x="466" d="M117 1210v260h233v-208q0 -143 -53 -229.5t-176 -121.5v105q68 29 95.5 70.5t29.5 123.5h-129z" />
<glyph unicode="&#x201a;" horiz-adv-x="466" d="M117 0v260h233v-209q0 -143 -53 -229t-176 -121v104q68 29 95.5 71t29.5 124h-129z" />
<glyph unicode="&#x201c;" horiz-adv-x="839" d="M106 930v209q0 145 53.5 229t178.5 121v-105q-68 -27 -94.5 -69.5t-30.5 -124.5h127v-260h-234zM500 930v209q0 143 52 228t177 122v-105q-68 -27 -94.5 -69.5t-30.5 -124.5h129v-260h-233z" />
<glyph unicode="&#x201d;" horiz-adv-x="839" d="M106 1210v260h234v-208q0 -143 -53.5 -229.5t-175.5 -121.5v105q68 27 94 69.5t31 124.5h-130zM500 1210v260h233v-208q0 -145 -54 -229.5t-177 -121.5v105q68 29 95.5 70.5t29.5 123.5h-127z" />
<glyph unicode="&#x201e;" horiz-adv-x="839" d="M106 0v260h234v-209q0 -143 -53.5 -229t-175.5 -121v104q68 27 94 70t31 125h-130zM500 0v260h233v-209q0 -145 -54 -229t-177 -121v104q68 29 95.5 71t29.5 124h-127z" />
<glyph unicode="&#x2020;" d="M61 793v229h293v448h226v-448h292v-229h-292v-1143h-226v1143h-293z" />
<glyph unicode="&#x2021;" d="M61 92v230h291v491h-291v229h291v428h226v-428h294v-229h-294v-491h294v-230h-294v-442h-226v442h-291z" />
<glyph unicode="&#x2022;" horiz-adv-x="587" d="M16 735q0 143 81 240.5t200 97.5q113 0 193.5 -98t80.5 -238q0 -141 -80.5 -240.5t-197.5 -99.5q-115 0 -196 98.5t-81 239.5z" />
<glyph unicode="&#x2026;" horiz-adv-x="1679" d="M154 0v301h252v-301h-252zM713 0v301h252v-301h-252zM1274 0v301h252v-301h-252z" />
<glyph unicode="&#x202f;" horiz-adv-x="452" />
<glyph unicode="&#x2030;" horiz-adv-x="1679" d="M-4 1065q0 389 262 389q256 0 256 -387t-258 -387q-260 0 -260 385zM156 -39l667 1493h125l-667 -1493h-125zM164 1055q0 -129 19.5 -180.5t70.5 -51.5q53 0 72.5 53.5t19.5 190.5t-19.5 190.5t-70.5 53.5q-53 0 -72.5 -53t-19.5 -203zM602 360q0 389 262 390 q254 0 254 -387.5t-258 -387.5t-258 385zM770 354q0 -133 19.5 -184t70.5 -51t70.5 53t19.5 190.5t-19.5 190.5t-70.5 53t-70.5 -53.5t-19.5 -198.5zM1165 360q0 389 262 390q256 0 256 -387.5t-258 -387.5q-260 0 -260 385zM1333 352q0 -131 19.5 -182t70.5 -51q53 0 73 53 t20 190.5t-19.5 190.5t-71.5 53q-53 0 -72.5 -53.5t-19.5 -200.5z" />
<glyph unicode="&#x2031;" horiz-adv-x="2244" d="M-4 1065q0 389 262 389q256 0 256 -387t-258 -387q-260 0 -260 385zM156 -39l667 1493h125l-667 -1493h-125zM164 1055q0 -129 19.5 -180.5t70.5 -51.5q53 0 72.5 53.5t19.5 190.5t-19.5 190.5t-70.5 53.5q-53 0 -72.5 -53t-19.5 -203zM602 360q0 389 262 390 q254 0 254 -387.5t-258 -387.5t-258 385zM770 354q0 -133 19.5 -184t70.5 -51t70.5 53t19.5 190.5t-19.5 190.5t-70.5 53t-70.5 -53.5t-19.5 -198.5zM1165 360q0 389 262 390q256 0 256 -387.5t-258 -387.5q-260 0 -260 385zM1333 352q0 -131 19.5 -182t70.5 -51q53 0 73 53 t20 190.5t-19.5 190.5t-71.5 53q-53 0 -72.5 -53.5t-19.5 -200.5zM1731 360q0 389 262 390q256 0 256 -387.5t-258 -387.5q-260 0 -260 385zM1898 352q0 -131 19.5 -182t71.5 -51q53 0 72.5 53t19.5 190.5t-19.5 190.5t-70.5 53q-53 0 -73 -53.5t-20 -200.5z" />
<glyph unicode="&#x2039;" horiz-adv-x="559" d="M139 451v245l281 295v-237l-168 -181l168 -180v-237z" />
<glyph unicode="&#x203a;" horiz-adv-x="559" d="M139 156v237l168 180l-168 181v237l281 -295v-245z" />
<glyph unicode="&#x203b;" horiz-adv-x="980" d="M0 514q0 51 37 88t88 37t88 -37t37 -88t-37 -88t-88 -37t-88 37t-37 88zM164 311l203 203l-203 201l125 125l203 -203l200 203l125 -125l-201 -201l201 -203l-125 -125l-200 203l-203 -203zM367 147q0 51 36.5 88t88 37t88 -36.5t36.5 -88.5q0 -53 -35.5 -88.5t-89 -35.5 t-89 35.5t-35.5 88.5zM367 878.5q0 51.5 35.5 88.5t89 37t89 -37t35.5 -88.5t-36.5 -88t-88 -36.5t-88 36.5t-36.5 88zM731 514q0 51 37 88t88 37t88 -37t37 -88t-36 -88t-89 -37q-51 0 -88 37t-37 88z" />
<glyph unicode="&#x203d;" horiz-adv-x="1026" d="M100 1010q0 193 78 311.5t215 153.5v118h258v-125q131 -39 207 -146.5t76 -258.5q0 -119 -43 -201t-160 -186q-63 -55 -82.5 -102.5t-21.5 -147.5h-221q0 178 40 260l-51 508q-57 -61 -57 -152v-32h-238zM399 0v291h246v-291h-246zM618 883q63 70 64 166q0 80 -35 131z " />
<glyph unicode="&#x2044;" horiz-adv-x="280" d="M-285 -51l719 1505h131l-717 -1505h-133z" />
<glyph unicode="&#x2045;" horiz-adv-x="765" d="M117 -31v324q0 147 125 246q-125 98 -125 245v324q0 170 158.5 268.5t373.5 98.5v-242q-68 0 -108.5 -3t-91 -14.5t-75 -38t-24.5 -69.5v-324q0 -43 24.5 -69.5t75 -37.5t91.5 -14.5t108 -3.5v-241q-68 0 -108.5 -3t-91 -14.5t-75 -38t-24.5 -69.5v-324q0 -43 24.5 -69.5 t75 -38t91.5 -14.5t108 -3v-241q-215 0 -373.5 98t-158.5 268z" />
<glyph unicode="&#x2046;" horiz-adv-x="765" d="M117 -156q68 0 108.5 3t91 14.5t75 38t24.5 69.5v324q0 43 -24.5 69.5t-75 38t-91.5 14.5t-108 3v241q68 0 108.5 3.5t91 14.5t75 37.5t24.5 69.5v324q0 43 -24.5 69.5t-75 38t-91.5 14.5t-108 3v242q215 0 373.5 -98.5t158.5 -268.5v-324q0 -147 -125 -245 q125 -98 125 -246v-324q0 -170 -158.5 -268t-373.5 -98v241z" />
<glyph unicode="&#x2052;" d="M47 0l582 1470h258l-582 -1470h-258zM80 1191.5q0 65.5 47 112t112.5 46.5t111.5 -46.5t46 -112t-46 -112.5t-111.5 -47t-112.5 47t-47 112.5zM537 280.5q0 65.5 46 111.5t111.5 46t112.5 -46t47 -111.5t-47 -112.5t-112.5 -47t-111.5 47t-46 112.5z" />
<glyph unicode="&#x205f;" horiz-adv-x="565" />
<glyph unicode="&#x20a1;" horiz-adv-x="1212" d="M74 731.5q0 323.5 122.5 526t338.5 243.5v139h143v-133q193 -16 319.5 -152t151.5 -366h-252q-29 119 -81 180.5t-138 71.5v-1010q164 25 219 273h252q-98 -510 -471 -541v-133h-143v139q-215 37 -338 238t-123 524.5zM330 729q0 -193 53 -317.5t152 -165.5v975 q-205 -91 -205 -492z" />
<glyph unicode="&#x20a4;" d="M47 537v122h154l-56 119h-98v123h53q-25 76 -24 156q0 180 112.5 296.5t288.5 116.5q186 0 290.5 -117.5t115.5 -355.5h-219q-20 150 -60.5 197t-120.5 47q-76 0 -124 -53t-48 -137q0 -41 37 -150h285v-123h-240l37 -119h203v-122h-193q-2 -94 -42 -166t-138 -170 q127 59 205 59q33 0 113.5 -25.5t93.5 -25.5q72 0 168 74l69 -224q-127 -92 -250 -92q-78 0 -208 53q-70 29 -121 29q-35 0 -67 -12t-118 -60l-92 199q80 55 133.5 141t53.5 158q0 29 -7 62h-186z" />
<glyph unicode="&#x20a6;" horiz-adv-x="1212" d="M-8 541v168h125v198h-125v170h125v393h264l184 -393h299v393h234v-393h125v-170h-125v-198h125v-168h-125v-541h-250l-254 541h-244v-541h-233v541h-125zM350 709h164l-94 198h-70v-198zM645 907l92 -198h127v198h-219zM817 541l47 -103v103h-47z" />
</font>
</defs>
</svg>
