<?xml version="1.0" standalone="no"?>
<!DOCTYPE svg PUBLIC "-//W3C//DTD SVG 1.1//EN" "http://www.w3.org/Graphics/SVG/1.1/DTD/svg11.dtd" >
<svg xmlns="http://www.w3.org/2000/svg">
<metadata>
This is a custom SVG webfont generated by Font Squirrel.
Copyright   : Copyright URW copyright 1999 by URW Design  Development Cyrillic glyphs added by Valek Filippov copyright 20012002 Vietnamese characters were added by Han The Thanh copyright 2006 2008 for TeX Gyre extensions by B Jackowski and JM Nowacki on behalf of TeX users groups This work is released under the GUST Font License   see httptugorgfontslicensesGUSTFONTLICENSEtxt for details
</metadata>
<defs>
<font id="webfontJPb9qlI0" horiz-adv-x="1138" >
<font-face units-per-em="2048" ascent="1606" descent="-442" />
<missing-glyph horiz-adv-x="569" />
<glyph unicode="IJ" horiz-adv-x="1482" d="M37 0l317 1493h193l-318 -1493h-192zM467 260q0 47 12 98l27 121h192l-26 -125q-8 -33 -8 -69q0 -70 51 -113t133 -43q115 0 187.5 76t109.5 248l221 1040h193l-236 -1110q-43 -201 -178 -310.5t-338 -109.5q-160 0 -250 85t-90 212z" />
<glyph unicode="ij" horiz-adv-x="905" d="M37 0l227 1073h172l-227 -1073h-172zM217 -440l31 145q37 -4 51 -4q78 0 109.5 28.5t50.5 114.5l260 1229h172l-275 -1296q-29 -127 -106.5 -175t-253.5 -48q-16 0 -39 6zM276 1237l46 211h213l-46 -211h-213zM731 1237l45 211h213l-45 -211h-213z" />
<glyph unicode="fk" horiz-adv-x="1613" d="M80 0l199 936h-144l29 137h143l39 182q25 115 105.5 179.5t199.5 64.5q45 0 92 -10l-30 -141q-29 4 -56 4q-66 0 -98.5 -30t-48.5 -108l-31 -141h176l-28 -137h-176l-199 -936h-172zM606 0l318 1493h172l-185 -866l551 446h221l-454 -371l287 -702h-197l-234 596 l-219 -180l-88 -416h-172z" />
<glyph unicode="&#xfb00;" horiz-adv-x="1093" d="M80 0l199 936h-144l29 137h143l39 182q25 115 105.5 179.5t199.5 64.5q45 0 92 -10l-30 -141q-29 4 -56 4q-66 0 -98.5 -30t-48.5 -108l-31 -141h355l38 182q25 115 106 179.5t200 64.5q47 0 92 -10l-31 -141q-29 4 -55 4q-66 0 -98.5 -30t-49.5 -108l-30 -141h176 l-29 -137h-176l-199 -936h-172l199 936h-354l-199 -936h-172z" />
<glyph unicode="&#xfb01;" horiz-adv-x="1024" d="M80 0l199 936h-144l29 137h143l39 182q25 115 105.5 179.5t199.5 64.5q45 0 92 -10l-30 -141q-29 4 -56 4q-66 0 -98.5 -30t-48.5 -108l-31 -141h176l-28 -137h-176l-199 -936h-172zM606 0l228 1073h172l-228 -1073h-172zM846 1237l45 211h213l-45 -211h-213z" />
<glyph unicode="&#xfb02;" horiz-adv-x="1024" d="M80 0l199 936h-144l29 137h143l39 182q25 115 105.5 179.5t199.5 64.5q45 0 92 -10l-30 -141q-29 4 -56 4q-66 0 -98.5 -30t-48.5 -108l-31 -141h176l-28 -137h-176l-199 -936h-172zM606 0l318 1493h172l-318 -1493h-172z" />
<glyph unicode="&#xfb03;" horiz-adv-x="1550" d="M80 0l199 936h-144l29 137h143l39 182q25 115 105.5 179.5t199.5 64.5q45 0 92 -10l-30 -141q-29 4 -56 4q-66 0 -98.5 -30t-48.5 -108l-31 -141h355l38 182q25 115 106 179.5t200 64.5q47 0 92 -10l-31 -141q-29 4 -55 4q-66 0 -98.5 -30t-49.5 -108l-30 -141h176 l-29 -137h-176l-199 -936h-172l199 936h-354l-199 -936h-172zM1133 0l227 1073h172l-227 -1073h-172zM1372 1237l45 211h213l-45 -211h-213z" />
<glyph unicode="&#xfb04;" horiz-adv-x="1550" d="M80 0l199 936h-144l29 137h143l39 182q25 115 105.5 179.5t199.5 64.5q45 0 92 -10l-30 -141q-29 4 -56 4q-66 0 -98.5 -30t-48.5 -108l-31 -141h355l38 182q25 115 106 179.5t200 64.5q47 0 92 -10l-31 -141q-29 4 -55 4q-66 0 -98.5 -30t-49.5 -108l-30 -141h176 l-29 -137h-176l-199 -936h-172l199 936h-354l-199 -936h-172zM1133 0l317 1493h172l-317 -1493h-172z" />
<glyph unicode=" "  horiz-adv-x="569" />
<glyph unicode="&#x09;" horiz-adv-x="569" />
<glyph unicode="&#xa0;" horiz-adv-x="569" />
<glyph unicode="!" horiz-adv-x="569" d="M96 0l45 211h172l-45 -211h-172zM215 344l47 432l152 717h172l-152 -717l-137 -432h-82z" />
<glyph unicode="&#x22;" horiz-adv-x="727" d="M262 950v275l49 227h193l-49 -227l-113 -275h-80zM588 950v275l49 227h192l-49 -227l-112 -275h-80z" />
<glyph unicode="#" d="M8 391l29 131h229l150 377h-223l26 131h248l158 397h155l-155 -397h254l157 397h156l-158 -397h193l-29 -131h-215l-149 -377h219l-29 -131h-242l-170 -432h-155l170 432h-256l-170 -432h-156l170 432h-207zM422 522h256l149 377h-254z" />
<glyph unicode="$" d="M39 274q0 59 16 152h162l-2 -23q-6 -59 -6 -96q0 -84 47 -132t160 -81l119 557q-184 63 -234 107q-92 80 -92 203q0 211 134 350t366 155l22 111h121l-23 -111q154 -8 239 -89t85 -220q0 -45 -12 -94h-162l2 31q2 18 2 43q0 80 -50 131t-134 55l-109 -510 q184 -57 248 -98q117 -78 117 -217q0 -233 -149.5 -386t-397.5 -159l-45 -211h-121l45 211q-180 29 -264 105.5t-84 215.5zM379 1026q0 -76 44 -120t150 -77l105 492q-129 -8 -214 -94t-85 -201zM537 94q162 12 249.5 100.5t87.5 237.5q0 74 -50 119t-173 82z" />
<glyph unicode="%" horiz-adv-x="1820" d="M172 979q0 162 133 290t299 128q119 0 201 -77t82 -190q0 -166 -132 -293.5t-304 -127.5q-121 0 -200 76.5t-79 193.5zM315 1012q0 -72 48.5 -120t119.5 -48q100 0 180 76.5t80 173.5q0 76 -47 122t-125 46q-98 0 -177 -77t-79 -173zM326 -41l1126 1493h135l-1126 -1493 h-135zM1016 238q0 162 133 289.5t299 127.5q119 0 201 -76.5t82 -189.5q0 -166 -132.5 -294t-304.5 -128q-121 0 -199.5 77t-78.5 194zM1159 270q0 -72 48 -120t120 -48q100 0 180 77t80 173q0 76 -47 122t-125 46q-98 0 -177 -77t-79 -173z" />
<glyph unicode="&#x26;" horiz-adv-x="1366" d="M68 262q0 170 98 290t321 247l-18 47l-37 86q-29 70 -29 139q0 150 129.5 265.5t296.5 115.5q125 0 199 -67.5t74 -182.5q0 -133 -90 -237.5t-281 -190.5l201 -334q88 102 123 244h162q-41 -203 -205 -375l184 -309h-217l-94 160q-139 -115 -242.5 -161t-226.5 -46 q-162 0 -255 83t-93 226zM248 325.5q0 -100.5 60.5 -157.5t162.5 -57q141 0 344 170l-244 407q-172 -92 -247.5 -177t-75.5 -185.5zM573 1092q0 -43 16.5 -79t80.5 -124q141 72 201.5 137.5t60.5 149.5q0 61 -38 97t-103 36q-90 0 -154 -63.5t-64 -153.5z" />
<glyph unicode="'" horiz-adv-x="391" d="M254 950v275l49 227h193l-50 -227l-112 -275h-80z" />
<glyph unicode="(" horiz-adv-x="681" d="M129 238q0 311 150.5 642.5t418.5 612.5h113q-522 -641 -522 -1331q0 -305 112 -598h-112q-160 281 -160 674z" />
<glyph unicode=")" horiz-adv-x="681" d="M-117 -436q254 311 388.5 649t134.5 670q0 324 -113 610h113q72 -127 114.5 -306t42.5 -353q0 -319 -150.5 -655.5t-416.5 -614.5h-113z" />
<glyph unicode="*" horiz-adv-x="796" d="M244 1225l61 121l205 -82l41 229h127l-60 -229l226 77l18 -127l-231 -55l108 -186l-118 -76l-91 197l-165 -195l-97 82l189 180z" />
<glyph unicode="+" horiz-adv-x="1196" d="M139 442v140h389v389h140v-389h389v-140h-389v-389h-140v389h-389z" />
<glyph unicode="," horiz-adv-x="569" d="M10 -301l17 78q74 0 111.5 49t58.5 174h-121l45 211h215l-53 -244q-29 -127 -96.5 -198.5t-163.5 -69.5h-13z" />
<glyph unicode="-" horiz-adv-x="681" d="M96 492l31 147h489l-30 -147h-490z" />
<glyph unicode="." horiz-adv-x="569" d="M76 0l45 211h213l-45 -211h-213z" />
<glyph unicode="/" horiz-adv-x="569" d="M-127 -41l801 1534h112l-800 -1534h-113z" />
<glyph unicode="0" d="M102 365q0 221 64.5 458.5t161.5 378.5q170 250 426 250q174 0 271 -105.5t97 -293.5q0 -221 -63.5 -457t-161.5 -377q-172 -250 -430 -250q-164 0 -264.5 103t-100.5 293zM283 387q0 -121 55 -190.5t151 -69.5q100 0 175 61.5t137 192.5q57 123 99 314.5t42 336.5 q0 125 -56.5 193.5t-156.5 68.5q-193 0 -307 -252q-57 -127 -98 -318.5t-41 -336.5z" />
<glyph unicode="1" d="M324 1034l26 129q221 31 294 77t155 212h119l-310 -1452h-180l221 1034h-325z" />
<glyph unicode="2" d="M-33 0q68 248 170.5 367.5t368.5 261.5l213 106q127 63 197.5 152.5t70.5 188t-65.5 158.5t-171.5 60q-145 0 -234.5 -84t-136.5 -262h-180q59 260 198.5 382t376.5 122q182 0 287.5 -96t105.5 -256q0 -307 -405 -512l-230 -117q-287 -145 -333 -293h772l-39 -178h-965z " />
<glyph unicode="3" d="M47 311q0 49 10 127h181l-5 -26q-6 -33 -6 -80q0 -94 66.5 -149.5t175.5 -55.5q172 0 279.5 99.5t107.5 265.5q0 88 -71.5 137t-198.5 49q-49 0 -92 -4l32 153h37q201 0 291 73t90 216q0 82 -58.5 130t-158.5 48q-137 0 -222 -73.5t-122 -237.5h-180q66 250 201 359.5 t348 109.5q168 0 270 -82t102 -217t-58 -227t-189 -166q86 -43 122.5 -98.5t36.5 -143.5q0 -229 -164.5 -389t-429.5 -160q-193 0 -294 88t-101 254z" />
<glyph unicode="4" d="M27 348l41 189l852 915h135l-201 -944h217l-35 -160h-217l-74 -348h-180l74 348h-612zM221 508h453l133 631z" />
<glyph unicode="5" d="M45 328v45h180q8 -246 256 -246q174 0 286 117.5t112 306.5q0 119 -68 183.5t-190 64.5q-90 0 -150.5 -28t-155.5 -109h-163l270 759h758l-37 -178h-615l-137 -375q143 88 287 88q174 0 277.5 -96t103.5 -256q0 -268 -179.5 -451.5t-422.5 -183.5q-186 0 -299 89.5 t-113 269.5z" />
<glyph unicode="6" d="M90 350q0 193 62.5 425.5t150.5 371.5q195 305 485 305q164 0 262.5 -88t98.5 -236q0 -33 -2 -55h-180l2 10q-4 96 -58.5 153.5t-150.5 57.5q-156 0 -272.5 -150.5t-161.5 -410.5q172 172 366 172q164 0 264.5 -96t100.5 -254q0 -238 -171 -412t-399 -174 q-182 0 -289.5 102.5t-107.5 278.5zM270 365q0 -109 69 -173.5t175 -64.5q154 0 258.5 113.5t104.5 283.5q0 100 -64.5 162t-169.5 62q-158 0 -265.5 -110.5t-107.5 -272.5z" />
<glyph unicode="7" d="M178 0q135 315 318.5 578.5t541.5 664.5h-784l39 178h973l-35 -166q-268 -262 -510 -616t-342 -639h-201z" />
<glyph unicode="8" d="M51 305q0 311 324 459l-25 20q-63 51 -84.5 91t-21.5 108q0 195 153.5 332t362.5 137q170 0 272.5 -84t102.5 -219q0 -115 -51.5 -201t-176.5 -164l-33 -20q172 -98 173 -266q0 -215 -172.5 -372t-397.5 -157q-195 0 -310.5 90t-115.5 246zM231 336q0 -96 72 -152.5 t186 -56.5q162 0 269.5 97.5t107.5 246.5q0 100 -71.5 156.5t-192.5 56.5q-156 0 -263.5 -100.5t-107.5 -247.5zM424 1006q0 -80 58.5 -125t160.5 -45q135 0 223 80.5t88 199.5q0 84 -59 131t-164 47q-133 0 -220 -81.5t-87 -206.5z" />
<glyph unicode="9" d="M72 293q0 33 2 55h178q0 -106 52 -163.5t151 -57.5q309 0 432 553q-117 -98 -186.5 -131t-178.5 -33q-166 0 -264 96.5t-98 257.5q0 221 159.5 401.5t405.5 180.5q184 0 291.5 -105.5t107.5 -271.5q0 -209 -82 -514q-74 -274 -238.5 -433t-373.5 -159q-164 0 -261 88.5 t-97 235.5zM338 901q0 -109 61.5 -168t171.5 -59q156 0 265.5 112.5t109.5 274.5q0 102 -70.5 167.5t-175.5 65.5q-150 0 -256 -114.5t-106 -278.5z" />
<glyph unicode=":" horiz-adv-x="569" d="M82 0l45 211h213l-45 -211h-213zM266 862l29 211h229l-45 -211h-213z" />
<glyph unicode=";" horiz-adv-x="569" d="M10 -301l17 78q74 0 111.5 49t58.5 174h-121l45 211h215l-53 -244q-29 -127 -96.5 -198.5t-163.5 -69.5h-13zM258 862l45 211h213l-45 -211h-213z" />
<glyph unicode="&#x3c;" horiz-adv-x="1196" d="M233 459v106l685 600v-184l-533 -469l533 -469v-184z" />
<glyph unicode="=" horiz-adv-x="1196" d="M139 256v139h918v-139h-918zM139 629v139h918v-139h-918z" />
<glyph unicode="&#x3e;" horiz-adv-x="1196" d="M233 43l533 469l-533 469v184l685 -600v-106l-685 -600v184z" />
<glyph unicode="?" d="M262 1038q96 479 543 480q174 0 272.5 -88.5t98.5 -221.5q0 -119 -70 -226.5t-227 -223.5q-115 -86 -154 -132t-59 -122l-21 -96h-184l24 112q20 92 65.5 146.5t213.5 187.5q119 94 167 168t48 162q0 78 -61.5 127t-157.5 49q-135 0 -212 -77t-112 -245h-174zM375 0 l45 211h184l-45 -211h-184z" />
<glyph unicode="@" horiz-adv-x="2078" d="M61 373q0 281 166 545t454 432t611 168q315 0 521 -178.5t206 -450.5q0 -324 -208.5 -548t-487.5 -224q-98 0 -150.5 33.5t-52.5 95.5v28l-93 -66q-40 -28 -72.5 -46.5t-67.5 -26.5t-78 -8q-125 0 -201 78t-76 207q0 152 97.5 307t249 254.5t301.5 99.5q186 0 223 -182 l74 135h168l-306 -573q-49 -92 -49 -119q0 -29 25.5 -51.5t58.5 -22.5q109 0 220.5 89t183 227.5t71.5 271.5q0 221 -170 366.5t-430 145.5q-248 0 -482.5 -138.5t-379.5 -361.5t-145 -459q0 -240 174 -387t454 -147q168 0 418 65l27 -137q-236 -86 -502 -86 q-307 0 -529.5 185.5t-222.5 478.5zM721 430q0 -76 44 -126t112 -50q94 0 194 99.5t161.5 227.5t61.5 218q0 133 -139 133q-152 0 -293 -169t-141 -333z" />
<glyph unicode="A" horiz-adv-x="1366" d="M-68 0l850 1493h246l207 -1493h-209l-55 449h-584l-252 -449h-203zM477 608h473l-82 682z" />
<glyph unicode="B" horiz-adv-x="1366" d="M59 0l318 1493h606q172 0 271.5 -81t99.5 -216q0 -137 -73 -243.5t-206 -166.5q109 -47 154 -105t45 -153q0 -225 -159 -376.5t-380 -151.5h-676zM287 168h465q143 0 234 92t91 236q0 186 -217 186h-463zM432 850h369q176 0 266 82t90 217q0 176 -254 176h-368z" />
<glyph unicode="C" horiz-adv-x="1478" d="M129 506q0 193 70.5 391.5t191.5 343.5q240 289 598 289q217 0 345 -127t141 -373h-197q-25 334 -324 334q-279 0 -462 -272q-166 -248 -166 -549q0 -186 97 -300t257 -114q193 0 307.5 95t214.5 321h201q-131 -309 -306 -445.5t-446 -136.5q-244 0 -383 147.5 t-139 395.5z" />
<glyph unicode="D" horiz-adv-x="1478" d="M80 0l317 1493h578q223 0 350 -138t127 -356q0 -422 -230.5 -710.5t-564.5 -288.5h-577zM307 168h352q264 0 430 230.5t166 584.5q0 160 -93 251t-257 91h-350z" />
<glyph unicode="E" horiz-adv-x="1366" d="M82 0l317 1493h1037l-35 -168h-844l-102 -477h811l-37 -168h-809l-111 -512h879l-35 -168h-1071z" />
<glyph unicode="F" horiz-adv-x="1251" d="M82 0l317 1493h1002l-35 -168h-809l-102 -477h710l-35 -168h-710l-146 -680h-192z" />
<glyph unicode="G" horiz-adv-x="1593" d="M123 545q0 242 112.5 466t325.5 371.5t475 147.5q240 0 379 -124t139 -331v-12v-23h-186q-2 154 -104.5 239t-264.5 85q-287 0 -483.5 -235.5t-196.5 -550.5q0 -215 105.5 -332t316.5 -117q201 0 360 121t204 317l12 54h-455l37 167h623l-168 -788h-121l-10 176 q-141 -119 -264 -166t-285 -47q-248 0 -399.5 154t-151.5 428z" />
<glyph unicode="H" horiz-adv-x="1478" d="M68 0l317 1493h193l-138 -645h764l137 645h193l-317 -1493h-193l145 680h-763l-146 -680h-192z" />
<glyph unicode="I" horiz-adv-x="569" d="M102 0l318 1493h192l-317 -1493h-193z" />
<glyph unicode="J" horiz-adv-x="1024" d="M-4 260q0 47 12 98l27 121h192l-26 -125q-8 -33 -8 -69q0 -70 51 -113t133 -43q115 0 187.5 76t109.5 248l221 1040h192l-235 -1110q-43 -201 -178 -310.5t-338 -109.5q-160 0 -250 85t-90 212z" />
<glyph unicode="K" horiz-adv-x="1366" d="M59 0l318 1493h192l-161 -764l909 764h246l-740 -610l422 -883h-225l-344 770l-316 -260l-108 -510h-193z" />
<glyph unicode="L" d="M61 0l318 1493h192l-282 -1325h737l-35 -168h-930z" />
<glyph unicode="M" horiz-adv-x="1705" d="M51 0l318 1493h264l164 -1284l708 1284h269l-318 -1493h-182l264 1239l-684 -1239h-199l-157 1239l-265 -1239h-182z" />
<glyph unicode="N" horiz-adv-x="1478" d="M53 0l318 1493h213l512 -1225l260 1225h182l-317 -1493h-217l-510 1210l-258 -1210h-183z" />
<glyph unicode="O" horiz-adv-x="1593" d="M113 549q0 250 116.5 475t322.5 365.5t447 140.5q279 0 437.5 -149.5t158.5 -417.5q0 -260 -108.5 -486.5t-316 -370t-470.5 -143.5q-274 0 -430.5 152.5t-156.5 433.5zM309 565q0 -207 114 -321.5t304.5 -114.5t347 114.5t240.5 296t84 386.5q0 207 -114 322.5 t-310 115.5q-188 0 -343 -114.5t-239 -297t-84 -387.5z" />
<glyph unicode="P" horiz-adv-x="1366" d="M84 0l317 1493h619q379 0 379 -330q0 -215 -147.5 -372.5t-372.5 -157.5h-467l-136 -633h-192zM446 801h398q158 0 258 94t100 231q0 199 -246 199h-397z" />
<glyph unicode="Q" horiz-adv-x="1593" d="M113 551q0 248 113.5 472t319.5 365.5t453 141.5q283 0 439.5 -154.5t156.5 -429.5q0 -221 -92 -425t-262 -355l160 -158l-123 -119l-178 179q-113 -59 -198 -82t-204 -23q-276 0 -430.5 156t-154.5 432zM309 567q0 -207 114 -322.5t314 -115.5q111 0 244 59l-127 127 l119 115l151 -149q274 264 275 645q0 209 -115 323.5t-309 114.5q-186 0 -342 -114.5t-240 -297t-84 -385.5z" />
<glyph unicode="R" horiz-adv-x="1478" d="M88 0l318 1493h688q197 0 289 -77t92 -238q0 -152 -70 -255.5t-217 -185.5q72 -47 97.5 -88t25.5 -108q0 -57 -43 -283q-12 -66 -13 -102q0 -70 43 -109l-10 -47h-231q-8 57 -8 96q0 49 6 83t43 188q16 72 16 122q0 154 -207 154h-489l-137 -643h-193zM453 811h473 q170 0 261 93t91 239q0 92 -55.5 137t-188.5 45h-471z" />
<glyph unicode="S" horiz-adv-x="1366" d="M82 356q0 61 18 129h179q-8 -51 -9 -84q0 -139 82 -205.5t256 -66.5q205 0 335 89t130 220q0 72 -54 121t-177 84l-350 100q-102 29 -165 105t-63 172q0 78 42 175t106 161q168 174 487 174q215 0 339 -95.5t124 -252.5q0 -39 -16 -115h-181q8 55 9 74q0 223 -312 223 q-176 0 -288.5 -83t-112.5 -208q0 -68 44 -104.5t163 -71.5l352 -100q115 -33 182.5 -116t67.5 -185q0 -86 -50.5 -187.5t-127.5 -173.5q-184 -172 -517 -172q-231 0 -362 104.5t-131 288.5z" />
<glyph unicode="T" horiz-adv-x="1251" d="M221 1325l35 168h1174l-35 -168h-488l-282 -1325h-193l283 1325h-494z" />
<glyph unicode="U" horiz-adv-x="1478" d="M154 328q0 61 28 196l207 969h193l-222 -1038q-10 -41 -10 -90q0 -106 91 -171t239 -65q174 0 292 87t150 239l221 1038h193l-221 -1038q-47 -223 -230.5 -357.5t-441.5 -134.5q-219 0 -354 102.5t-135 262.5z" />
<glyph unicode="V" horiz-adv-x="1366" d="M276 1493h199l170 -1264l688 1264h203l-836 -1493h-204z" />
<glyph unicode="W" horiz-adv-x="1933" d="M260 0v1493h236v-1212l589 1212h197l84 -1212l539 1212h213l-697 -1493h-209l-84 1212l-593 -1212h-275z" />
<glyph unicode="X" horiz-adv-x="1366" d="M-57 0l694 766l-342 727h231l256 -584l508 584h234l-662 -727l367 -766h-236l-274 623l-541 -623h-235z" />
<glyph unicode="Y" horiz-adv-x="1366" d="M242 1493h229l279 -731l591 731h228l-754 -907l-125 -586h-192l125 586z" />
<glyph unicode="Z" horiz-adv-x="1251" d="M-45 0l37 172l1136 1153h-831l35 168h1075l-37 -172l-1139 -1153h897l-34 -168h-1139z" />
<glyph unicode="[" horiz-adv-x="569" d="M-63 -436l409 1929h381l-31 -147h-209l-348 -1635h209l-31 -147h-380z" />
<glyph unicode="\" horiz-adv-x="569" d="M199 1493h112l160 -1534h-113z" />
<glyph unicode="]" horiz-adv-x="569" d="M-150 -436l31 147h211l348 1635h-211l31 147h383l-410 -1929h-383z" />
<glyph unicode="^" horiz-adv-x="960" d="M133 674l479 778h150l151 -778h-141l-119 612l-372 -612h-148z" />
<glyph unicode="_" d="M-223 -362l22 102h1227l-22 -102h-1227z" />
<glyph unicode="`" horiz-adv-x="681" d="M190 1493h230l133 -303h-123z" />
<glyph unicode="a" d="M33 223q0 182 166 287q74 47 163 67.5t297 40.5q111 10 154 35t53 86l6 37q4 33 5 39q0 57 -62.5 94t-155.5 37q-221 0 -280 -190h-172q29 170 157 259t341 89q162 0 259 -63.5t97 -168.5q0 -20 -12 -75l-125 -588q-2 -6 -2 -21q0 -59 77 -59q16 0 35 4l-26 -133 q-104 -18 -109 -18q-80 0 -121 23.5t-41 82.5l2 31q-109 -90 -202 -120t-207 -30q-139 0 -218 66.5t-79 187.5zM213 244q0 -127 184 -127q135 0 251 70.5t136 164.5l37 176q-88 -31 -299 -59q-164 -23 -236.5 -76t-72.5 -149z" />
<glyph unicode="b" d="M8 0l318 1493h172l-119 -563q98 104 173 139t187 35q156 0 259.5 -115t103.5 -287q0 -184 -72 -350t-211 -274.5t-315 -108.5q-215 0 -305 199l-37 -168h-154zM279 383q0 -121 61 -188.5t168 -67.5q168 0 291 155.5t123 381.5q0 133 -63.5 207.5t-176.5 74.5 q-162 0 -282.5 -162.5t-120.5 -400.5z" />
<glyph unicode="c" horiz-adv-x="1024" d="M55 356q0 328 172 538t451 210q158 0 256 -89t98 -212q0 -2 -1 -10.5t-2 -22.5t-1 -27l-2 -30h-172q2 18 2 45q0 88 -56.5 138t-152.5 50q-178 0 -294.5 -170t-116.5 -397q0 -119 63 -185.5t170 -66.5q229 0 317 242h172q-61 -213 -187 -306.5t-331 -93.5 q-176 0 -280.5 108.5t-104.5 278.5z" />
<glyph unicode="d" d="M49 356q0 324 168 536t424 212q109 0 176.5 -43t116.5 -143l123 575h172l-318 -1493h-166l35 164q-45 -86 -155.5 -140.5t-223.5 -54.5q-160 0 -256 104.5t-96 282.5zM229 397q0 -131 63.5 -200.5t178.5 -69.5q162 0 278.5 162t116.5 381q0 131 -63.5 203.5t-177.5 72.5 q-166 0 -281 -164t-115 -385z" />
<glyph unicode="e" d="M72 362q0 125 49 274.5t121 246.5q76 102 197.5 161.5t254.5 59.5q166 0 278.5 -101.5t112.5 -248.5q0 -86 -28 -240l-4 -27h-791q-11 -42 -10 -81v-13q0 -129 66.5 -197.5t189.5 -68.5q205 0 315 199h172q-47 -164 -188 -260.5t-328 -96.5q-182 0 -294.5 114.5 t-112.5 278.5zM299 635h602q4 49 4 59q0 115 -64.5 183.5t-172.5 68.5q-123 0 -226.5 -88t-142.5 -223z" />
<glyph unicode="f" horiz-adv-x="569" d="M80 0l199 936h-144l29 137h143l39 182q25 115 105.5 179.5t199.5 64.5q45 0 92 -10l-30 -141q-29 4 -56 4q-66 0 -98.5 -30t-48.5 -108l-31 -141h176l-28 -137h-176l-199 -936h-172z" />
<glyph unicode="g" d="M-37 -186q0 20 2 36l2 27h172v-29q0 -70 58.5 -108.5t162.5 -38.5q164 0 253 90t135 299l8 41q-156 -162 -353 -162q-158 0 -256 104.5t-98 272.5q0 303 172 530.5t432 227.5q197 0 285 -191l35 160h155l-190 -899q-41 -195 -88 -302.5t-125 -180.5q-143 -137 -399 -137 q-164 0 -263.5 70.5t-99.5 189.5zM229 379q0 -121 60.5 -191.5t163.5 -70.5q178 0 291.5 171t113.5 406q0 115 -59.5 183.5t-157.5 68.5q-176 0 -294 -172t-118 -395z" />
<glyph unicode="h" d="M41 0l317 1493h172l-116 -553q96 90 182 127t201 37q129 0 202.5 -68.5t73.5 -189.5q0 -41 -8 -76l-164 -770h-172l150 702q12 55 12 80q0 78 -48 126t-126 48q-139 0 -241.5 -98t-137.5 -266l-125 -592h-172z" />
<glyph unicode="i" horiz-adv-x="454" d="M39 0l227 1073h172l-227 -1073h-172zM279 1237l45 211h213l-45 -211h-213z" />
<glyph unicode="j" horiz-adv-x="454" d="M-236 -440l31 145q37 -4 51 -4q78 0 110 28.5t50 114.5l260 1229h172l-274 -1296q-29 -127 -106.5 -175t-254.5 -48q-16 0 -39 6zM279 1237l45 211h213l-45 -211h-213z" />
<glyph unicode="k" horiz-adv-x="1024" d="M16 0l318 1493h172l-184 -866l550 446h222l-455 -371l287 -702h-197l-233 596l-220 -180l-88 -416h-172z" />
<glyph unicode="l" horiz-adv-x="454" d="M37 0l317 1493h172l-317 -1493h-172z" />
<glyph unicode="m" horiz-adv-x="1705" d="M43 0l227 1073h156l-27 -133q98 92 179 128t186 36q199 0 248 -170q176 170 370 170q125 0 192.5 -68.5t67.5 -158.5q0 -68 -12 -113l-162 -764h-172l148 698q18 70 18 101q0 74 -42 115.5t-113 41.5q-113 0 -205 -80.5t-117 -201.5l-143 -674h-172l157 739q8 35 9 76 q0 63 -46.5 102t-121.5 39q-102 0 -193.5 -82.5t-116.5 -199.5l-143 -674h-172z" />
<glyph unicode="n" d="M41 0l227 1073h156l-27 -133q160 164 398 164q127 0 202.5 -69.5t75.5 -186.5q0 -43 -8 -78l-164 -770h-172l152 715q12 66 12 76q0 72 -51 118.5t-127 46.5q-139 0 -240.5 -98t-136.5 -266l-125 -592h-172z" />
<glyph unicode="o" d="M63 344q0 205 74 377t217.5 277.5t329.5 105.5q180 0 286.5 -108.5t106.5 -274.5q0 -324 -174 -538t-450 -214q-174 0 -282 102.5t-108 272.5zM244 385q0 -121 63.5 -189.5t173.5 -68.5q180 0 298 162t118 393q0 125 -63.5 194.5t-176.5 69.5q-178 0 -295.5 -167 t-117.5 -394z" />
<glyph unicode="p" d="M-88 -436l321 1509h166l-37 -172q41 86 154 144.5t225 58.5q164 0 260.5 -107.5t96.5 -291.5q0 -311 -167 -523.5t-427 -212.5q-109 0 -177.5 42t-117.5 136l-125 -583h-172zM274 385q0 -121 67 -189.5t179 -68.5q170 0 284 159.5t114 377.5q0 133 -65 207.5t-179 74.5 q-166 0 -283 -169t-117 -392z" />
<glyph unicode="q" d="M45 362q0 186 71.5 353.5t212 278t318.5 110.5q227 0 301 -207l39 176h154l-322 -1509h-172l123 571q-106 -102 -177 -134t-183 -32q-156 0 -260.5 111.5t-104.5 281.5zM225 389q0 -121 65.5 -191.5t176.5 -70.5q162 0 281.5 158.5t119.5 396.5q0 121 -61.5 192.5 t-163.5 71.5q-172 0 -295 -159.5t-123 -397.5z" />
<glyph unicode="r" horiz-adv-x="681" d="M39 0l227 1073h156l-35 -168q94 109 171 154t167 45q25 0 66 -6l-37 -174h-21q-326 0 -403 -367l-119 -557h-172z" />
<glyph unicode="s" horiz-adv-x="1024" d="M27 231q0 47 12 105h182q-4 -41 -4 -51q0 -76 57.5 -117t163.5 -41q121 0 207 55.5t86 141.5q0 39 -27.5 68.5t-115.5 51.5l-152 39q-158 39 -220 92.5t-62 147.5q0 166 131 273.5t342 107.5q150 0 243 -67.5t93 -174.5q0 -37 -13 -88h-172q2 16 2 45q0 59 -49 93 t-139 34q-117 0 -187.5 -49t-70.5 -129t174 -123l156 -39q135 -33 191 -87t56 -148q0 -182 -137 -292t-366 -110q-178 0 -279.5 69.5t-101.5 192.5z" />
<glyph unicode="t" horiz-adv-x="569" d="M102 147q0 33 7 64l155 725h-145l28 137h146l63 295h172l-63 -295h182l-29 -137h-182l-153 -719q-4 -25 -4 -29q0 -25 20 -40t53 -15q27 0 99 17l-33 -150q-49 -14 -133 -14t-133.5 42.5t-49.5 118.5z" />
<glyph unicode="u" d="M82 193q0 39 6 69l172 811h172l-158 -743q-6 -31 -6 -56q0 -72 49.5 -114.5t133.5 -42.5q131 0 231 99t135 265l125 592h172l-227 -1073h-156l27 125q-170 -156 -393 -156q-133 0 -208 60t-75 164z" />
<glyph unicode="v" horiz-adv-x="1024" d="M147 1073h189l100 -864l500 864h186l-637 -1073h-186z" />
<glyph unicode="w" horiz-adv-x="1478" d="M139 1073h226v-835l387 835h237v-835l402 835h186l-541 -1073h-219v856l-399 -856h-197z" />
<glyph unicode="x" horiz-adv-x="1024" d="M-68 0l490 547l-242 526h191l180 -393l342 393h199l-478 -526l252 -547h-192l-185 410l-356 -410h-201z" />
<glyph unicode="y" horiz-adv-x="1024" d="M-86 -426l33 154q74 -8 90 -9q57 0 90 21.5t74 85.5l106 166l-139 1081h184l94 -833l478 833h182l-754 -1298q-129 -221 -338 -221q-55 0 -100 20z" />
<glyph unicode="z" horiz-adv-x="1024" d="M-39 0l37 152l809 774h-602l31 147h802l-37 -153l-802 -773h667l-30 -147h-875z" />
<glyph unicode="{" horiz-adv-x="684" d="M84 459l31 141q90 14 139 79.5t78 203.5l74 340q29 135 103.5 202.5t174.5 67.5h96l-28 -133h-33q-76 0 -110 -28.5t-50 -108.5l-80 -371q-45 -223 -221 -322q57 -37 77.5 -78.5t20.5 -119.5q0 -66 -12 -125l-80 -371q-8 -33 -8 -67q0 -70 111 -70h32l-28 -135h-97 q-84 0 -130 43t-46 119q0 55 13 110l71 340q18 84 19 137q0 128 -117 146z" />
<glyph unicode="|" horiz-adv-x="532" d="M197 -436v1929h139v-1929h-139z" />
<glyph unicode="}" horiz-adv-x="684" d="M-135 -436l29 133h32q76 0 110 28.5t50 108.5l80 371q27 137 73 205.5t148 115.5q-98 86 -98 215q0 53 12 111l80 371q8 33 8 67q0 70 -110 70h-33l28 133h97q78 0 127 -46t49 -122q0 -45 -12 -102l-72 -340q-18 -92 -19 -148q0 -117 117 -135l-31 -143 q-174 -27 -217 -283l-73 -340q-59 -270 -279 -270h-96z" />
<glyph unicode="~" horiz-adv-x="1196" d="M178 600q39 143 111.5 220t171.5 77q55 0 104 -33l209 -141q53 -35 96 -35q104 0 138 154h106q-25 -139 -100.5 -216t-177.5 -77q-82 0 -152 53l-174 129q-43 31 -80 31q-96 0 -145 -162h-107z" />
<glyph unicode="&#xa1;" horiz-adv-x="569" d="M6 -420l152 717l137 432h82l-47 -432l-152 -717h-172zM279 862l45 211h172l-45 -211h-172z" />
<glyph unicode="&#xa2;" d="M94 350q0 303 160 514t428 238l39 184h82l-39 -184q135 0 233.5 -88t98.5 -211q0 -2 -1 -10.5t-2 -22.5t-1 -27l-2 -30h-172q2 18 2 47q0 156 -164 184l-25 4l-178 -839q109 12 179.5 73.5t117.5 186.5h172q-53 -203 -175 -303.5t-327 -112.5l-43 -199h-82l43 201 q-158 16 -251 123.5t-93 271.5zM274 375q0 -109 53.5 -178.5t145.5 -81.5l174 827q-164 -31 -268.5 -197.5t-104.5 -369.5z" />
<glyph unicode="&#xa3;" d="M-12 106q356 236 356 449q0 37 -20 102h-232l25 113h170q-12 37 -26.5 76t-21 54t-10.5 36.5t-4 46.5q0 199 176.5 354.5t401.5 155.5q170 0 275.5 -85t105.5 -222q0 -57 -19 -168h-180q18 68 19 117q0 92 -65 146t-173 54q-145 0 -244.5 -94t-99.5 -233q-2 -35 6 -62.5 t39 -118.5l18 -57h328l-25 -113h-280l2 -22q4 -53 4 -55q0 -70 -37 -150q-37 -84 -85 -130t-216 -175q160 80 273 80q55 0 108 -19q129 -43 209 -43q82 0 192 64l52 -144q-135 -111 -291 -110q-100 0 -285 72q-63 23 -129 22q-109 0 -242 -76z" />
<glyph unicode="&#xa4;" d="M20 295l136 115q-78 125 -37 309q37 188 166 307l-88 111l118 98l93 -115q143 104 319 104.5t274 -104.5l142 115l78 -98l-138 -111q78 -117 39 -307q-39 -180 -168 -309l86 -115l-112 -92l-88 119q-143 -113 -328 -113q-182 0 -283 113l-137 -119zM268 719 q-33 -150 48 -258.5t226.5 -108.5t271.5 108.5t159 258.5q31 145 -50 253.5t-226.5 108.5t-271.5 -108.5t-157 -253.5z" />
<glyph unicode="&#xa5;" d="M102 358l23 105h356l35 158h-358l22 104h316l-267 727h174l238 -659l508 659h174l-567 -727h315l-22 -104h-353l-34 -158h352l-21 -105h-354l-76 -358h-180l76 358h-357z" />
<glyph unicode="&#xa6;" horiz-adv-x="532" d="M197 336h139v-772h-139v772zM197 721v772h139v-772h-139z" />
<glyph unicode="&#xa7;" d="M27 -154q0 49 22 125h174q-16 -57 -16 -92q0 -70 50 -114t128 -44q94 0 161.5 62.5t67.5 146.5q0 80 -77 148l-297 254q-129 109 -129 229q0 139 98 252q35 39 68.5 62.5t125.5 72.5q-53 68 -53 158q0 152 134 269.5t307 117.5q137 0 225 -78t88 -198q0 -23 -3 -36.5 t-10.5 -41t-15.5 -66.5h-172q20 59 21 105q0 72 -46.5 114.5t-123.5 42.5q-86 0 -150.5 -61.5t-64.5 -140.5q0 -35 17 -60.5t69 -66.5l260 -207q102 -82 129.5 -128t27.5 -124q0 -133 -80.5 -245t-220.5 -157q61 -84 62 -178q0 -150 -131 -276.5t-314 -126.5 q-150 0 -240.5 77.5t-90.5 204.5zM291 633q0 -49 18.5 -83t71.5 -81l283 -248q199 102 198 252q0 98 -108 186l-269 218q-109 -61 -151.5 -115.5t-42.5 -128.5z" />
<glyph unicode="&#xa8;" horiz-adv-x="681" d="M242 1237l45 209h186l-45 -209h-186zM573 1237l45 209h187l-45 -209h-187z" />
<glyph unicode="&#xa9;" horiz-adv-x="1509" d="M43 684q0 295 209 505t504 210t504.5 -210t209.5 -505t-209.5 -504t-504.5 -209t-504 209t-209 504zM131 684q0 -260 182.5 -442.5t442.5 -182.5t443 182.5t183 442.5t-183 443.5t-443 183.5t-442.5 -183.5t-182.5 -443.5zM354 553q-2 104 39 212.5t111 186.5 q141 160 356 160q133 0 211 -72.5t86 -212.5h-131q-16 180 -188 181q-158 0 -263 -144q-94 -133 -90 -286q4 -96 60.5 -157t146.5 -61q113 0 177.5 51.5t119.5 172.5h135q-76 -174 -180 -251t-268 -77q-147 0 -232.5 81t-89.5 216z" />
<glyph unicode="&#xaa;" horiz-adv-x="757" d="M117 621l22 104h590l-22 -104h-590zM176 981q0 119 103 182q72 45 274 66q68 8 88.5 19.5t30.5 47.5l4 17q4 20 4 30q0 72 -127 72q-129 0 -164 -117h-115q37 131 107 176.5t207 45.5q98 0 155.5 -36t57.5 -100q0 -31 -2 -36l-84 -390l-2 -14q0 -10 10 -19.5t25 -9.5 l18 3l16 2l-18 -91l-21 -4q-35 -8 -53 -8q-86 0 -96 88q-94 -88 -223 -88q-94 0 -144.5 43t-50.5 121zM299 995q0 -76 109 -75q70 0 136 43t77 92l20 104q-41 -14 -104 -22q-147 -20 -192.5 -52.5t-45.5 -89.5z" />
<glyph unicode="&#xab;" d="M199 465l39 182l362 250l-37 -170l-248 -172l177 -170l-37 -168zM618 465l39 182l363 250l-37 -170l-248 -172l176 -170l-37 -168z" />
<glyph unicode="&#xac;" horiz-adv-x="1196" d="M139 629v139h918v-442h-139v303h-779z" />
<glyph unicode="&#xad;" horiz-adv-x="681" d="M96 492l31 147h489l-30 -147h-490z" />
<glyph unicode="&#xae;" horiz-adv-x="1509" d="M43 684q0 295 209 505t504 210t504.5 -210t209.5 -505t-209.5 -504t-504.5 -209t-504 209t-209 504zM131 684q0 -260 182.5 -442.5t442.5 -182.5t443 182.5t183 442.5t-183 443.5t-443 183.5t-442.5 -183.5t-182.5 -443.5zM346 276l174 816h412q233 0 235 -177 q2 -150 -155 -235q66 -41 65 -105q0 -35 -22 -153q-6 -33 -6 -53q4 -37 28 -56l-8 -37h-149q-6 39 -7 58q-2 37 25 147q8 31 8 64q0 76 -117 76h-280l-74 -345h-129zM571 727h271q96 0 146 47t48 121q-2 45 -33.5 67.5t-105.5 22.5h-270z" />
<glyph unicode="&#xaf;" horiz-adv-x="681" d="M223 1272l31 141h563l-31 -141h-563z" />
<glyph unicode="&#xb0;" horiz-adv-x="819" d="M250 1141q29 127 132 213t230 86t194.5 -86t41 -213t-131 -213t-231.5 -86t-194.5 86t-40.5 213zM348 1141q-16 -82 30 -146.5t126 -64.5t154.5 64.5t91.5 146.5q18 82 -29 146.5t-127 64.5t-154 -64.5t-92 -146.5z" />
<glyph unicode="&#xb1;" horiz-adv-x="1196" d="M139 0v139h918v-139h-918zM139 582v139h389v389h140v-389h389v-139h-389v-318h-140v318h-389z" />
<glyph unicode="&#xb2;" horiz-adv-x="681" d="M102 686q35 131 95.5 199.5t203.5 136.5l119 57q117 55 135 142q12 57 -22.5 96t-100.5 39q-147 0 -196 -178h-111q66 274 330 274q117 0 177.5 -63.5t37.5 -163.5q-31 -143 -223 -232l-125 -59q-66 -29 -100.5 -60.5t-61.5 -82.5h412l-23 -105h-547z" />
<glyph unicode="&#xb3;" horiz-adv-x="681" d="M162 918h112q-14 -84 17 -123t112 -39q76 0 128.5 39t66.5 108q16 78 -30 103.5t-167 25.5l21 92q115 0 161 22.5t60 86.5q12 57 -17.5 90t-93.5 33q-78 0 -120.5 -37t-61.5 -123h-112q61 256 315 256q115 0 170 -58.5t33 -158.5q-23 -106 -135 -152q117 -45 90 -180 q-25 -111 -114 -176t-216 -65q-131 0 -188.5 66.5t-30.5 189.5z" />
<glyph unicode="&#xb4;" horiz-adv-x="681" d="M430 1190l262 303h230l-369 -303h-123z" />
<glyph unicode="&#xb5;" d="M-66 -451l324 1524h172l-158 -745q-6 -31 -6 -62q0 -76 47 -120t129 -44q131 0 232.5 99.5t136.5 263.5l129 608h172l-190 -893q-2 -6 -2 -22q0 -63 77 -64q10 0 35 6l-28 -129q-106 -18 -111 -18q-82 0 -118 29.5t-36 101.5q0 14 6 39q-164 -170 -374 -170 q-106 0 -166 59l-99 -463h-172z" />
<glyph unicode="&#xb6;" horiz-adv-x="1099" d="M195 893q0 233 176 416.5t401 183.5h512l-29 -131h-114l-367 -1727h-131l367 1727h-170l-367 -1727h-131l190 895q-158 4 -247.5 101.5t-89.5 261.5z" />
<glyph unicode="&#xb7;" horiz-adv-x="569" d="M178 512q0 45 31 75.5t76 30.5t75.5 -30.5t30.5 -75.5t-30.5 -75.5t-75.5 -30.5t-76 30.5t-31 75.5z" />
<glyph unicode="&#xb8;" horiz-adv-x="681" d="M-100 -401l57 77q117 -59 193 -59q57 0 93 32t36 81q0 35 -18.5 56t-45.5 21q-29 0 -55 -8l-47 13l104 198h105l-64 -121h43q55 0 96 -42t41 -95q0 -104 -83 -163.5t-214 -59.5q-104 0 -241 70z" />
<glyph unicode="&#xb9;" horiz-adv-x="681" d="M299 1219l18 84l27 2q96 6 136 33.5t83 113.5h76l-164 -766h-110l112 533h-178z" />
<glyph unicode="&#xba;" horiz-adv-x="747" d="M131 621l23 104h538l-22 -104h-539zM203 1042q0 207 106.5 342.5t276.5 135.5q113 0 175 -64.5t62 -171.5q0 -197 -108.5 -332t-280.5 -135q-102 0 -166.5 62.5t-64.5 162.5zM326 1075q0 -72 35.5 -111.5t101.5 -39.5q100 0 168.5 98t68.5 242q0 70 -35.5 109.5 t-97.5 39.5q-102 0 -171.5 -97.5t-69.5 -240.5z" />
<glyph unicode="&#xbb;" d="M145 217l37 170l252 172l-180 170l37 168l260 -248l-39 -182zM553 217l37 170l252 172l-180 170l36 168l260 -248l-38 -182z" />
<glyph unicode="&#xbc;" horiz-adv-x="1708" d="M238 -51l1245 1503h119l-1246 -1503h-118zM322 1219l18 84l27 2q96 6 136 33.5t83 113.5h76l-164 -766h-111l113 533h-178zM936 180l22 107l469 479h82l-102 -490h121l-21 -96h-121l-38 -180h-111l39 180h-340zM1063 276h233l64 306z" />
<glyph unicode="&#xbd;" horiz-adv-x="1708" d="M147 -51l1246 1503h118l-1245 -1503h-119zM322 1219l18 84l27 2q96 6 136 33.5t83 113.5h76l-164 -766h-111l113 533h-178zM907 0q33 131 94.5 199.5t204.5 138.5l117 55q119 55 135 142q14 57 -21.5 96t-101.5 39q-145 0 -194 -178h-113q66 274 330 274q117 0 177 -63.5 t40 -163.5q-31 -143 -223 -232l-125 -59q-66 -29 -100.5 -60.5t-61.5 -83.5h412l-23 -104h-547z" />
<glyph unicode="&#xbe;" horiz-adv-x="1708" d="M223 918h113q-14 -84 16.5 -123t112.5 -39q76 0 128 39t66 108q16 78 -29.5 103.5t-166.5 25.5l20 92q115 0 161 22.5t61 86.5q12 57 -18 90t-93 33q-78 0 -121 -37t-61 -123h-113q61 256 315 256q115 0 170.5 -58.5t32.5 -158.5q-23 -106 -135 -152q117 -45 90 -180 q-25 -111 -114 -176t-216 -65q-131 0 -188.5 66.5t-30.5 189.5zM279 -51l1245 1503h118l-1245 -1503h-118zM915 180l23 107l469 479h82l-103 -490h121l-20 -96h-121l-39 -180h-110l38 180h-340zM1042 276h234l63 306z" />
<glyph unicode="&#xbf;" d="M-14 -135q0 119 69.5 226.5t227.5 223.5q115 86 153.5 132.5t59.5 121.5l20 97h184l-24 -113q-20 -92 -65.5 -146.5t-213.5 -187.5q-119 -94 -167 -168t-48 -162q0 -78 61.5 -127t157.5 -49q135 0 212 77t112 245h174q-96 -479 -543 -479q-174 0 -272 88t-98 221z M557 862l45 211h184l-45 -211h-184z" />
<glyph unicode="&#xc0;" horiz-adv-x="1366" d="M-68 0l850 1493h246l207 -1493h-209l-55 449h-584l-252 -449h-203zM477 608h473l-82 682zM528 1876h275l198 -272h-147z" />
<glyph unicode="&#xc1;" horiz-adv-x="1366" d="M-68 0l850 1493h246l207 -1493h-209l-55 449h-584l-252 -449h-203zM477 608h473l-82 682zM854 1604l315 272h275l-443 -272h-147z" />
<glyph unicode="&#xc2;" horiz-adv-x="1366" d="M-68 0l850 1493h246l207 -1493h-209l-55 449h-584l-252 -449h-203zM477 608h473l-82 682zM575 1604l316 276h233l156 -276h-154l-137 182l-256 -182h-158z" />
<glyph unicode="&#xc3;" horiz-adv-x="1366" d="M-68 0l850 1493h246l207 -1493h-209l-55 449h-584l-252 -449h-203zM477 608h473l-82 682zM594 1630q39 113 88 162t125 49q14 0 132 -32.5t146 -32.5q31 0 50.5 15t48.5 60h108q-33 -100 -92 -159.5t-129 -59.5q-55 0 -211 54q-33 12 -55 12q-35 0 -53.5 -13.5 t-49.5 -54.5h-108z" />
<glyph unicode="&#xc4;" horiz-adv-x="1366" d="M-68 0l850 1493h246l207 -1493h-209l-55 449h-584l-252 -449h-203zM477 608h473l-82 682zM676 1636l45 209h186l-45 -209h-186zM1008 1636l45 209h186l-45 -209h-186z" />
<glyph unicode="&#xc5;" horiz-adv-x="1366" d="M-68 0l850 1493h246l207 -1493h-209l-55 449h-584l-252 -449h-203zM477 608h473l-82 682zM762 1733q0 88 75.5 161.5t168.5 73.5q70 0 115.5 -43t45.5 -106q0 -96 -74.5 -170t-170.5 -74q-68 0 -114 46t-46 112zM866 1753q0 -35 21.5 -57.5t56.5 -22.5q45 0 83 37t38 80 q0 35 -21.5 57.5t-54.5 22.5q-47 0 -85 -37t-38 -80z" />
<glyph unicode="&#xc6;" horiz-adv-x="2048" d="M-80 0l930 1493h1274l-35 -168h-760l-100 -477h719l-37 -168h-719l-109 -512h795l-35 -168h-987l92 438h-551l-266 -438h-211zM498 604h487l152 721h-205z" />
<glyph unicode="&#xc7;" horiz-adv-x="1478" d="M129 506q0 193 70.5 391.5t191.5 343.5q240 289 598 289q217 0 345 -127t141 -373h-197q-25 334 -324 334q-279 0 -462 -272q-166 -248 -166 -549q0 -186 97 -300t257 -114q193 0 307.5 95t214.5 321h201q-125 -295 -288 -431.5t-408 -148.5l-39 -76h43q55 0 96 -42 t41 -95q0 -104 -83 -163.5t-214 -59.5q-104 0 -242 70l58 77q117 -59 192 -59q57 0 93 32t36 81q0 35 -18.5 56t-44.5 21q-29 0 -56 -8l-47 13l80 153q-221 14 -347 161t-126 380z" />
<glyph unicode="&#xc8;" horiz-adv-x="1366" d="M82 0l317 1493h1037l-35 -168h-844l-102 -477h811l-37 -168h-809l-111 -512h879l-35 -168h-1071zM541 1876h274l199 -272h-148z" />
<glyph unicode="&#xc9;" horiz-adv-x="1366" d="M82 0l317 1493h1037l-35 -168h-844l-102 -477h811l-37 -168h-809l-111 -512h879l-35 -168h-1071zM866 1604l316 272h274l-442 -272h-148z" />
<glyph unicode="&#xca;" horiz-adv-x="1366" d="M82 0l317 1493h1037l-35 -168h-844l-102 -477h811l-37 -168h-809l-111 -512h879l-35 -168h-1071zM588 1604l315 276h234l155 -276h-153l-138 182l-256 -182h-157z" />
<glyph unicode="&#xcb;" horiz-adv-x="1366" d="M82 0l317 1493h1037l-35 -168h-844l-102 -477h811l-37 -168h-809l-111 -512h879l-35 -168h-1071zM688 1636l45 209h187l-46 -209h-186zM1020 1636l45 209h186l-45 -209h-186z" />
<glyph unicode="&#xcc;" horiz-adv-x="569" d="M102 0l318 1493h192l-317 -1493h-193zM162 1876h274l199 -272h-148z" />
<glyph unicode="&#xcd;" horiz-adv-x="569" d="M102 0l318 1493h192l-317 -1493h-193zM442 1604l316 272h274l-442 -272h-148z" />
<glyph unicode="&#xce;" horiz-adv-x="569" d="M102 0l318 1493h192l-317 -1493h-193zM186 1604l316 276h233l156 -276h-154l-137 182l-256 -182h-158z" />
<glyph unicode="&#xcf;" horiz-adv-x="569" d="M102 0l318 1493h192l-317 -1493h-193zM287 1636l45 209h186l-45 -209h-186zM618 1636l46 209h186l-45 -209h-187z" />
<glyph unicode="&#xd0;" horiz-adv-x="1478" d="M80 0l147 698h-139l27 138h143l139 657h578q223 0 350 -138t127 -356q0 -422 -230.5 -710.5t-564.5 -288.5h-577zM307 168h352q264 0 430 230.5t166 584.5q0 162 -93 252t-257 90h-350l-104 -489h340l-29 -138h-342z" />
<glyph unicode="&#xd1;" horiz-adv-x="1478" d="M53 0l318 1493h213l512 -1225l260 1225h182l-317 -1493h-217l-510 1210l-258 -1210h-183zM643 1630q39 113 88 162t125 49q14 0 132 -32.5t147 -32.5q31 0 50 15t48 60h108q-33 -100 -92 -159.5t-129 -59.5q-55 0 -211 54q-35 12 -55 12q-35 0 -53.5 -13.5t-48.5 -54.5 h-109z" />
<glyph unicode="&#xd2;" horiz-adv-x="1593" d="M113 549q0 250 116.5 475t322.5 365.5t447 140.5q279 0 437.5 -149.5t158.5 -417.5q0 -260 -108.5 -486.5t-316 -370t-470.5 -143.5q-274 0 -430.5 152.5t-156.5 433.5zM309 565q0 -207 114 -321.5t304.5 -114.5t347 114.5t240.5 296t84 386.5q0 207 -114 322.5 t-310 115.5q-188 0 -343 -114.5t-239 -297t-84 -387.5zM616 1876h275l199 -272h-148z" />
<glyph unicode="&#xd3;" horiz-adv-x="1593" d="M113 549q0 250 116.5 475t322.5 365.5t447 140.5q279 0 437.5 -149.5t158.5 -417.5q0 -260 -108.5 -486.5t-316 -370t-470.5 -143.5q-274 0 -430.5 152.5t-156.5 433.5zM309 565q0 -207 114 -321.5t304.5 -114.5t347 114.5t240.5 296t84 386.5q0 207 -114 322.5 t-310 115.5q-188 0 -343 -114.5t-239 -297t-84 -387.5zM940 1604l315 272h275l-443 -272h-147z" />
<glyph unicode="&#xd4;" horiz-adv-x="1593" d="M113 549q0 250 116.5 475t322.5 365.5t447 140.5q279 0 437.5 -149.5t158.5 -417.5q0 -260 -108.5 -486.5t-316 -370t-470.5 -143.5q-274 0 -430.5 152.5t-156.5 433.5zM309 565q0 -207 114 -321.5t304.5 -114.5t347 114.5t240.5 296t84 386.5q0 207 -114 322.5 t-310 115.5q-188 0 -343 -114.5t-239 -297t-84 -387.5zM662 1604l315 276h233l156 -276h-154l-137 182l-256 -182h-157z" />
<glyph unicode="&#xd5;" horiz-adv-x="1593" d="M113 549q0 250 116.5 475t322.5 365.5t447 140.5q279 0 437.5 -149.5t158.5 -417.5q0 -260 -108.5 -486.5t-316 -370t-470.5 -143.5q-274 0 -430.5 152.5t-156.5 433.5zM309 565q0 -207 114 -321.5t304.5 -114.5t347 114.5t240.5 296t84 386.5q0 207 -114 322.5 t-310 115.5q-188 0 -343 -114.5t-239 -297t-84 -387.5zM682 1630q39 113 88 162t125 49q14 0 132 -32.5t147 -32.5q31 0 50 15t48 60h108q-33 -100 -92 -159.5t-129 -59.5q-55 0 -211 54q-33 12 -55 12q-35 0 -53.5 -13.5t-48.5 -54.5h-109z" />
<glyph unicode="&#xd6;" horiz-adv-x="1593" d="M113 549q0 250 116.5 475t322.5 365.5t447 140.5q279 0 437.5 -149.5t158.5 -417.5q0 -260 -108.5 -486.5t-316 -370t-470.5 -143.5q-274 0 -430.5 152.5t-156.5 433.5zM309 565q0 -207 114 -321.5t304.5 -114.5t347 114.5t240.5 296t84 386.5q0 207 -114 322.5 t-310 115.5q-188 0 -343 -114.5t-239 -297t-84 -387.5zM764 1636l45 209h186l-45 -209h-186zM1096 1636l45 209h186l-45 -209h-186z" />
<glyph unicode="&#xd7;" horiz-adv-x="1196" d="M225 238l275 274l-275 274l99 99l274 -275l274 275l99 -99l-275 -274l275 -274l-99 -99l-274 275l-274 -275z" />
<glyph unicode="&#xd8;" horiz-adv-x="1593" d="M-16 43l204 180q-76 135 -75 326q0 250 116.5 475t322.5 365.5t447 140.5q305 0 465 -176l193 172l67 -76l-202 -178q74 -125 73 -309q0 -260 -108.5 -486.5t-316 -370t-470.5 -143.5q-299 0 -454 178l-197 -174zM309 565q0 -115 37 -200l965 854q-111 145 -336 145 q-188 0 -343 -114.5t-239 -297t-84 -387.5zM397 274q115 -145 330 -145q190 0 347 114.5t241 296t84 386.5q0 115 -37 204z" />
<glyph unicode="&#xd9;" horiz-adv-x="1478" d="M154 328q0 61 28 196l207 969h193l-222 -1038q-10 -41 -10 -90q0 -106 91 -171t239 -65q174 0 292 87t150 239l221 1038h193l-221 -1038q-47 -223 -230.5 -357.5t-441.5 -134.5q-219 0 -354 102.5t-135 262.5zM586 1876h274l199 -272h-148z" />
<glyph unicode="&#xda;" horiz-adv-x="1478" d="M154 328q0 61 28 196l207 969h193l-222 -1038q-10 -41 -10 -90q0 -106 91 -171t239 -65q174 0 292 87t150 239l221 1038h193l-221 -1038q-47 -223 -230.5 -357.5t-441.5 -134.5q-219 0 -354 102.5t-135 262.5zM911 1604l316 272h274l-442 -272h-148z" />
<glyph unicode="&#xdb;" horiz-adv-x="1478" d="M154 328q0 61 28 196l207 969h193l-222 -1038q-10 -41 -10 -90q0 -106 91 -171t239 -65q174 0 292 87t150 239l221 1038h193l-221 -1038q-47 -223 -230.5 -357.5t-441.5 -134.5q-219 0 -354 102.5t-135 262.5zM633 1604l315 276h234l155 -276h-153l-137 182l-256 -182 h-158z" />
<glyph unicode="&#xdc;" horiz-adv-x="1478" d="M154 328q0 61 28 196l207 969h193l-222 -1038q-10 -41 -10 -90q0 -106 91 -171t239 -65q174 0 292 87t150 239l221 1038h193l-221 -1038q-47 -223 -230.5 -357.5t-441.5 -134.5q-219 0 -354 102.5t-135 262.5zM733 1636l45 209h187l-45 -209h-187zM1065 1636l45 209h186 l-45 -209h-186z" />
<glyph unicode="&#xdd;" horiz-adv-x="1366" d="M242 1493h229l279 -731l591 731h228l-754 -907l-125 -586h-192l125 586zM860 1604l316 272h274l-442 -272h-148z" />
<glyph unicode="&#xde;" horiz-adv-x="1366" d="M84 0l317 1493h193l-51 -242h426q379 0 379 -329q0 -215 -147.5 -373t-373.5 -158h-467l-84 -391h-192zM395 559h398q158 0 258 94.5t100 231.5q0 199 -246 198h-399z" />
<glyph unicode="&#xdf;" horiz-adv-x="1251" d="M41 0l233 1102q35 168 191 279.5t344 111.5q172 0 290 -85t118 -224q0 -117 -77 -219.5t-196 -143.5q100 -29 157.5 -107.5t57.5 -185.5q0 -45 -8 -79q-47 -225 -199.5 -357.5t-363.5 -132.5q-96 0 -170 8l37 170q82 -10 153 -10q150 0 261.5 113.5t111.5 277.5 q0 111 -83 154t-251 43l35 168q131 0 241.5 74.5t110.5 191.5q0 84 -73.5 134t-180.5 50q-117 0 -216 -65.5t-120 -165.5l-233 -1102h-170z" />
<glyph unicode="&#xe0;" d="M33 223q0 182 166 287q74 47 163 67.5t297 40.5q111 10 154 35t53 86l6 37q4 33 5 39q0 57 -62.5 94t-155.5 37q-221 0 -280 -190h-172q29 170 157 259t341 89q162 0 259 -63.5t97 -168.5q0 -20 -12 -75l-125 -588q-2 -6 -2 -21q0 -59 77 -59q16 0 35 4l-26 -133 q-104 -18 -109 -18q-80 0 -121 23.5t-41 82.5l2 31q-109 -90 -202 -120t-207 -30q-139 0 -218 66.5t-79 187.5zM213 244q0 -127 184 -127q135 0 251 70.5t136 164.5l37 176q-88 -31 -299 -59q-164 -23 -236.5 -76t-72.5 -149zM422 1493h229l133 -303h-122z" />
<glyph unicode="&#xe1;" d="M33 223q0 182 166 287q74 47 163 67.5t297 40.5q111 10 154 35t53 86l6 37q4 33 5 39q0 57 -62.5 94t-155.5 37q-221 0 -280 -190h-172q29 170 157 259t341 89q162 0 259 -63.5t97 -168.5q0 -20 -12 -75l-125 -588q-2 -6 -2 -21q0 -59 77 -59q16 0 35 4l-26 -133 q-104 -18 -109 -18q-80 0 -121 23.5t-41 82.5l2 31q-109 -90 -202 -120t-207 -30q-139 0 -218 66.5t-79 187.5zM213 244q0 -127 184 -127q135 0 251 70.5t136 164.5l37 176q-88 -31 -299 -59q-164 -23 -236.5 -76t-72.5 -149zM659 1190l263 303h229l-369 -303h-123z" />
<glyph unicode="&#xe2;" d="M33 223q0 182 166 287q74 47 163 67.5t297 40.5q111 10 154 35t53 86l6 37q4 33 5 39q0 57 -62.5 94t-155.5 37q-221 0 -280 -190h-172q29 170 157 259t341 89q162 0 259 -63.5t97 -168.5q0 -20 -12 -75l-125 -588q-2 -6 -2 -21q0 -59 77 -59q16 0 35 4l-26 -133 q-104 -18 -109 -18q-80 0 -121 23.5t-41 82.5l2 31q-109 -90 -202 -120t-207 -30q-139 0 -218 66.5t-79 187.5zM213 244q0 -127 184 -127q135 0 251 70.5t136 164.5l37 176q-88 -31 -299 -59q-164 -23 -236.5 -76t-72.5 -149zM426 1188l262 307h195l131 -307h-129l-115 203 l-213 -203h-131z" />
<glyph unicode="&#xe3;" d="M33 223q0 182 166 287q74 47 163 67.5t297 40.5q111 10 154 35t53 86l6 37q4 33 5 39q0 57 -62.5 94t-155.5 37q-221 0 -280 -190h-172q29 170 157 259t341 89q162 0 259 -63.5t97 -168.5q0 -20 -12 -75l-125 -588q-2 -6 -2 -21q0 -59 77 -59q16 0 35 4l-26 -133 q-104 -18 -109 -18q-80 0 -121 23.5t-41 82.5l2 31q-109 -90 -202 -120t-207 -30q-139 0 -218 66.5t-79 187.5zM213 244q0 -127 184 -127q135 0 251 70.5t136 164.5l37 176q-88 -31 -299 -59q-164 -23 -236.5 -76t-72.5 -149zM389 1231q39 113 88 162t125 49q14 0 132 -33 t147 -33q31 0 50 15.5t48 60.5h108q-33 -100 -92 -159.5t-129 -59.5q-55 0 -211 53q-33 12 -55 12q-35 0 -53.5 -13t-48.5 -54h-109z" />
<glyph unicode="&#xe4;" d="M33 223q0 182 166 287q74 47 163 67.5t297 40.5q111 10 154 35t53 86l6 37q4 33 5 39q0 57 -62.5 94t-155.5 37q-221 0 -280 -190h-172q29 170 157 259t341 89q162 0 259 -63.5t97 -168.5q0 -20 -12 -75l-125 -588q-2 -6 -2 -21q0 -59 77 -59q16 0 35 4l-26 -133 q-104 -18 -109 -18q-80 0 -121 23.5t-41 82.5l2 31q-109 -90 -202 -120t-207 -30q-139 0 -218 66.5t-79 187.5zM213 244q0 -127 184 -127q135 0 251 70.5t136 164.5l37 176q-88 -31 -299 -59q-164 -23 -236.5 -76t-72.5 -149zM471 1237l45 209h186l-45 -209h-186zM803 1237 l45 209h186l-45 -209h-186z" />
<glyph unicode="&#xe5;" d="M33 223q0 182 166 287q74 47 163 67.5t297 40.5q111 10 154 35t53 86l6 37q4 33 5 39q0 57 -62.5 94t-155.5 37q-221 0 -280 -190h-172q29 170 157 259t341 89q162 0 259 -63.5t97 -168.5q0 -20 -12 -75l-125 -588q-2 -6 -2 -21q0 -59 77 -59q16 0 35 4l-26 -133 q-104 -18 -109 -18q-80 0 -121 23.5t-41 82.5l2 31q-109 -90 -202 -120t-207 -30q-139 0 -218 66.5t-79 187.5zM213 244q0 -127 184 -127q135 0 251 70.5t136 164.5l37 176q-88 -31 -299 -59q-164 -23 -236.5 -76t-72.5 -149zM551 1303q0 88 75.5 161.5t168.5 73.5 q70 0 115.5 -43t45.5 -106q0 -96 -74.5 -170t-170.5 -74q-68 0 -114 46t-46 112zM655 1323q0 -35 21.5 -57.5t56.5 -22.5q45 0 83 37t38 80q0 35 -21.5 57.5t-54.5 22.5q-47 0 -85 -37t-38 -80z" />
<glyph unicode="&#xe6;" horiz-adv-x="1820" d="M18 215q0 88 45.5 167t122.5 128q76 47 163 66.5t292 37.5q109 10 149.5 35t55.5 90l10 52q4 29 4 38q0 53 -57.5 85t-155.5 32q-121 0 -188.5 -45t-100.5 -145h-172q43 158 109 223q129 125 395 125q113 0 207 -38t119 -95q150 133 373 133q156 0 269.5 -102.5 t113.5 -243.5q0 -90 -29 -244l-6 -35h-791q-10 -45 -10 -108v-37q4 -76 74.5 -141.5t185.5 -65.5q203 0 313 199h172q-47 -156 -190 -256.5t-328 -100.5q-240 0 -356 209q-215 -209 -494 -209q-135 0 -215 63.5t-80 182.5zM201 244q0 -127 186 -127q129 0 242.5 71.5 t134.5 163.5l37 174q-88 -31 -291 -57q-166 -23 -237.5 -76t-71.5 -149zM983 627h602q6 45 6 67q0 115 -63.5 183.5t-171.5 68.5q-127 0 -226.5 -84.5t-146.5 -234.5z" />
<glyph unicode="&#xe7;" horiz-adv-x="1024" d="M55 356q0 328 172 538t451 210q158 0 256 -89t98 -212q0 -2 -1 -10.5t-2 -22.5t-1 -27l-2 -30h-172q2 18 2 45q0 88 -56.5 138t-152.5 50q-178 0 -294.5 -170t-116.5 -397q0 -119 63 -185.5t170 -66.5q229 0 317 242h172q-59 -201 -174.5 -295t-298.5 -103l-43 -82h43 q55 0 96.5 -42t41.5 -95q0 -104 -83 -163.5t-214 -59.5q-104 0 -242 70l57 77q117 -59 193 -59q57 0 93 32t36 81q0 35 -18.5 56t-45.5 21q-29 0 -55 -8l-47 13l84 161q-152 18 -239 122.5t-87 260.5z" />
<glyph unicode="&#xe8;" d="M72 362q0 125 49 274.5t121 246.5q76 102 197.5 161.5t254.5 59.5q166 0 278.5 -101.5t112.5 -248.5q0 -86 -28 -240l-4 -27h-791q-12 -49 -10 -94q0 -129 66.5 -197.5t189.5 -68.5q205 0 315 199h172q-47 -164 -188 -260.5t-328 -96.5q-182 0 -294.5 114.5t-112.5 278.5 zM299 635h602q4 49 4 59q0 115 -64.5 183.5t-172.5 68.5q-123 0 -226.5 -88t-142.5 -223zM420 1493h229l133 -303h-123z" />
<glyph unicode="&#xe9;" d="M72 362q0 125 49 274.5t121 246.5q76 102 197.5 161.5t254.5 59.5q166 0 278.5 -101.5t112.5 -248.5q0 -86 -28 -240l-4 -27h-791q-12 -49 -10 -94q0 -129 66.5 -197.5t189.5 -68.5q205 0 315 199h172q-47 -164 -188 -260.5t-328 -96.5q-182 0 -294.5 114.5t-112.5 278.5 zM299 635h602q4 49 4 59q0 115 -64.5 183.5t-172.5 68.5q-123 0 -226.5 -88t-142.5 -223zM657 1190l263 303h229l-369 -303h-123z" />
<glyph unicode="&#xea;" d="M72 362q0 125 49 274.5t121 246.5q76 102 197.5 161.5t254.5 59.5q166 0 278.5 -101.5t112.5 -248.5q0 -86 -28 -240l-4 -27h-791q-12 -49 -10 -94q0 -129 66.5 -197.5t189.5 -68.5q205 0 315 199h172q-47 -164 -188 -260.5t-328 -96.5q-182 0 -294.5 114.5t-112.5 278.5 zM299 635h602q4 49 4 59q0 115 -64.5 183.5t-172.5 68.5q-123 0 -226.5 -88t-142.5 -223zM424 1188l262 307h195l131 -307h-129l-115 203l-213 -203h-131z" />
<glyph unicode="&#xeb;" d="M72 362q0 125 49 274.5t121 246.5q76 102 197.5 161.5t254.5 59.5q166 0 278.5 -101.5t112.5 -248.5q0 -86 -28 -240l-4 -27h-791q-12 -49 -10 -94q0 -129 66.5 -197.5t189.5 -68.5q205 0 315 199h172q-47 -164 -188 -260.5t-328 -96.5q-182 0 -294.5 114.5t-112.5 278.5 zM299 635h602q4 49 4 59q0 115 -64.5 183.5t-172.5 68.5q-123 0 -226.5 -88t-142.5 -223zM469 1237l45 209h186l-45 -209h-186zM801 1237l45 209h186l-45 -209h-186z" />
<glyph unicode="&#xec;" horiz-adv-x="569" d="M96 0l228 1073h172l-228 -1073h-172zM160 1493h229l133 -303h-123z" />
<glyph unicode="&#xed;" horiz-adv-x="569" d="M96 0l228 1073h172l-228 -1073h-172zM350 1190l262 303h230l-369 -303h-123z" />
<glyph unicode="&#xee;" horiz-adv-x="569" d="M96 0l228 1073h172l-228 -1073h-172zM139 1188l262 307h195l131 -307h-129l-115 203l-213 -203h-131z" />
<glyph unicode="&#xef;" horiz-adv-x="569" d="M96 0l228 1073h172l-228 -1073h-172zM184 1237l45 209h187l-45 -209h-187zM516 1237l45 209h187l-46 -209h-186z" />
<glyph unicode="&#xf0;" d="M66 352q-2 188 66.5 356.5t206.5 277t314 108.5q66 0 135 -35q-78 102 -172 188l-204 -92l-66 80l182 84q-23 20 -35 29.5t-19 11.5t-33 20l-66 50l86 92l45 -29q70 -41 164 -109l202 89l80 -78l-194 -84q319 -274 319 -600q0 -311 -174 -526.5t-442 -215.5 q-182 0 -288.5 107.5t-106.5 275.5zM246 393q0 -123 63.5 -194.5t171.5 -71.5q180 0 298 162t118 393q0 125 -63.5 194.5t-176.5 69.5q-178 0 -294.5 -163t-116.5 -390z" />
<glyph unicode="&#xf1;" d="M41 0l227 1073h156l-27 -133q160 164 398 164q127 0 202.5 -69.5t75.5 -186.5q0 -43 -8 -78l-164 -770h-172l152 715q12 66 12 76q0 72 -51 118.5t-127 46.5q-139 0 -240.5 -98t-136.5 -266l-125 -592h-172zM387 1231q39 113 88 162t125 49q14 0 132 -33t147 -33 q31 0 50 15.5t48 60.5h108q-33 -100 -92 -159.5t-129 -59.5q-55 0 -211 53q-35 12 -55 12q-35 0 -53.5 -13t-48.5 -54h-109z" />
<glyph unicode="&#xf2;" d="M63 344q0 205 74 377t217.5 277.5t329.5 105.5q180 0 286.5 -108.5t106.5 -274.5q0 -324 -174 -538t-450 -214q-174 0 -282 102.5t-108 272.5zM244 385q0 -121 63.5 -189.5t173.5 -68.5q180 0 298 162t118 393q0 125 -63.5 194.5t-176.5 69.5q-178 0 -295.5 -167 t-117.5 -394zM401 1493h230l133 -303h-123z" />
<glyph unicode="&#xf3;" d="M63 344q0 205 74 377t217.5 277.5t329.5 105.5q180 0 286.5 -108.5t106.5 -274.5q0 -324 -174 -538t-450 -214q-174 0 -282 102.5t-108 272.5zM244 385q0 -121 63.5 -189.5t173.5 -68.5q180 0 298 162t118 393q0 125 -63.5 194.5t-176.5 69.5q-178 0 -295.5 -167 t-117.5 -394zM639 1190l262 303h229l-368 -303h-123z" />
<glyph unicode="&#xf4;" d="M63 344q0 205 74 377t217.5 277.5t329.5 105.5q180 0 286.5 -108.5t106.5 -274.5q0 -324 -174 -538t-450 -214q-174 0 -282 102.5t-108 272.5zM244 385q0 -121 63.5 -189.5t173.5 -68.5q180 0 298 162t118 393q0 125 -63.5 194.5t-176.5 69.5q-178 0 -295.5 -167 t-117.5 -394zM406 1188l262 307h194l131 -307h-129l-114 203l-213 -203h-131z" />
<glyph unicode="&#xf5;" d="M63 344q0 205 74 377t217.5 277.5t329.5 105.5q180 0 286.5 -108.5t106.5 -274.5q0 -324 -174 -538t-450 -214q-174 0 -282 102.5t-108 272.5zM244 385q0 -121 63.5 -189.5t173.5 -68.5q180 0 298 162t118 393q0 125 -63.5 194.5t-176.5 69.5q-178 0 -295.5 -167 t-117.5 -394zM369 1231q39 113 88 162t125 49q14 0 131.5 -33t146.5 -33q31 0 50.5 15.5t47.5 60.5h109q-33 -100 -92.5 -159.5t-128.5 -59.5q-55 0 -211 53q-33 12 -55 12q-35 0 -53.5 -13t-49.5 -54h-108z" />
<glyph unicode="&#xf6;" d="M63 344q0 205 74 377t217.5 277.5t329.5 105.5q180 0 286.5 -108.5t106.5 -274.5q0 -324 -174 -538t-450 -214q-174 0 -282 102.5t-108 272.5zM244 385q0 -121 63.5 -189.5t173.5 -68.5q180 0 298 162t118 393q0 125 -63.5 194.5t-176.5 69.5q-178 0 -295.5 -167 t-117.5 -394zM451 1237l45 209h186l-45 -209h-186zM782 1237l45 209h187l-45 -209h-187z" />
<glyph unicode="&#xf7;" horiz-adv-x="1196" d="M139 442v140h918v-140h-918zM492 139q0 43 30.5 75t75.5 32t76 -32t31 -75q0 -45 -31 -75.5t-76 -30.5t-75.5 30.5t-30.5 75.5zM492 885q0 45 30.5 75.5t75.5 30.5t76 -30.5t31 -75.5q0 -43 -31 -75t-76 -32t-75.5 32t-30.5 75z" />
<glyph unicode="&#xf8;" horiz-adv-x="1251" d="M-20 43l124 119q-41 78 -41 182q0 205 74 377t217.5 277.5t329.5 105.5q188 0 297 -119l119 109l61 -64l-127 -121q43 -82 43 -188q0 -324 -174 -538t-450 -214q-184 0 -295 117l-115 -106zM244 385q0 -53 10 -86l594 559q-63 88 -191 88q-178 0 -295.5 -167t-117.5 -394 zM293 213q63 -86 188 -86q180 0 298 162t118 393q0 43 -10 90z" />
<glyph unicode="&#xf9;" d="M82 193q0 39 6 69l172 811h172l-158 -743q-6 -31 -6 -56q0 -72 49.5 -114.5t133.5 -42.5q131 0 231 99t135 265l125 592h172l-227 -1073h-156l27 125q-170 -156 -393 -156q-133 0 -208 60t-75 164zM420 1493h229l133 -303h-123z" />
<glyph unicode="&#xfa;" d="M82 193q0 39 6 69l172 811h172l-158 -743q-6 -31 -6 -56q0 -72 49.5 -114.5t133.5 -42.5q131 0 231 99t135 265l125 592h172l-227 -1073h-156l27 125q-170 -156 -393 -156q-133 0 -208 60t-75 164zM657 1190l263 303h229l-369 -303h-123z" />
<glyph unicode="&#xfb;" d="M82 193q0 39 6 69l172 811h172l-158 -743q-6 -31 -6 -56q0 -72 49.5 -114.5t133.5 -42.5q131 0 231 99t135 265l125 592h172l-227 -1073h-156l27 125q-170 -156 -393 -156q-133 0 -208 60t-75 164zM424 1188l262 307h195l131 -307h-129l-115 203l-213 -203h-131z" />
<glyph unicode="&#xfc;" d="M82 193q0 39 6 69l172 811h172l-158 -743q-6 -31 -6 -56q0 -72 49.5 -114.5t133.5 -42.5q131 0 231 99t135 265l125 592h172l-227 -1073h-156l27 125q-170 -156 -393 -156q-133 0 -208 60t-75 164zM469 1237l45 209h186l-45 -209h-186zM801 1237l45 209h186l-45 -209 h-186z" />
<glyph unicode="&#xfd;" horiz-adv-x="1024" d="M-86 -426l33 154q74 -8 90 -9q57 0 90 21.5t74 85.5l106 166l-139 1081h184l94 -833l478 833h182l-754 -1298q-129 -221 -338 -221q-55 0 -100 20zM600 1190l262 303h230l-369 -303h-123z" />
<glyph unicode="&#xfe;" d="M-88 -436l410 1929h172l-125 -592q45 88 150.5 145.5t221.5 57.5q164 0 260.5 -107.5t96.5 -291.5q4 -301 -166 -518.5t-428 -217.5q-109 0 -177.5 43t-115.5 144l-127 -592h-172zM276 393q0 -123 66 -194.5t178 -71.5q168 0 285 165t113 372q0 133 -65 207.5t-179 74.5 q-166 0 -282 -166t-116 -387z" />
<glyph unicode="&#xff;" horiz-adv-x="1024" d="M-86 -426l33 154q74 -8 90 -9q57 0 90 21.5t74 85.5l106 166l-139 1081h184l94 -833l478 833h182l-754 -1298q-129 -221 -338 -221q-55 0 -100 20zM412 1237l45 209h186l-45 -209h-186zM743 1237l45 209h187l-45 -209h-187z" />
<glyph unicode="&#x100;" horiz-adv-x="1366" d="M-68 0l850 1493h246l207 -1493h-209l-55 449h-584l-252 -449h-203zM477 608h473l-82 682zM655 1671l31 141h563l-30 -141h-564z" />
<glyph unicode="&#x101;" d="M33 223q0 182 166 287q74 47 163 67.5t297 40.5q111 10 154 35t53 86l6 37q4 33 5 39q0 57 -62.5 94t-155.5 37q-221 0 -280 -190h-172q29 170 157 259t341 89q162 0 259 -63.5t97 -168.5q0 -20 -12 -75l-125 -588q-2 -6 -2 -21q0 -59 77 -59q16 0 35 4l-26 -133 q-104 -18 -109 -18q-80 0 -121 23.5t-41 82.5l2 31q-109 -90 -202 -120t-207 -30q-139 0 -218 66.5t-79 187.5zM213 244q0 -127 184 -127q135 0 251 70.5t136 164.5l37 176q-88 -31 -299 -59q-164 -23 -236.5 -76t-72.5 -149zM453 1272l30 141h564l-31 -141h-563z" />
<glyph unicode="&#x102;" horiz-adv-x="1366" d="M-68 0l850 1493h246l207 -1493h-209l-55 449h-584l-252 -449h-203zM477 608h473l-82 682zM602 1806q0 20 12 58h131v-21q0 -39 55.5 -61.5t145.5 -22.5q231 0 271 105h137q-43 -115 -165 -179.5t-280 -64.5q-135 0 -221 55t-86 131z" />
<glyph unicode="&#x103;" d="M33 223q0 182 166 287q74 47 163 67.5t297 40.5q111 10 154 35t53 86l6 37q4 33 5 39q0 57 -62.5 94t-155.5 37q-221 0 -280 -190h-172q29 170 157 259t341 89q162 0 259 -63.5t97 -168.5q0 -20 -12 -75l-125 -588q-2 -6 -2 -21q0 -59 77 -59q16 0 35 4l-26 -133 q-104 -18 -109 -18q-80 0 -121 23.5t-41 82.5l2 31q-109 -90 -202 -120t-207 -30q-139 0 -218 66.5t-79 187.5zM213 244q0 -127 184 -127q135 0 251 70.5t136 164.5l37 176q-88 -31 -299 -59q-164 -23 -236.5 -76t-72.5 -149zM463 1407q0 25 10 74h109v-27q0 -45 46 -73.5 t122 -28.5q193 0 225 129h115q-35 -139 -133.5 -208t-233.5 -69q-115 0 -187.5 56.5t-72.5 146.5z" />
<glyph unicode="&#x104;" horiz-adv-x="1366" d="M-68 0l850 1493h246l207 -1493q-88 0 -184 -109q-53 -59 -54 -118q0 -84 66 -84h100l-28 -160h-103q-86 0 -142 44t-56 116q0 90 52 175t140 136l-55 449h-584l-252 -449h-203zM477 608h473l-82 682z" />
<glyph unicode="&#x105;" d="M33 223q0 182 166 287q74 47 163 67.5t297 40.5q111 10 154 35t53 86l6 37q4 33 5 39q0 57 -62.5 94t-155.5 37q-221 0 -280 -190h-172q29 170 157 259t341 89q162 0 259 -63.5t97 -168.5q0 -20 -12 -75l-125 -588q-2 -6 -2 -21q0 -59 77 -59q16 0 35 4l-26 -133l-47 -8 q-57 -12 -138 -101q-53 -59 -53 -118q0 -84 66 -84h100l-29 -160h-102q-86 0 -142.5 44t-56.5 116q0 166 205 303q-74 18 -74 96l2 31q-109 -90 -202 -120t-207 -30q-139 0 -218 66.5t-79 187.5zM213 244q0 -127 184 -127q135 0 251 70.5t136 164.5l37 176q-88 -31 -299 -59 q-164 -23 -236.5 -76t-72.5 -149z" />
<glyph unicode="&#x106;" horiz-adv-x="1478" d="M129 506q0 193 70.5 391.5t191.5 343.5q240 289 598 289q217 0 345 -127t141 -373h-197q-25 334 -324 334q-279 0 -462 -272q-166 -248 -166 -549q0 -186 97 -300t257 -114q193 0 307.5 95t214.5 321h201q-131 -309 -306 -445.5t-446 -136.5q-244 0 -383 147.5 t-139 395.5zM930 1604l315 272h275l-443 -272h-147z" />
<glyph unicode="&#x107;" horiz-adv-x="1024" d="M55 356q0 328 172 538t451 210q158 0 256 -89t98 -212q0 -2 -1 -10.5t-2 -22.5t-1 -27l-2 -30h-172q2 18 2 45q0 88 -56.5 138t-152.5 50q-178 0 -294.5 -170t-116.5 -397q0 -119 63 -185.5t170 -66.5q229 0 317 242h172q-61 -213 -187 -306.5t-331 -93.5 q-176 0 -280.5 108.5t-104.5 278.5zM600 1190l262 303h230l-369 -303h-123z" />
<glyph unicode="&#x108;" horiz-adv-x="1478" d="M129 506q0 193 70.5 391.5t191.5 343.5q240 289 598 289q217 0 345 -127t141 -373h-197q-25 334 -324 334q-279 0 -462 -272q-166 -248 -166 -549q0 -186 97 -300t257 -114q193 0 307.5 95t214.5 321h201q-131 -309 -306 -445.5t-446 -136.5q-244 0 -383 147.5 t-139 395.5zM651 1604l316 276h233l156 -276h-154l-137 182l-256 -182h-158z" />
<glyph unicode="&#x109;" horiz-adv-x="1024" d="M55 356q0 328 172 538t451 210q158 0 256 -89t98 -212q0 -2 -1 -10.5t-2 -22.5t-1 -27l-2 -30h-172q2 18 2 45q0 88 -56.5 138t-152.5 50q-178 0 -294.5 -170t-116.5 -397q0 -119 63 -185.5t170 -66.5q229 0 317 242h172q-61 -213 -187 -306.5t-331 -93.5 q-176 0 -280.5 108.5t-104.5 278.5zM367 1188l262 307h194l131 -307h-129l-114 203l-213 -203h-131z" />
<glyph unicode="&#x10a;" horiz-adv-x="1478" d="M129 506q0 193 70.5 391.5t191.5 343.5q240 289 598 289q217 0 345 -127t141 -373h-197q-25 334 -324 334q-279 0 -462 -272q-166 -248 -166 -549q0 -186 97 -300t257 -114q193 0 307.5 95t214.5 321h201q-131 -309 -306 -445.5t-446 -136.5q-244 0 -383 147.5 t-139 395.5zM905 1636l45 211h213l-45 -211h-213z" />
<glyph unicode="&#x10b;" horiz-adv-x="1024" d="M55 356q0 328 172 538t451 210q158 0 256 -89t98 -212q0 -2 -1 -10.5t-2 -22.5t-1 -27l-2 -30h-172q2 18 2 45q0 88 -56.5 138t-152.5 50q-178 0 -294.5 -170t-116.5 -397q0 -119 63 -185.5t170 -66.5q229 0 317 242h172q-61 -213 -187 -306.5t-331 -93.5 q-176 0 -280.5 108.5t-104.5 278.5zM563 1237l45 211h213l-45 -211h-213z" />
<glyph unicode="&#x10c;" horiz-adv-x="1478" d="M129 506q0 193 70.5 391.5t191.5 343.5q240 289 598 289q217 0 345 -127t141 -373h-197q-25 334 -324 334q-279 0 -462 -272q-166 -248 -166 -549q0 -186 97 -300t257 -114q193 0 307.5 95t214.5 321h201q-131 -309 -306 -445.5t-446 -136.5q-244 0 -383 147.5 t-139 395.5zM713 1880h153l138 -182l256 182h157l-315 -276h-234z" />
<glyph unicode="&#x10d;" horiz-adv-x="1024" d="M55 356q0 328 172 538t451 210q158 0 256 -89t98 -212q0 -2 -1 -10.5t-2 -22.5t-1 -27l-2 -30h-172q2 18 2 45q0 88 -56.5 138t-152.5 50q-178 0 -294.5 -170t-116.5 -397q0 -119 63 -185.5t170 -66.5q229 0 317 242h172q-61 -213 -187 -306.5t-331 -93.5 q-176 0 -280.5 108.5t-104.5 278.5zM432 1495h129l115 -203l213 203h131l-262 -307h-195z" />
<glyph unicode="&#x10e;" horiz-adv-x="1478" d="M80 0l317 1493h578q223 0 350 -138t127 -356q0 -422 -230.5 -710.5t-564.5 -288.5h-577zM307 168h352q264 0 430 230.5t166 584.5q0 160 -93 251t-257 91h-350zM672 1880h153l138 -182l256 182h157l-315 -276h-234z" />
<glyph unicode="&#x10f;" d="M49 356q0 324 168 536t424 212q109 0 176.5 -43t116.5 -143l123 575h172l-318 -1493h-166l35 164q-45 -86 -155.5 -140.5t-223.5 -54.5q-160 0 -256 104.5t-96 282.5zM229 397q0 -131 63.5 -200.5t178.5 -69.5q162 0 278.5 162t116.5 381q0 131 -63.5 203.5t-177.5 72.5 q-166 0 -281 -164t-115 -385zM1270 1034l16 78q119 0 152 180h-113l43 201h205l-39 -190q-29 -127 -98.5 -198t-165.5 -71z" />
<glyph unicode="&#x110;" horiz-adv-x="1478" d="M80 0l147 698h-139l27 138h143l139 657h578q223 0 350 -138t127 -356q0 -422 -230.5 -710.5t-564.5 -288.5h-577zM307 168h352q264 0 430 230.5t166 584.5q0 162 -93 252t-257 90h-350l-104 -489h340l-29 -138h-342z" />
<glyph unicode="&#x111;" d="M49 356q0 156 47 301.5t129 243.5q168 203 416 203q109 0 176.5 -43t116.5 -143l65 311h-307l25 108h307l33 156h172l-33 -156h125l-23 -108h-127l-260 -1229h-166l37 172q-39 -78 -116 -125q-129 -78 -265 -78q-160 0 -256 104.5t-96 282.5zM229 397q0 -131 63.5 -200.5 t178.5 -69.5q188 0 303 199q92 160 92 344q0 131 -63.5 203.5t-177.5 72.5q-193 0 -308 -207q-88 -166 -88 -342z" />
<glyph unicode="&#x112;" horiz-adv-x="1366" d="M82 0l317 1493h1037l-35 -168h-844l-102 -477h811l-37 -168h-809l-111 -512h879l-35 -168h-1071zM668 1671l30 141h564l-31 -141h-563z" />
<glyph unicode="&#x113;" d="M72 362q0 125 49 274.5t121 246.5q76 102 197.5 161.5t254.5 59.5q166 0 278.5 -101.5t112.5 -248.5q0 -86 -28 -240l-4 -27h-791q-12 -49 -10 -94q0 -129 66.5 -197.5t189.5 -68.5q205 0 315 199h172q-47 -164 -188 -260.5t-328 -96.5q-182 0 -294.5 114.5t-112.5 278.5 zM299 635h602q4 49 4 59q0 115 -64.5 183.5t-172.5 68.5q-123 0 -226.5 -88t-142.5 -223zM451 1272l30 141h563l-30 -141h-563z" />
<glyph unicode="&#x114;" horiz-adv-x="1366" d="M82 0l317 1493h1037l-35 -168h-844l-102 -477h811l-37 -168h-809l-111 -512h879l-35 -168h-1071zM614 1806q0 20 13 58h131v-21q0 -39 55 -61.5t145 -22.5q231 0 271 105h137q-43 -115 -165 -179.5t-279 -64.5q-135 0 -221.5 55t-86.5 131z" />
<glyph unicode="&#x115;" d="M72 362q0 125 49 274.5t121 246.5q76 102 197.5 161.5t254.5 59.5q166 0 278.5 -101.5t112.5 -248.5q0 -86 -28 -240l-4 -27h-791q-12 -49 -10 -94q0 -129 66.5 -197.5t189.5 -68.5q205 0 315 199h172q-47 -164 -188 -260.5t-328 -96.5q-182 0 -294.5 114.5t-112.5 278.5 zM299 635h602q4 49 4 59q0 115 -64.5 183.5t-172.5 68.5q-123 0 -226.5 -88t-142.5 -223zM461 1407q0 25 10 74h109v-27q0 -45 46 -73.5t122 -28.5q193 0 225 129h114q-35 -139 -133 -208t-233 -69q-115 0 -187.5 56.5t-72.5 146.5z" />
<glyph unicode="&#x116;" horiz-adv-x="1366" d="M82 0l317 1493h1037l-35 -168h-844l-102 -477h811l-37 -168h-809l-111 -512h879l-35 -168h-1071zM840 1636l45 211h213l-45 -211h-213z" />
<glyph unicode="&#x117;" d="M72 362q0 125 49 274.5t121 246.5q76 102 197.5 161.5t254.5 59.5q166 0 278.5 -101.5t112.5 -248.5q0 -86 -28 -240l-4 -27h-791q-12 -49 -10 -94q0 -129 66.5 -197.5t189.5 -68.5q205 0 315 199h172q-47 -164 -188 -260.5t-328 -96.5q-182 0 -294.5 114.5t-112.5 278.5 zM299 635h602q4 49 4 59q0 115 -64.5 183.5t-172.5 68.5q-123 0 -226.5 -88t-142.5 -223zM621 1237l45 211h213l-45 -211h-213z" />
<glyph unicode="&#x118;" horiz-adv-x="1366" d="M82 0l317 1493h1037l-35 -168h-844l-102 -477h811l-37 -168h-809l-111 -512h879l-35 -168q-88 0 -184 -109q-53 -59 -54 -118q0 -84 66 -84h100l-28 -160h-103q-86 0 -142 44t-56 116q0 174 219 311h-889z" />
<glyph unicode="&#x119;" d="M72 362q0 125 49 274.5t121 246.5q76 102 197.5 161.5t254.5 59.5q166 0 278.5 -101.5t112.5 -248.5q0 -86 -28 -240l-4 -27h-791q-12 -49 -10 -94q0 -129 66.5 -197.5t189.5 -68.5q205 0 315 199h172q-33 -115 -113.5 -198t-195.5 -124q-94 -33 -159.5 -95.5 t-65.5 -135.5q0 -84 65 -84h101l-29 -160h-102q-86 0 -142.5 44t-56.5 116q0 156 174 280q-180 2 -289.5 115.5t-109.5 277.5zM299 635h602q4 49 4 59q0 115 -64.5 183.5t-172.5 68.5q-123 0 -226.5 -88t-142.5 -223z" />
<glyph unicode="&#x11a;" horiz-adv-x="1366" d="M82 0l317 1493h1037l-35 -168h-844l-102 -477h811l-37 -168h-809l-111 -512h879l-35 -168h-1071zM647 1880h154l137 -182l256 182h158l-316 -276h-233z" />
<glyph unicode="&#x11b;" d="M72 362q0 125 49 274.5t121 246.5q76 102 197.5 161.5t254.5 59.5q166 0 278.5 -101.5t112.5 -248.5q0 -86 -28 -240l-4 -27h-791q-12 -49 -10 -94q0 -129 66.5 -197.5t189.5 -68.5q205 0 315 199h172q-47 -164 -188 -260.5t-328 -96.5q-182 0 -294.5 114.5t-112.5 278.5 zM299 635h602q4 49 4 59q0 115 -64.5 183.5t-172.5 68.5q-123 0 -226.5 -88t-142.5 -223zM489 1495h129l115 -203l213 203h131l-262 -307h-194z" />
<glyph unicode="&#x11c;" horiz-adv-x="1593" d="M123 545q0 242 112.5 466t325.5 371.5t475 147.5q240 0 379 -124t139 -331v-12v-23h-186q-2 154 -104.5 239t-264.5 85q-287 0 -483.5 -235.5t-196.5 -550.5q0 -215 105.5 -332t316.5 -117q201 0 360 121t204 317l12 54h-455l37 167h623l-168 -788h-121l-10 176 q-141 -119 -264 -166t-285 -47q-248 0 -399.5 154t-151.5 428zM698 1604l316 276h233l156 -276h-154l-137 182l-256 -182h-158z" />
<glyph unicode="&#x11d;" d="M-37 -186q0 20 2 36l2 27h172v-29q0 -70 58.5 -108.5t162.5 -38.5q164 0 253 90t135 299l8 41q-156 -162 -353 -162q-158 0 -256 104.5t-98 272.5q0 303 172 530.5t432 227.5q197 0 285 -191l35 160h155l-190 -899q-41 -195 -88 -302.5t-125 -180.5q-143 -137 -399 -137 q-164 0 -263.5 70.5t-99.5 189.5zM229 379q0 -121 60.5 -191.5t163.5 -70.5q178 0 291.5 171t113.5 406q0 115 -59.5 183.5t-157.5 68.5q-176 0 -294 -172t-118 -395zM424 1188l262 307h195l131 -307h-129l-115 203l-213 -203h-131z" />
<glyph unicode="&#x11e;" horiz-adv-x="1593" d="M123 545q0 242 112.5 466t325.5 371.5t475 147.5q240 0 379 -124t139 -331v-12v-23h-186q-2 154 -104.5 239t-264.5 85q-287 0 -483.5 -235.5t-196.5 -550.5q0 -215 105.5 -332t316.5 -117q201 0 360 121t204 317l12 54h-455l37 167h623l-168 -788h-121l-10 176 q-141 -119 -264 -166t-285 -47q-248 0 -399.5 154t-151.5 428zM725 1806q0 20 12 58h131v-21q0 -39 55.5 -61.5t145.5 -22.5q231 0 270 105h138q-43 -115 -165 -179.5t-280 -64.5q-135 0 -221 55t-86 131z" />
<glyph unicode="&#x11f;" d="M-37 -186q0 20 2 36l2 27h172v-29q0 -70 58.5 -108.5t162.5 -38.5q164 0 253 90t135 299l8 41q-156 -162 -353 -162q-158 0 -256 104.5t-98 272.5q0 303 172 530.5t432 227.5q197 0 285 -191l35 160h155l-190 -899q-41 -195 -88 -302.5t-125 -180.5q-143 -137 -399 -137 q-164 0 -263.5 70.5t-99.5 189.5zM229 379q0 -121 60.5 -191.5t163.5 -70.5q178 0 291.5 171t113.5 406q0 115 -59.5 183.5t-157.5 68.5q-176 0 -294 -172t-118 -395zM461 1407q0 25 10 74h109v-27q0 -45 46 -73.5t122 -28.5q193 0 225 129h114q-35 -139 -133 -208t-233 -69 q-115 0 -187.5 56.5t-72.5 146.5z" />
<glyph unicode="&#x120;" horiz-adv-x="1593" d="M123 545q0 242 112.5 466t325.5 371.5t475 147.5q240 0 379 -124t139 -331v-12v-23h-186q-2 154 -104.5 239t-264.5 85q-287 0 -483.5 -235.5t-196.5 -550.5q0 -215 105.5 -332t316.5 -117q201 0 360 121t204 317l12 54h-455l37 167h623l-168 -788h-121l-10 176 q-141 -119 -264 -166t-285 -47q-248 0 -399.5 154t-151.5 428zM952 1636l45 211h213l-45 -211h-213z" />
<glyph unicode="&#x121;" d="M-37 -186q0 20 2 36l2 27h172v-29q0 -70 58.5 -108.5t162.5 -38.5q164 0 253 90t135 299l8 41q-156 -162 -353 -162q-158 0 -256 104.5t-98 272.5q0 303 172 530.5t432 227.5q197 0 285 -191l35 160h155l-190 -899q-41 -195 -88 -302.5t-125 -180.5q-143 -137 -399 -137 q-164 0 -263.5 70.5t-99.5 189.5zM229 379q0 -121 60.5 -191.5t163.5 -70.5q178 0 291.5 171t113.5 406q0 115 -59.5 183.5t-157.5 68.5q-176 0 -294 -172t-118 -395zM621 1237l45 211h213l-45 -211h-213z" />
<glyph unicode="&#x122;" horiz-adv-x="1593" d="M123 545q0 242 112.5 466t325.5 371.5t475 147.5q240 0 379 -124t139 -331v-12v-23h-186q-2 154 -104.5 239t-264.5 85q-287 0 -483.5 -235.5t-196.5 -550.5q0 -215 105.5 -332t316.5 -117q201 0 360 121t204 317l12 54h-455l37 167h623l-168 -788h-121l-10 176 q-141 -119 -264 -166t-285 -47q-248 0 -399.5 154t-151.5 428zM481 -582l17 78q119 0 151 180h-112l43 201h204l-39 -190q-29 -127 -98.5 -198t-165.5 -71z" />
<glyph unicode="&#x123;" d="M-37 -186q0 20 2 36l2 27h172v-29q0 -70 58.5 -108.5t162.5 -38.5q164 0 253 90t135 299l8 41q-156 -162 -353 -162q-158 0 -256 104.5t-98 272.5q0 303 172 530.5t432 227.5q197 0 285 -191l35 160h155l-190 -899q-41 -195 -88 -302.5t-125 -180.5q-143 -137 -399 -137 q-164 0 -263.5 70.5t-99.5 189.5zM229 379q0 -121 60.5 -191.5t163.5 -70.5q178 0 291.5 171t113.5 406q0 115 -59.5 183.5t-157.5 68.5q-176 0 -294 -172t-118 -395zM616 1182l39 190q29 127 98.5 197.5t166.5 70.5l-17 -77q-119 0 -151 -181h112l-43 -200h-205z" />
<glyph unicode="&#x124;" horiz-adv-x="1478" d="M68 0l317 1493h193l-138 -645h764l137 645h193l-317 -1493h-193l145 680h-763l-146 -680h-192zM631 1604l315 276h234l155 -276h-153l-138 182l-256 -182h-157z" />
<glyph unicode="&#x125;" d="M41 0l317 1493h172l-116 -553q96 90 182 127t201 37q129 0 202.5 -68.5t73.5 -189.5q0 -41 -8 -76l-164 -770h-172l150 702q12 55 12 80q0 78 -48 126t-126 48q-139 0 -241.5 -98t-137.5 -266l-125 -592h-172zM455 1604l315 276h234l155 -276h-153l-138 182l-256 -182 h-157z" />
<glyph unicode="&#x126;" horiz-adv-x="1478" d="M68 0l243 1147h-94l21 94h94l53 252h193l-54 -252h764l53 252h193l-53 -252h94l-21 -94h-94l-243 -1147h-193l145 680h-763l-146 -680h-192zM440 848h764l64 299h-764z" />
<glyph unicode="&#x127;" horiz-adv-x="1222" d="M121 0l225 1057l-92 -35l22 102l91 35l71 334h172l-55 -264l274 104l-20 -100l-277 -105l-38 -188q96 90 182 127t201 37q129 0 202.5 -68.5t73.5 -189.5q0 -41 -8 -76l-164 -770h-172l149 702q12 55 13 80q0 78 -48.5 126t-125.5 48q-139 0 -241.5 -98t-137.5 -266 l-125 -592h-172z" />
<glyph unicode="&#x128;" horiz-adv-x="569" d="M102 0l318 1493h192l-317 -1493h-193zM205 1630q39 113 88 162t125 49q14 0 132 -32.5t146 -32.5q31 0 50.5 15t48.5 60h108q-33 -100 -92 -159.5t-129 -59.5q-55 0 -211 54q-35 12 -55 12q-35 0 -53.5 -13.5t-49.5 -54.5h-108z" />
<glyph unicode="&#x129;" horiz-adv-x="569" d="M96 0l228 1073h172l-228 -1073h-172zM102 1231q39 113 88.5 162t124.5 49q14 0 132 -33t147 -33q31 0 50.5 15.5t47.5 60.5h109q-33 -100 -92.5 -159.5t-128.5 -59.5q-55 0 -211 53q-35 12 -56 12q-35 0 -53 -13t-49 -54h-109z" />
<glyph unicode="&#x12a;" horiz-adv-x="569" d="M102 0l318 1493h192l-317 -1493h-193zM266 1671l31 141h563l-31 -141h-563z" />
<glyph unicode="&#x12b;" horiz-adv-x="569" d="M96 0l228 1073h172l-228 -1073h-172zM166 1272l31 141h563l-31 -141h-563z" />
<glyph unicode="&#x12c;" horiz-adv-x="569" d="M102 0l318 1493h192l-317 -1493h-193zM213 1806q0 20 12 58h131v-21q0 -39 55.5 -61.5t145.5 -22.5q231 0 270 105h138q-43 -115 -165 -179.5t-280 -64.5q-135 0 -221 55t-86 131z" />
<glyph unicode="&#x12d;" horiz-adv-x="569" d="M96 0l228 1073h172l-228 -1073h-172zM176 1407q0 25 10 74h109v-27q0 -45 46 -73.5t122 -28.5q193 0 225 129h115q-35 -139 -133.5 -208t-233.5 -69q-115 0 -187.5 56.5t-72.5 146.5z" />
<glyph unicode="&#x12e;" horiz-adv-x="569" d="M-66 -311q0 174 220 311h-52l318 1493h192l-317 -1493q-82 -41 -143 -109q-53 -59 -54 -118q0 -84 66 -84h100l-28 -160h-103q-86 0 -142.5 44t-56.5 116z" />
<glyph unicode="&#x12f;" horiz-adv-x="569" d="M-72 -311q0 174 219 311h-51l228 1073h172l-228 -1073q-66 -45 -123 -109q-53 -59 -53 -118q0 -84 66 -84h100l-29 -160h-102q-86 0 -142.5 44t-56.5 116zM336 1237l45 211h213l-45 -211h-213z" />
<glyph unicode="&#x130;" horiz-adv-x="569" d="M102 0l318 1493h192l-317 -1493h-193zM438 1636l45 211h213l-45 -211h-213z" />
<glyph unicode="&#x131;" horiz-adv-x="454" d="M39 0l227 1073h172l-227 -1073h-172z" />
<glyph unicode="&#x134;" horiz-adv-x="1024" d="M-4 260q0 47 12 98l27 121h192l-26 -125q-8 -33 -8 -69q0 -70 51 -113t133 -43q115 0 187.5 76t109.5 248l221 1040h192l-235 -1110q-43 -201 -178 -310.5t-338 -109.5q-160 0 -250 85t-90 212zM662 1604l315 276h233l156 -276h-154l-137 182l-256 -182h-157z" />
<glyph unicode="&#x135;" horiz-adv-x="454" d="M-236 -440l31 145q37 -4 51 -4q78 0 110 28.5t50 114.5l260 1229h172l-274 -1296q-29 -127 -106.5 -175t-254.5 -48q-16 0 -39 6zM82 1188l262 307h195l131 -307h-129l-115 203l-213 -203h-131z" />
<glyph unicode="&#x136;" horiz-adv-x="1366" d="M59 0l318 1493h192l-161 -764l909 764h246l-740 -610l422 -883h-225l-344 770l-316 -260l-108 -510h-193zM406 -582l16 78q119 0 151 180h-112l43 201h205l-39 -190q-29 -127 -98.5 -198t-165.5 -71z" />
<glyph unicode="&#x137;" horiz-adv-x="1024" d="M16 0l318 1493h172l-184 -866l550 446h222l-455 -371l287 -702h-197l-233 596l-220 -180l-88 -416h-172zM180 -582l17 78q119 0 151 180h-112l43 201h204l-39 -190q-29 -127 -98.5 -198t-165.5 -71z" />
<glyph unicode="&#x139;" d="M61 0l318 1493h192l-282 -1325h737l-35 -168h-930zM401 1604l316 272h274l-442 -272h-148z" />
<glyph unicode="&#x13a;" horiz-adv-x="454" d="M37 0l317 1493h172l-317 -1493h-172zM377 1604l315 272h275l-443 -272h-147z" />
<glyph unicode="&#x13b;" d="M61 0l318 1493h192l-282 -1325h737l-35 -168h-930zM297 -582l16 78q119 0 152 180h-113l43 201h205l-39 -190q-29 -127 -98.5 -198t-165.5 -71z" />
<glyph unicode="&#x13c;" horiz-adv-x="454" d="M-104 -582l16 78q119 0 151 180h-112l43 201h205l-39 -190q-29 -127 -98.5 -198t-165.5 -71zM37 0l317 1493h172l-317 -1493h-172z" />
<glyph unicode="&#x13d;" d="M61 0l318 1493h192l-282 -1325h737l-35 -168h-930zM612 1034l17 78q119 0 151 180h-112l43 201h204l-38 -190q-29 -127 -99 -198t-166 -71z" />
<glyph unicode="&#x13e;" horiz-adv-x="454" d="M37 0l317 1493h172l-317 -1493h-172zM567 1034l17 78q119 0 151 180h-112l43 201h204l-39 -190q-29 -127 -98.5 -198t-165.5 -71z" />
<glyph unicode="&#x13f;" d="M61 0l318 1493h192l-282 -1325h737l-35 -168h-930zM764 674l45 211h213l-45 -211h-213z" />
<glyph unicode="&#x140;" horiz-adv-x="663" d="M37 0l317 1493h172l-317 -1493h-172zM492 674l45 211h213l-45 -211h-213z" />
<glyph unicode="&#x141;" horiz-adv-x="1286" d="M92 360l43 197l158 131l172 805h192l-135 -635l309 254l-43 -197l-309 -253l-104 -494h737l-35 -168h-930l105 492z" />
<glyph unicode="&#x142;" horiz-adv-x="624" d="M90 436l41 191l158 149l151 717h172l-104 -489l172 163l-41 -188l-170 -164l-174 -815h-172l125 588z" />
<glyph unicode="&#x143;" horiz-adv-x="1478" d="M53 0l318 1493h213l512 -1225l260 1225h182l-317 -1493h-217l-510 1210l-258 -1210h-183zM903 1604l316 272h274l-442 -272h-148z" />
<glyph unicode="&#x144;" d="M41 0l227 1073h156l-27 -133q160 164 398 164q127 0 202.5 -69.5t75.5 -186.5q0 -43 -8 -78l-164 -770h-172l152 715q12 66 12 76q0 72 -51 118.5t-127 46.5q-139 0 -240.5 -98t-136.5 -266l-125 -592h-172zM657 1190l263 303h229l-369 -303h-123z" />
<glyph unicode="&#x145;" horiz-adv-x="1478" d="M53 0l318 1493h213l512 -1225l260 1225h182l-317 -1493h-217l-510 1210l-258 -1210h-183zM408 -582l16 78q119 0 151 180h-112l43 201h205l-39 -190q-29 -127 -98.5 -198t-165.5 -71z" />
<glyph unicode="&#x146;" d="M41 0l227 1073h156l-27 -133q160 164 398 164q127 0 202.5 -69.5t75.5 -186.5q0 -43 -8 -78l-164 -770h-172l152 715q12 66 12 76q0 72 -51 118.5t-127 46.5q-139 0 -240.5 -98t-136.5 -266l-125 -592h-172zM238 -582l16 78q119 0 152 180h-113l43 201h205l-39 -190 q-29 -127 -98.5 -198t-165.5 -71z" />
<glyph unicode="&#x147;" horiz-adv-x="1478" d="M53 0l318 1493h213l512 -1225l260 1225h182l-317 -1493h-217l-510 1210l-258 -1210h-183zM684 1880h154l137 -182l256 182h158l-316 -276h-233z" />
<glyph unicode="&#x148;" d="M41 0l227 1073h156l-27 -133q160 164 398 164q127 0 202.5 -69.5t75.5 -186.5q0 -43 -8 -78l-164 -770h-172l152 715q12 66 12 76q0 72 -51 118.5t-127 46.5q-139 0 -240.5 -98t-136.5 -266l-125 -592h-172zM489 1495h129l115 -203l213 203h131l-262 -307h-194z" />
<glyph unicode="&#x14a;" horiz-adv-x="1478" d="M53 0l318 1493h213l512 -1225l260 1225h182l-338 -1591q-43 -201 -178 -310.5t-338 -109.5q-160 0 -250 85t-90 212q0 45 12 98l193 -4q-8 -33 -8 -70q0 -70 51 -112.5t133 -42.5q96 0 178 51t101 133l22 113l-532 1265l-258 -1210h-183z" />
<glyph unicode="&#x14b;" d="M41 0l227 1073h156l-27 -133q160 164 398 164q127 0 202.5 -69.5t75.5 -186.5q0 -43 -8 -78l-211 -993q-29 -127 -106.5 -175t-253.5 -48q-18 0 -39 6l30 145q37 -4 52 -4q78 0 109.5 28.5t49.5 114.5l185 871q12 66 12 76q0 72 -51 118.5t-127 46.5q-139 0 -240.5 -98 t-136.5 -266l-125 -592h-172z" />
<glyph unicode="&#x14c;" horiz-adv-x="1593" d="M113 549q0 250 116.5 475t322.5 365.5t447 140.5q279 0 437.5 -149.5t158.5 -417.5q0 -260 -108.5 -486.5t-316 -370t-470.5 -143.5q-274 0 -430.5 152.5t-156.5 433.5zM309 565q0 -207 114 -321.5t304.5 -114.5t347 114.5t240.5 296t84 386.5q0 207 -114 322.5 t-310 115.5q-188 0 -343 -114.5t-239 -297t-84 -387.5zM743 1671l31 141h563l-30 -141h-564z" />
<glyph unicode="&#x14d;" d="M63 344q0 205 74 377t217.5 277.5t329.5 105.5q180 0 286.5 -108.5t106.5 -274.5q0 -324 -174 -538t-450 -214q-174 0 -282 102.5t-108 272.5zM244 385q0 -121 63.5 -189.5t173.5 -68.5q180 0 298 162t118 393q0 125 -63.5 194.5t-176.5 69.5q-178 0 -295.5 -167 t-117.5 -394zM432 1272l31 141h563l-31 -141h-563z" />
<glyph unicode="&#x14e;" horiz-adv-x="1593" d="M113 549q0 250 116.5 475t322.5 365.5t447 140.5q279 0 437.5 -149.5t158.5 -417.5q0 -260 -108.5 -486.5t-316 -370t-470.5 -143.5q-274 0 -430.5 152.5t-156.5 433.5zM309 565q0 -207 114 -321.5t304.5 -114.5t347 114.5t240.5 296t84 386.5q0 207 -114 322.5 t-310 115.5q-188 0 -343 -114.5t-239 -297t-84 -387.5zM688 1806q0 20 12 58h131v-21q0 -39 55.5 -61.5t145.5 -22.5q231 0 271 105h137q-43 -115 -165 -179.5t-280 -64.5q-135 0 -221 55t-86 131z" />
<glyph unicode="&#x14f;" d="M63 344q0 205 74 377t217.5 277.5t329.5 105.5q180 0 286.5 -108.5t106.5 -274.5q0 -324 -174 -538t-450 -214q-174 0 -282 102.5t-108 272.5zM244 385q0 -121 63.5 -189.5t173.5 -68.5q180 0 298 162t118 393q0 125 -63.5 194.5t-176.5 69.5q-178 0 -295.5 -167 t-117.5 -394zM442 1407q0 25 11 74h108v-27q0 -45 46 -73.5t122 -28.5q193 0 225 129h115q-35 -139 -133 -208t-234 -69q-115 0 -187.5 56.5t-72.5 146.5z" />
<glyph unicode="&#x150;" horiz-adv-x="1593" d="M113 549q0 250 116.5 475t322.5 365.5t447 140.5q279 0 437.5 -149.5t158.5 -417.5q0 -260 -108.5 -486.5t-316 -370t-470.5 -143.5q-274 0 -430.5 152.5t-156.5 433.5zM309 565q0 -207 114 -321.5t304.5 -114.5t347 114.5t240.5 296t84 386.5q0 207 -114 322.5 t-310 115.5q-188 0 -343 -114.5t-239 -297t-84 -387.5zM748 1608l262 307h229l-369 -307h-122zM1124 1608l262 307h230l-369 -307h-123z" />
<glyph unicode="&#x151;" d="M63 344q0 205 74 377t217.5 277.5t329.5 105.5q180 0 286.5 -108.5t106.5 -274.5q0 -324 -174 -538t-450 -214q-174 0 -282 102.5t-108 272.5zM244 385q0 -121 63.5 -189.5t173.5 -68.5q180 0 298 162t118 393q0 125 -63.5 194.5t-176.5 69.5q-178 0 -295.5 -167 t-117.5 -394zM432 1188l262 307h230l-369 -307h-123zM809 1188l262 307h229l-368 -307h-123z" />
<glyph unicode="&#x152;" horiz-adv-x="2048" d="M104 449q0 293 109 538.5t295 388t405 142.5q248 0 340 -181l33 156h881l-35 -168h-688l-105 -487h670l-37 -168h-667l-109 -502h696l-34 -168h-889l37 174q-166 -205 -424 -205q-215 0 -346.5 129.5t-131.5 350.5zM301 455q0 -154 86 -237t236 -83q256 0 430 254 l151 715q-57 248 -323 248q-272 0 -432 -281q-61 -106 -104.5 -287.5t-43.5 -328.5z" />
<glyph unicode="&#x153;" horiz-adv-x="1933" d="M76 354q0 125 42 265.5t111 244.5q160 240 459 240q260 0 352 -211q66 90 193 150.5t252 60.5q166 0 278.5 -101.5t112.5 -248.5q0 -86 -29 -240l-6 -35h-790q-14 -74 -15 -119q4 -102 75 -167.5t189 -65.5q203 0 314 199h172q-47 -156 -190.5 -256.5t-327.5 -100.5 q-119 0 -217.5 55.5t-143.5 163.5q-78 -104 -193.5 -161.5t-248.5 -57.5q-182 0 -285.5 109.5t-103.5 275.5zM256 387q0 -121 61.5 -190.5t167.5 -69.5q178 0 294 159.5t116 397.5q0 123 -63.5 192.5t-174.5 69.5q-168 0 -286.5 -165t-114.5 -394zM1087 627h603q6 43 6 65 q0 117 -63.5 185.5t-170.5 68.5q-125 0 -229.5 -89t-145.5 -230z" />
<glyph unicode="&#x154;" horiz-adv-x="1478" d="M88 0l318 1493h688q197 0 289 -77t92 -238q0 -152 -70 -255.5t-217 -185.5q72 -47 97.5 -88t25.5 -108q0 -57 -43 -283q-12 -66 -13 -102q0 -70 43 -109l-10 -47h-231q-8 57 -8 96q0 49 6 83t43 188q16 72 16 122q0 154 -207 154h-489l-137 -643h-193zM453 811h473 q170 0 261 93t91 239q0 92 -55.5 137t-188.5 45h-471zM866 1604l316 272h274l-442 -272h-148z" />
<glyph unicode="&#x155;" horiz-adv-x="681" d="M39 0l227 1073h156l-35 -168q94 109 171 154t167 45q25 0 66 -6l-37 -174h-21q-326 0 -403 -367l-119 -557h-172zM401 1190l263 303h229l-369 -303h-123z" />
<glyph unicode="&#x156;" horiz-adv-x="1478" d="M88 0l318 1493h688q197 0 289 -77t92 -238q0 -152 -70 -255.5t-217 -185.5q72 -47 97.5 -88t25.5 -108q0 -57 -43 -283q-12 -66 -13 -102q0 -70 43 -109l-10 -47h-231q-8 57 -8 96q0 49 6 83t43 188q16 72 16 122q0 154 -207 154h-489l-137 -643h-193zM371 -582l16 78 q119 0 152 180h-113l43 201h205l-39 -190q-29 -127 -98.5 -198t-165.5 -71zM453 811h473q170 0 261 93t91 239q0 92 -55.5 137t-188.5 45h-471z" />
<glyph unicode="&#x157;" horiz-adv-x="681" d="M-104 -582l16 78q119 0 151 180h-112l43 201h205l-39 -190q-29 -127 -98.5 -198t-165.5 -71zM39 0l227 1073h156l-35 -168q94 109 171 154t167 45q25 0 66 -6l-37 -174h-21q-326 0 -403 -367l-119 -557h-172z" />
<glyph unicode="&#x158;" horiz-adv-x="1478" d="M88 0l318 1493h688q197 0 289 -77t92 -238q0 -152 -70 -255.5t-217 -185.5q72 -47 97.5 -88t25.5 -108q0 -57 -43 -283q-12 -66 -13 -102q0 -70 43 -109l-10 -47h-231q-8 57 -8 96q0 49 6 83t43 188q16 72 16 122q0 154 -207 154h-489l-137 -643h-193zM453 811h473 q170 0 261 93t91 239q0 92 -55.5 137t-188.5 45h-471zM647 1880h154l137 -182l256 182h158l-316 -276h-233z" />
<glyph unicode="&#x159;" horiz-adv-x="681" d="M39 0l227 1073h156l-35 -168q94 109 171 154t167 45q25 0 66 -6l-37 -174h-21q-326 0 -403 -367l-119 -557h-172zM233 1495h129l115 -203l213 203h131l-262 -307h-194z" />
<glyph unicode="&#x15a;" horiz-adv-x="1366" d="M82 356q0 61 18 129h179q-8 -51 -9 -84q0 -139 82 -205.5t256 -66.5q205 0 335 89t130 220q0 72 -54 121t-177 84l-350 100q-102 29 -165 105t-63 172q0 78 42 175t106 161q168 174 487 174q215 0 339 -95.5t124 -252.5q0 -39 -16 -115h-181q8 55 9 74q0 223 -312 223 q-176 0 -288.5 -83t-112.5 -208q0 -68 44 -104.5t163 -71.5l352 -100q115 -33 182.5 -116t67.5 -185q0 -86 -50.5 -187.5t-127.5 -173.5q-184 -172 -517 -172q-231 0 -362 104.5t-131 288.5zM846 1604l315 272h275l-443 -272h-147z" />
<glyph unicode="&#x15b;" horiz-adv-x="1024" d="M27 231q0 47 12 105h182q-4 -41 -4 -51q0 -76 57.5 -117t163.5 -41q121 0 207 55.5t86 141.5q0 39 -27.5 68.5t-115.5 51.5l-152 39q-158 39 -220 92.5t-62 147.5q0 166 131 273.5t342 107.5q150 0 243 -67.5t93 -174.5q0 -37 -13 -88h-172q2 16 2 45q0 59 -49 93 t-139 34q-117 0 -187.5 -49t-70.5 -129t174 -123l156 -39q135 -33 191 -87t56 -148q0 -182 -137 -292t-366 -110q-178 0 -279.5 69.5t-101.5 192.5zM600 1190l262 303h230l-369 -303h-123z" />
<glyph unicode="&#x15c;" horiz-adv-x="1366" d="M82 356q0 61 18 129h179q-8 -51 -9 -84q0 -139 82 -205.5t256 -66.5q205 0 335 89t130 220q0 72 -54 121t-177 84l-350 100q-102 29 -165 105t-63 172q0 78 42 175t106 161q168 174 487 174q215 0 339 -95.5t124 -252.5q0 -39 -16 -115h-181q8 55 9 74q0 223 -312 223 q-176 0 -288.5 -83t-112.5 -208q0 -68 44 -104.5t163 -71.5l352 -100q115 -33 182.5 -116t67.5 -185q0 -86 -50.5 -187.5t-127.5 -173.5q-184 -172 -517 -172q-231 0 -362 104.5t-131 288.5zM567 1604l316 276h233l156 -276h-154l-137 182l-256 -182h-158z" />
<glyph unicode="&#x15d;" horiz-adv-x="1024" d="M27 231q0 47 12 105h182q-4 -41 -4 -51q0 -76 57.5 -117t163.5 -41q121 0 207 55.5t86 141.5q0 39 -27.5 68.5t-115.5 51.5l-152 39q-158 39 -220 92.5t-62 147.5q0 166 131 273.5t342 107.5q150 0 243 -67.5t93 -174.5q0 -37 -13 -88h-172q2 16 2 45q0 59 -49 93 t-139 34q-117 0 -187.5 -49t-70.5 -129t174 -123l156 -39q135 -33 191 -87t56 -148q0 -182 -137 -292t-366 -110q-178 0 -279.5 69.5t-101.5 192.5zM367 1188l262 307h194l131 -307h-129l-114 203l-213 -203h-131z" />
<glyph unicode="&#x15e;" horiz-adv-x="1366" d="M82 356q0 61 18 129h179q-8 -51 -9 -84q0 -139 82 -205.5t256 -66.5q205 0 335 89t130 220q0 72 -54 121t-177 84l-350 100q-102 29 -165 105t-63 172q0 78 42 175t106 161q168 174 487 174q215 0 339 -95.5t124 -252.5q0 -39 -16 -115h-181q8 55 9 74q0 223 -312 223 q-176 0 -288.5 -83t-112.5 -208q0 -68 44 -104.5t163 -71.5l352 -100q115 -33 182.5 -116t67.5 -185q0 -86 -50.5 -187.5t-127.5 -173.5q-164 -154 -457 -170l-39 -76h43q55 0 96 -42t41 -95q0 -104 -83 -163.5t-214 -59.5q-104 0 -241 70l57 77q117 -59 192 -59q57 0 93 32 t36 81q0 35 -18 56t-45 21q-29 0 -55 -8l-47 13l79 153q-211 8 -329.5 111.5t-118.5 279.5z" />
<glyph unicode="&#x15f;" horiz-adv-x="1024" d="M27 231q0 47 12 105h182q-4 -41 -4 -51q0 -76 57.5 -117t163.5 -41q121 0 207 55.5t86 141.5q0 39 -27.5 68.5t-115.5 51.5l-152 39q-158 39 -220 92.5t-62 147.5q0 166 131 273.5t342 107.5q150 0 243 -67.5t93 -174.5q0 -37 -13 -88h-172q2 16 2 45q0 59 -49 93 t-139 34q-117 0 -187.5 -49t-70.5 -129t174 -123l156 -39q135 -33 191 -87t56 -148q0 -174 -127 -282.5t-340 -119.5l-43 -80h43q55 0 96.5 -42t41.5 -95q0 -104 -83 -163.5t-214 -59.5q-104 0 -242 70l57 77q117 -59 193 -59q57 0 93 32t36 81q0 35 -18.5 56t-45.5 21 q-29 0 -55 -8l-47 13l84 159q-147 14 -230 81.5t-83 178.5z" />
<glyph unicode="&#x160;" horiz-adv-x="1366" d="M82 356q0 61 18 129h179q-8 -51 -9 -84q0 -139 82 -205.5t256 -66.5q205 0 335 89t130 220q0 72 -54 121t-177 84l-350 100q-102 29 -165 105t-63 172q0 78 42 175t106 161q168 174 487 174q215 0 339 -95.5t124 -252.5q0 -39 -16 -115h-181q8 55 9 74q0 223 -312 223 q-176 0 -288.5 -83t-112.5 -208q0 -68 44 -104.5t163 -71.5l352 -100q115 -33 182.5 -116t67.5 -185q0 -86 -50.5 -187.5t-127.5 -173.5q-184 -172 -517 -172q-231 0 -362 104.5t-131 288.5zM627 1880h153l138 -182l256 182h157l-315 -276h-234z" />
<glyph unicode="&#x161;" horiz-adv-x="1024" d="M27 231q0 47 12 105h182q-4 -41 -4 -51q0 -76 57.5 -117t163.5 -41q121 0 207 55.5t86 141.5q0 39 -27.5 68.5t-115.5 51.5l-152 39q-158 39 -220 92.5t-62 147.5q0 166 131 273.5t342 107.5q150 0 243 -67.5t93 -174.5q0 -37 -13 -88h-172q2 16 2 45q0 59 -49 93 t-139 34q-117 0 -187.5 -49t-70.5 -129t174 -123l156 -39q135 -33 191 -87t56 -148q0 -182 -137 -292t-366 -110q-178 0 -279.5 69.5t-101.5 192.5zM432 1495h129l115 -203l213 203h131l-262 -307h-195z" />
<glyph unicode="&#x162;" horiz-adv-x="1251" d="M145 -401l58 77q117 -59 192 -59q57 0 93 32t36 81q0 35 -18.5 56t-44.5 21q-29 0 -55 -8l-48 13l99 188h-25l283 1325h-494l35 168h1174l-35 -168h-488l-282 -1325h-64l-57 -111h43q55 0 96 -42t41 -95q0 -104 -83 -163.5t-214 -59.5q-105 0 -242 70z" />
<glyph unicode="&#x163;" horiz-adv-x="569" d="M-141 -401l57 77q117 -59 193 -59q57 0 93 32t36 81q0 35 -18.5 56t-45.5 21q-29 0 -55 -8l-47 13l104 198h2q-76 43 -76 137q0 33 7 64l155 725h-145l28 137h146l63 295h172l-63 -295h182l-29 -137h-182l-153 -719q-4 -25 -4 -29q0 -25 20 -40t53 -15q27 0 99 17 l-33 -150q-49 -14 -133 -14h-17l-51 -97h43q55 0 96 -42t41 -95q0 -104 -83 -163.5t-214 -59.5q-104 0 -241 70z" />
<glyph unicode="&#x164;" horiz-adv-x="1251" d="M221 1325l35 168h1174l-35 -168h-488l-282 -1325h-193l283 1325h-494zM575 1880h154l137 -182l256 182h158l-315 -276h-234z" />
<glyph unicode="&#x165;" horiz-adv-x="569" d="M102 147q0 33 7 64l155 725h-145l28 137h146l63 295h172l-63 -295h182l-29 -137h-182l-153 -719q-4 -25 -4 -29q0 -25 20 -40t53 -15q27 0 99 17l-33 -150q-49 -14 -133 -14t-133.5 42.5t-49.5 118.5zM551 1143l16 78q119 0 152 180h-113l43 201h205l-39 -191 q-29 -127 -98.5 -197.5t-165.5 -70.5z" />
<glyph unicode="&#x168;" horiz-adv-x="1478" d="M154 328q0 61 28 196l207 969h193l-222 -1038q-10 -41 -10 -90q0 -106 91 -171t239 -65q174 0 292 87t150 239l221 1038h193l-221 -1038q-47 -223 -230.5 -357.5t-441.5 -134.5q-219 0 -354 102.5t-135 262.5zM651 1630q39 113 88 162t125 49q14 0 132 -32.5t147 -32.5 q31 0 50 15t48 60h109q-33 -100 -92.5 -159.5t-129.5 -59.5q-55 0 -210 54q-33 12 -56 12q-35 0 -53 -13.5t-49 -54.5h-109z" />
<glyph unicode="&#x169;" d="M82 193q0 39 6 69l172 811h172l-158 -743q-6 -31 -6 -56q0 -72 49.5 -114.5t133.5 -42.5q131 0 231 99t135 265l125 592h172l-227 -1073h-156l27 125q-170 -156 -393 -156q-133 0 -208 60t-75 164zM387 1231q39 113 88 162t125 49q14 0 132 -33t147 -33q31 0 50 15.5 t48 60.5h108q-33 -100 -92 -159.5t-129 -59.5q-55 0 -211 53q-35 12 -55 12q-35 0 -53.5 -13t-48.5 -54h-109z" />
<glyph unicode="&#x16a;" horiz-adv-x="1478" d="M154 328q0 61 28 196l207 969h193l-222 -1038q-10 -41 -10 -90q0 -106 91 -171t239 -65q174 0 292 87t150 239l221 1038h193l-221 -1038q-47 -223 -230.5 -357.5t-441.5 -134.5q-219 0 -354 102.5t-135 262.5zM713 1671l30 141h564l-31 -141h-563z" />
<glyph unicode="&#x16b;" d="M82 193q0 39 6 69l172 811h172l-158 -743q-6 -31 -6 -56q0 -72 49.5 -114.5t133.5 -42.5q131 0 231 99t135 265l125 592h172l-227 -1073h-156l27 125q-170 -156 -393 -156q-133 0 -208 60t-75 164zM451 1272l30 141h563l-30 -141h-563z" />
<glyph unicode="&#x16c;" horiz-adv-x="1478" d="M154 328q0 61 28 196l207 969h193l-222 -1038q-10 -41 -10 -90q0 -106 91 -171t239 -65q174 0 292 87t150 239l221 1038h193l-221 -1038q-47 -223 -230.5 -357.5t-441.5 -134.5q-219 0 -354 102.5t-135 262.5zM659 1806q0 20 13 58h131v-21q0 -39 55 -61.5t146 -22.5 q231 0 270 105h137q-43 -115 -165 -179.5t-279 -64.5q-135 0 -221.5 55t-86.5 131z" />
<glyph unicode="&#x16d;" d="M82 193q0 39 6 69l172 811h172l-158 -743q-6 -31 -6 -56q0 -72 49.5 -114.5t133.5 -42.5q131 0 231 99t135 265l125 592h172l-227 -1073h-156l27 125q-170 -156 -393 -156q-133 0 -208 60t-75 164zM461 1407q0 25 10 74h109v-27q0 -45 46 -73.5t122 -28.5q193 0 225 129 h114q-35 -139 -133 -208t-233 -69q-115 0 -187.5 56.5t-72.5 146.5z" />
<glyph unicode="&#x16e;" horiz-adv-x="1478" d="M154 328q0 61 28 196l207 969h193l-222 -1038q-10 -41 -10 -90q0 -106 91 -171t239 -65q174 0 292 87t150 239l221 1038h193l-221 -1038q-47 -223 -230.5 -357.5t-441.5 -134.5q-219 0 -354 102.5t-135 262.5zM819 1733q0 88 76 161.5t168 73.5q70 0 116 -43t46 -106 q0 -96 -75 -170t-171 -74q-68 0 -114 46t-46 112zM924 1753q0 -35 21.5 -57.5t55.5 -22.5q45 0 83 37t38 80q0 35 -21.5 57.5t-53.5 22.5q-47 0 -85 -37t-38 -80z" />
<glyph unicode="&#x16f;" d="M82 193q0 39 6 69l172 811h172l-158 -743q-6 -31 -6 -56q0 -72 49.5 -114.5t133.5 -42.5q131 0 231 99t135 265l125 592h172l-227 -1073h-156l27 125q-170 -156 -393 -156q-133 0 -208 60t-75 164zM549 1303q0 88 75.5 161.5t168.5 73.5q70 0 115.5 -43t45.5 -106 q0 -96 -74.5 -170t-170.5 -74q-68 0 -114 46t-46 112zM653 1323q0 -35 21.5 -57.5t56.5 -22.5q45 0 83 37t38 80q0 35 -21.5 57.5t-54.5 22.5q-47 0 -85 -37t-38 -80z" />
<glyph unicode="&#x170;" horiz-adv-x="1478" d="M154 328q0 61 28 196l207 969h193l-222 -1038q-10 -41 -10 -90q0 -106 91 -171t239 -65q174 0 292 87t150 239l221 1038h193l-221 -1038q-47 -223 -230.5 -357.5t-441.5 -134.5q-219 0 -354 102.5t-135 262.5zM719 1608l262 307h229l-368 -307h-123zM1096 1608l262 307 h229l-368 -307h-123z" />
<glyph unicode="&#x171;" d="M82 193q0 39 6 69l172 811h172l-158 -743q-6 -31 -6 -56q0 -72 49.5 -114.5t133.5 -42.5q131 0 231 99t135 265l125 592h172l-227 -1073h-156l27 125q-170 -156 -393 -156q-133 0 -208 60t-75 164zM451 1188l262 307h229l-369 -307h-122zM827 1188l263 307h229l-369 -307 h-123z" />
<glyph unicode="&#x172;" horiz-adv-x="1478" d="M154 328q0 61 28 196l207 969h193l-222 -1038q-10 -41 -10 -90q0 -106 91 -171t239 -65q174 0 292 87t150 239l221 1038h193l-221 -1038q-39 -178 -164 -301t-311 -168q-84 -20 -142.5 -81t-58.5 -132q0 -84 66 -84h100l-29 -160h-102q-86 0 -142.5 44t-56.5 116 q0 152 164 274q-217 2 -351 103.5t-134 261.5z" />
<glyph unicode="&#x173;" d="M82 193q0 39 6 69l172 811h172l-158 -743q-6 -31 -6 -56q0 -72 49.5 -114.5t133.5 -42.5q131 0 231 99t135 265l125 592h172l-227 -1073q-92 -31 -164 -109q-53 -59 -53 -118q0 -84 65 -84h101l-29 -160h-102q-86 0 -142.5 44t-56.5 116q0 92 63 176q68 86 162 135 l27 125q-170 -156 -393 -156q-133 0 -208 60t-75 164z" />
<glyph unicode="&#x174;" horiz-adv-x="1933" d="M260 0v1493h236v-1212l589 1212h197l84 -1212l539 1212h213l-697 -1493h-209l-84 1212l-593 -1212h-275zM854 1604l315 276h234l156 -276h-154l-137 182l-256 -182h-158z" />
<glyph unicode="&#x175;" horiz-adv-x="1478" d="M139 1073h226v-835l387 835h237v-835l402 835h186l-541 -1073h-219v856l-399 -856h-197zM594 1188l262 307h195l131 -307h-129l-115 203l-213 -203h-131z" />
<glyph unicode="&#x176;" horiz-adv-x="1366" d="M242 1493h229l279 -731l591 731h228l-754 -907l-125 -586h-192l125 586zM582 1604l315 276h233l156 -276h-153l-138 182l-256 -182h-157z" />
<glyph unicode="&#x177;" horiz-adv-x="1024" d="M-86 -426l33 154q74 -8 90 -9q57 0 90 21.5t74 85.5l106 166l-139 1081h184l94 -833l478 833h182l-754 -1298q-129 -221 -338 -221q-55 0 -100 20zM367 1188l262 307h194l131 -307h-129l-114 203l-213 -203h-131z" />
<glyph unicode="&#x178;" horiz-adv-x="1366" d="M242 1493h229l279 -731l591 731h228l-754 -907l-125 -586h-192l125 586zM682 1636l45 209h186l-45 -209h-186zM1014 1636l45 209h186l-45 -209h-186z" />
<glyph unicode="&#x179;" horiz-adv-x="1251" d="M-45 0l37 172l1136 1153h-831l35 168h1075l-37 -172l-1139 -1153h897l-34 -168h-1139zM819 1604l316 272h274l-442 -272h-148z" />
<glyph unicode="&#x17a;" horiz-adv-x="1024" d="M-39 0l37 152l809 774h-602l31 147h802l-37 -153l-802 -773h667l-30 -147h-875zM600 1190l262 303h230l-369 -303h-123z" />
<glyph unicode="&#x17b;" horiz-adv-x="1251" d="M-45 0l37 172l1136 1153h-831l35 168h1075l-37 -172l-1139 -1153h897l-34 -168h-1139zM793 1636l45 211h213l-45 -211h-213z" />
<glyph unicode="&#x17c;" horiz-adv-x="1024" d="M-39 0l37 152l809 774h-602l31 147h802l-37 -153l-802 -773h667l-30 -147h-875zM563 1237l45 211h213l-45 -211h-213z" />
<glyph unicode="&#x17d;" horiz-adv-x="1251" d="M-45 0l37 172l1136 1153h-831l35 168h1075l-37 -172l-1139 -1153h897l-34 -168h-1139zM600 1880h154l137 -182l256 182h158l-316 -276h-233z" />
<glyph unicode="&#x17e;" horiz-adv-x="1024" d="M-39 0l37 152l809 774h-602l31 147h802l-37 -153l-802 -773h667l-30 -147h-875zM432 1495h129l115 -203l213 203h131l-262 -307h-195z" />
<glyph unicode="&#x17f;" horiz-adv-x="569" d="M80 0l266 1255q25 115 105.5 179.5t199.5 64.5q45 0 92 -10l-30 -141q-29 4 -56 4q-66 0 -98.5 -30t-48.5 -108l-258 -1214h-172z" />
<glyph unicode="&#x18e;" horiz-adv-x="1366" d="M82 0l37 168h878l107 512h-809l35 168h811l100 477h-844l37 168h1036l-317 -1493h-1071z" />
<glyph unicode="&#x192;" d="M-168 -414l72 176q47 -39 102 -38q152 0 244 233l338 846h-230l31 147h256l88 211q66 158 185.5 254t250.5 96q78 0 154 -38l-94 -160q-51 41 -99 41q-145 0 -247 -262l-56 -142h232l-31 -147h-260l-324 -813q-86 -217 -208.5 -320.5t-296.5 -103.5q-58 0 -107 20z" />
<glyph unicode="&#x1a0;" horiz-adv-x="1593" d="M115 555q-4 184 73.5 372.5t212.5 329.5q248 260 596 261q291 0 449 -158q27 -33 29 -35q86 53 120 168h-86l45 211h193l-43 -205q-49 -172 -180 -248q70 -139 69 -301q0 -242 -105.5 -463t-285.5 -360q-205 -158 -500 -158q-131 0 -247.5 42t-190.5 116 q-149 149 -149 428zM311 571q0 -182 84 -288q53 -68 143.5 -108t190.5 -40q150 0 279 67.5t219 192.5q170 231 170 518q0 182 -84 291q-53 68 -144.5 108t-195.5 40q-143 0 -273.5 -69t-220.5 -191q-82 -113 -127 -252.5t-41 -268.5z" />
<glyph unicode="&#x1a1;" horiz-adv-x="1206" d="M66 352q0 131 43 273.5t112 240.5q78 113 199 175.5t264 62.5q178 0 281 -100q41 -45 65 -89q76 57 105 158h-86l45 211h192l-43 -205q-49 -172 -180 -248q14 -63 14 -110q0 -133 -43 -275.5t-114 -238.5q-172 -238 -467 -238q-172 0 -279.5 106.5t-107.5 276.5zM246 393 q0 -123 63.5 -194.5t171.5 -71.5q211 0 330 215q86 160 86 340q0 51 -12 94h-4l2 10q-47 160 -226 160q-209 0 -325 -215q-86 -160 -86 -338z" />
<glyph unicode="&#x1af;" horiz-adv-x="1597" d="M156 334q0 61 28 196l205 963h193l-220 -1032q-10 -55 -10 -90q0 -106 91.5 -171t238.5 -65q174 0 292 87t150 239l219 1032h193l-41 -190q121 51 162 190h-86l45 211h192l-43 -205q-68 -240 -290 -293l-158 -745q-47 -223 -230.5 -357.5t-441.5 -134.5q-246 0 -377 119 q-49 45 -80.5 114t-31.5 132z" />
<glyph unicode="&#x1b0;" horiz-adv-x="1263" d="M82 193q0 39 6 69l172 811h172l-158 -743q-6 -31 -6 -56q0 -72 49.5 -114.5t133.5 -42.5q131 0 231 99t135 265l125 592h172l-41 -192q123 51 166 192h-86l45 211h193l-43 -205q-68 -242 -295 -295l-166 -784h-156l29 133q-170 -164 -395 -164q-133 0 -208 60t-75 164z " />
<glyph unicode="&#x1dd;" d="M70 319q0 86 28 240l4 27h791q12 49 10 94q0 129 -65.5 197.5t-188.5 68.5q-203 0 -317 -198h-172q47 164 189.5 260t328.5 96q182 0 293.5 -113.5t111.5 -279.5q0 -125 -49 -274.5t-121 -246.5q-76 -102 -197.5 -161.5t-254.5 -59.5q-166 0 -278.5 101.5t-112.5 248.5z M250 379q0 -115 64.5 -183.5t172.5 -68.5q123 0 226.5 88t142.5 223h-602q-4 -49 -4 -59z" />
<glyph unicode="&#x1e6;" horiz-adv-x="1593" d="M123 545q0 242 112.5 466t325.5 371.5t475 147.5q240 0 379 -124t139 -331v-12v-23h-186q-2 154 -104.5 239t-264.5 85q-287 0 -483.5 -235.5t-196.5 -550.5q0 -215 105.5 -332t316.5 -117q201 0 360 121t204 317l12 54h-455l37 167h623l-168 -788h-121l-10 176 q-141 -119 -264 -166t-285 -47q-248 0 -399.5 154t-151.5 428zM760 1880h153l138 -182l256 182h157l-315 -276h-234z" />
<glyph unicode="&#x1e7;" d="M-37 -186q0 20 2 36l2 27h172v-29q0 -70 58.5 -108.5t162.5 -38.5q164 0 253 90t135 299l8 41q-156 -162 -353 -162q-158 0 -256 104.5t-98 272.5q0 303 172 530.5t432 227.5q197 0 285 -191l35 160h155l-190 -899q-41 -195 -88 -302.5t-125 -180.5q-143 -137 -399 -137 q-164 0 -263.5 70.5t-99.5 189.5zM229 379q0 -121 60.5 -191.5t163.5 -70.5q178 0 291.5 171t113.5 406q0 115 -59.5 183.5t-157.5 68.5q-176 0 -294 -172t-118 -395zM489 1495h129l115 -203l213 203h131l-262 -307h-194z" />
<glyph unicode="&#x1ea;" horiz-adv-x="1593" d="M113 549q0 250 116.5 475t322.5 365.5t447 140.5q279 0 437.5 -149.5t158.5 -417.5q0 -336 -181 -610.5t-482 -358.5q-96 -27 -165 -87.5t-69 -133.5q0 -84 66 -84h100l-28 -160h-103q-86 0 -142 44t-56 116q0 154 165 274q-274 0 -430.5 152.5t-156.5 433.5zM309 565 q0 -207 114 -321.5t304.5 -114.5t347 114.5t240.5 296t84 386.5q0 207 -114 322.5t-310 115.5q-188 0 -343 -114.5t-239 -297t-84 -387.5z" />
<glyph unicode="&#x1eb;" d="M63 344q0 205 74 377t217.5 277.5t329.5 105.5q180 0 286.5 -108.5t106.5 -274.5q0 -240 -99 -425t-271 -269q-236 -115 -236 -254q0 -84 66 -84h100l-29 -160h-102q-86 0 -142.5 44t-56.5 116q0 156 174 280h-28q-174 0 -282 102.5t-108 272.5zM244 385 q0 -121 63.5 -189.5t173.5 -68.5q180 0 298 162t118 393q0 125 -63.5 194.5t-176.5 69.5q-178 0 -295.5 -167t-117.5 -394z" />
<glyph unicode="&#x1f4;" horiz-adv-x="1593" d="M123 545q0 242 112.5 466t325.5 371.5t475 147.5q240 0 379 -124t139 -331v-12v-23h-186q-2 154 -104.5 239t-264.5 85q-287 0 -483.5 -235.5t-196.5 -550.5q0 -215 105.5 -332t316.5 -117q201 0 360 121t204 317l12 54h-455l37 167h623l-168 -788h-121l-10 176 q-141 -119 -264 -166t-285 -47q-248 0 -399.5 154t-151.5 428zM977 1604l315 272h275l-443 -272h-147z" />
<glyph unicode="&#x1f5;" d="M-37 -186q0 20 2 36l2 27h172v-29q0 -70 58.5 -108.5t162.5 -38.5q164 0 253 90t135 299l8 41q-156 -162 -353 -162q-158 0 -256 104.5t-98 272.5q0 303 172 530.5t432 227.5q197 0 285 -191l35 160h155l-190 -899q-41 -195 -88 -302.5t-125 -180.5q-143 -137 -399 -137 q-164 0 -263.5 70.5t-99.5 189.5zM229 379q0 -121 60.5 -191.5t163.5 -70.5q178 0 291.5 171t113.5 406q0 115 -59.5 183.5t-157.5 68.5q-176 0 -294 -172t-118 -395zM657 1190l263 303h229l-369 -303h-123z" />
<glyph unicode="&#x1fa;" horiz-adv-x="1366" d="M-68 0l850 1493h246l207 -1493h-209l-55 449h-584l-252 -449h-203zM477 608h473l-82 682zM762 1733q0 88 75.5 161.5t168.5 73.5q70 0 115.5 -43t45.5 -106q0 -96 -74.5 -170t-170.5 -74q-68 0 -114 46t-46 112zM866 1753q0 -35 21.5 -57.5t56.5 -22.5q45 0 83 37t38 80 q0 35 -21.5 57.5t-54.5 22.5q-47 0 -85 -37t-38 -80zM940 2009l315 272h275l-443 -272h-147z" />
<glyph unicode="&#x1fb;" d="M33 223q0 182 166 287q74 47 163 67.5t297 40.5q111 10 154 35t53 86l6 37q4 33 5 39q0 57 -62.5 94t-155.5 37q-221 0 -280 -190h-172q29 170 157 259t341 89q162 0 259 -63.5t97 -168.5q0 -20 -12 -75l-125 -588q-2 -6 -2 -21q0 -59 77 -59q16 0 35 4l-26 -133 q-104 -18 -109 -18q-80 0 -121 23.5t-41 82.5l2 31q-109 -90 -202 -120t-207 -30q-139 0 -218 66.5t-79 187.5zM213 244q0 -127 184 -127q135 0 251 70.5t136 164.5l37 176q-88 -31 -299 -59q-164 -23 -236.5 -76t-72.5 -149zM555 1313q0 88 76 161.5t168 73.5q70 0 116 -43 t46 -106q0 -96 -75 -170t-171 -74q-68 0 -114 46t-46 112zM659 1333q0 -35 21.5 -57.5t56.5 -22.5q45 0 83 37t38 80q0 35 -21.5 57.5t-54.5 22.5q-47 0 -85 -37t-38 -80zM733 1589l316 273h274l-442 -273h-148z" />
<glyph unicode="&#x1fc;" horiz-adv-x="2048" d="M-80 0l930 1493h1274l-35 -168h-760l-100 -477h719l-37 -168h-719l-109 -512h795l-35 -168h-987l92 438h-551l-266 -438h-211zM498 604h487l152 721h-205zM1219 1604l315 272h274l-442 -272h-147z" />
<glyph unicode="&#x1fd;" horiz-adv-x="1820" d="M18 215q0 88 45.5 167t122.5 128q76 47 163 66.5t292 37.5q109 10 149.5 35t55.5 90l10 52q4 29 4 38q0 53 -57.5 85t-155.5 32q-121 0 -188.5 -45t-100.5 -145h-172q43 158 109 223q129 125 395 125q113 0 207 -38t119 -95q150 133 373 133q156 0 269.5 -102.5 t113.5 -243.5q0 -90 -29 -244l-6 -35h-791q-10 -45 -10 -108v-37q4 -76 74.5 -141.5t185.5 -65.5q203 0 313 199h172q-47 -156 -190 -256.5t-328 -100.5q-240 0 -356 209q-215 -209 -494 -209q-135 0 -215 63.5t-80 182.5zM201 244q0 -127 186 -127q129 0 242.5 71.5 t134.5 163.5l37 174q-88 -31 -291 -57q-166 -23 -237.5 -76t-71.5 -149zM983 627h602q6 45 6 67q0 115 -63.5 183.5t-171.5 68.5q-127 0 -226.5 -84.5t-146.5 -234.5zM999 1190l263 303h229l-369 -303h-123z" />
<glyph unicode="&#x1fe;" horiz-adv-x="1593" d="M-16 43l204 180q-76 135 -75 326q0 250 116.5 475t322.5 365.5t447 140.5q305 0 465 -176l193 172l67 -76l-202 -178q74 -125 73 -309q0 -260 -108.5 -486.5t-316 -370t-470.5 -143.5q-299 0 -454 178l-197 -174zM309 565q0 -115 37 -200l965 854q-111 145 -336 145 q-188 0 -343 -114.5t-239 -297t-84 -387.5zM397 274q115 -145 330 -145q190 0 347 114.5t241 296t84 386.5q0 115 -37 204zM961 1604l315 272h274l-442 -272h-147z" />
<glyph unicode="&#x1ff;" horiz-adv-x="1251" d="M-20 43l124 119q-41 78 -41 182q0 205 74 377t217.5 277.5t329.5 105.5q188 0 297 -119l119 109l61 -64l-127 -121q43 -82 43 -188q0 -324 -174 -538t-450 -214q-184 0 -295 117l-115 -106zM244 385q0 -53 10 -86l594 559q-63 88 -191 88q-178 0 -295.5 -167t-117.5 -394 zM293 213q63 -86 188 -86q180 0 298 162t118 393q0 43 -10 90zM715 1190l262 303h229l-368 -303h-123z" />
<glyph unicode="&#x200;" horiz-adv-x="1366" d="M-68 0l850 1493h246l207 -1493h-209l-55 449h-584l-252 -449h-203zM459 1915h229l133 -307h-123zM477 608h473l-82 682zM836 1915h229l133 -307h-123z" />
<glyph unicode="&#x201;" d="M33 223q0 182 166 287q74 47 163 67.5t297 40.5q111 10 154 35t53 86l6 37q4 33 5 39q0 57 -62.5 94t-155.5 37q-221 0 -280 -190h-172q29 170 157 259t341 89q162 0 259 -63.5t97 -168.5q0 -20 -12 -75l-125 -588q-2 -6 -2 -21q0 -59 77 -59q16 0 35 4l-26 -133 q-104 -18 -109 -18q-80 0 -121 23.5t-41 82.5l2 31q-109 -90 -202 -120t-207 -30q-139 0 -218 66.5t-79 187.5zM213 244q0 -127 184 -127q135 0 251 70.5t136 164.5l37 176q-88 -31 -299 -59q-164 -23 -236.5 -76t-72.5 -149zM252 1495h229l133 -307h-122zM629 1495h229 l133 -307h-123z" />
<glyph unicode="&#x204;" horiz-adv-x="1366" d="M82 0l317 1493h1037l-35 -168h-844l-102 -477h811l-37 -168h-809l-111 -512h879l-35 -168h-1071zM471 1915h229l134 -307h-123zM848 1915h229l133 -307h-123z" />
<glyph unicode="&#x205;" d="M72 362q0 125 49 274.5t121 246.5q76 102 197.5 161.5t254.5 59.5q166 0 278.5 -101.5t112.5 -248.5q0 -86 -28 -240l-4 -27h-791q-12 -49 -10 -94q0 -129 66.5 -197.5t189.5 -68.5q205 0 315 199h172q-47 -164 -188 -260.5t-328 -96.5q-182 0 -294.5 114.5t-112.5 278.5 zM250 1495h229l133 -307h-123zM299 635h602q4 49 4 59q0 115 -64.5 183.5t-172.5 68.5q-123 0 -226.5 -88t-142.5 -223zM627 1495h229l133 -307h-123z" />
<glyph unicode="&#x208;" horiz-adv-x="569" d="M70 1915h229l133 -307h-123zM102 0l318 1493h192l-317 -1493h-193zM446 1915h230l133 -307h-123z" />
<glyph unicode="&#x209;" horiz-adv-x="569" d="M-35 1495h230l133 -307h-123zM96 0l228 1073h172l-228 -1073h-172zM342 1495h229l134 -307h-123z" />
<glyph unicode="&#x20c;" horiz-adv-x="1593" d="M113 549q0 250 116.5 475t322.5 365.5t447 140.5q279 0 437.5 -149.5t158.5 -417.5q0 -260 -108.5 -486.5t-316 -370t-470.5 -143.5q-274 0 -430.5 152.5t-156.5 433.5zM309 565q0 -207 114 -321.5t304.5 -114.5t347 114.5t240.5 296t84 386.5q0 207 -114 322.5 t-310 115.5q-188 0 -343 -114.5t-239 -297t-84 -387.5zM547 1915h229l133 -307h-123zM924 1915h229l133 -307h-123z" />
<glyph unicode="&#x20d;" d="M63 344q0 205 74 377t217.5 277.5t329.5 105.5q180 0 286.5 -108.5t106.5 -274.5q0 -324 -174 -538t-450 -214q-174 0 -282 102.5t-108 272.5zM231 1495h230l133 -307h-123zM244 385q0 -121 63.5 -189.5t173.5 -68.5q180 0 298 162t118 393q0 125 -63.5 194.5 t-176.5 69.5q-178 0 -295.5 -167t-117.5 -394zM608 1495h230l133 -307h-123z" />
<glyph unicode="&#x210;" horiz-adv-x="1478" d="M88 0l318 1493h688q197 0 289 -77t92 -238q0 -152 -70 -255.5t-217 -185.5q72 -47 97.5 -88t25.5 -108q0 -57 -43 -283q-12 -66 -13 -102q0 -70 43 -109l-10 -47h-231q-8 57 -8 96q0 49 6 83t43 188q16 72 16 122q0 154 -207 154h-489l-137 -643h-193zM453 811h473 q170 0 261 93t91 239q0 92 -55.5 137t-188.5 45h-471zM471 1915h229l134 -307h-123zM848 1915h229l133 -307h-123z" />
<glyph unicode="&#x211;" horiz-adv-x="681" d="M-6 1495h229l133 -307h-123zM39 0l227 1073h156l-35 -168q94 109 171 154t167 45q25 0 66 -6l-37 -174h-21q-326 0 -403 -367l-119 -557h-172zM371 1495h229l133 -307h-123z" />
<glyph unicode="&#x214;" horiz-adv-x="1478" d="M154 328q0 61 28 196l207 969h193l-222 -1038q-10 -41 -10 -90q0 -106 91 -171t239 -65q174 0 292 87t150 239l221 1038h193l-221 -1038q-47 -223 -230.5 -357.5t-441.5 -134.5q-219 0 -354 102.5t-135 262.5zM516 1915h229l134 -307h-123zM893 1915h229l133 -307h-122z " />
<glyph unicode="&#x215;" d="M82 193q0 39 6 69l172 811h172l-158 -743q-6 -31 -6 -56q0 -72 49.5 -114.5t133.5 -42.5q131 0 231 99t135 265l125 592h172l-227 -1073h-156l27 125q-170 -156 -393 -156q-133 0 -208 60t-75 164zM250 1495h229l133 -307h-123zM627 1495h229l133 -307h-123z" />
<glyph unicode="&#x218;" horiz-adv-x="1366" d="M82 356q0 61 18 129h179q-8 -51 -9 -84q0 -139 82 -205.5t256 -66.5q205 0 335 89t130 220q0 72 -54 121t-177 84l-350 100q-102 29 -165 105t-63 172q0 78 42 175t106 161q168 174 487 174q215 0 339 -95.5t124 -252.5q0 -39 -16 -115h-181q8 55 9 74q0 223 -312 223 q-176 0 -288.5 -83t-112.5 -208q0 -68 44 -104.5t163 -71.5l352 -100q115 -33 182.5 -116t67.5 -185q0 -86 -50.5 -187.5t-127.5 -173.5q-184 -172 -517 -172q-231 0 -362 104.5t-131 288.5zM350 -582l17 78q119 0 151 180h-112l43 201h204l-39 -190q-29 -127 -98.5 -198 t-165.5 -71z" />
<glyph unicode="&#x219;" horiz-adv-x="1024" d="M27 231q0 47 12 105h182q-4 -41 -4 -51q0 -76 57.5 -117t163.5 -41q121 0 207 55.5t86 141.5q0 39 -27.5 68.5t-115.5 51.5l-152 39q-158 39 -220 92.5t-62 147.5q0 166 131 273.5t342 107.5q150 0 243 -67.5t93 -174.5q0 -37 -13 -88h-172q2 16 2 45q0 59 -49 93 t-139 34q-117 0 -187.5 -49t-70.5 -129t174 -123l156 -39q135 -33 191 -87t56 -148q0 -182 -137 -292t-366 -110q-178 0 -279.5 69.5t-101.5 192.5zM180 -582l17 78q119 0 151 180h-112l43 201h204l-39 -190q-29 -127 -98.5 -198t-165.5 -71z" />
<glyph unicode="&#x21a;" horiz-adv-x="1251" d="M221 1325l35 168h1174l-35 -168h-488l-282 -1325h-193l283 1325h-494zM299 -582l16 78q119 0 152 180h-113l43 201h205l-39 -190q-29 -127 -98.5 -198t-165.5 -71z" />
<glyph unicode="&#x21b;" horiz-adv-x="569" d="M8 -582l17 78q119 0 151 180h-113l43 201h205l-39 -190q-29 -127 -98.5 -198t-165.5 -71zM102 147q0 33 7 64l155 725h-145l28 137h146l63 295h172l-63 -295h182l-29 -137h-182l-153 -719q-4 -25 -4 -29q0 -25 20 -40t53 -15q27 0 99 17l-33 -150q-49 -14 -133 -14 t-133.5 42.5t-49.5 118.5z" />
<glyph unicode="&#x258;" d="M70 326h172q29 -199 231 -199q254 0 371 266q20 45 28 94h-790l8 27q33 145 72 240q63 147 219 248.5t321 101.5q133 0 229.5 -59.5t129.5 -161.5q31 -96 16.5 -247t-67.5 -274q-70 -164 -231 -278.5t-343 -114.5q-186 0 -286 96.5t-80 260.5zM297 635h602 q18 135 -48.5 223t-188.5 88q-109 0 -202 -68.5t-143 -183.5q-4 -10 -20 -59z" />
<glyph unicode="&#x259;" d="M70 319q0 86 28 240l4 27h791q12 49 10 94q0 129 -65.5 197.5t-188.5 68.5q-203 0 -317 -198h-172q47 164 189.5 260t328.5 96q182 0 293.5 -113.5t111.5 -279.5q0 -125 -49 -274.5t-121 -246.5q-76 -102 -197.5 -161.5t-254.5 -59.5q-166 0 -278.5 101.5t-112.5 248.5z M250 379q0 -115 64.5 -183.5t172.5 -68.5q123 0 226.5 88t142.5 223h-602q-4 -49 -4 -59z" />
<glyph unicode="&#x2be;" horiz-adv-x="927" d="M233 864v15q2 14 3 26l2 21q0 18 20 18h115q14 0 14 -14q-2 -10 -2 -29q-2 -51 32 -82t93 -31q113 0 183.5 108t70.5 251q0 74 -38 115t-103 41q-137 0 -193 -148q-8 -14 -18 -14h-115q-18 0 -14 18q45 150 134 215.5t232 65.5q123 0 197 -76t74 -195 q-2 -227 -122 -372.5t-315 -145.5q-111 0 -179.5 63.5t-70.5 149.5z" />
<glyph unicode="&#x2bf;" horiz-adv-x="927" d="M250 922q0 227 119.5 372.5t314.5 145.5q111 0 180.5 -63.5t69.5 -149.5v-15q-2 -14 -2 -26l-2 -21q0 -18 -21 -18h-114q-12 0 -13 14q4 16 0 29q2 51 -31.5 82t-93.5 31q-113 0 -183.5 -108t-70.5 -251q0 -74 38 -115t104 -41q139 0 192 148q8 14 21 14h114q16 0 13 -18 q-45 -150 -133 -215.5t-232 -65.5q-125 0 -198.5 76t-71.5 195z" />
<glyph unicode="&#x2c6;" horiz-adv-x="681" d="M197 1188l262 307h194l131 -307h-129l-114 203l-213 -203h-131z" />
<glyph unicode="&#x2c7;" horiz-adv-x="681" d="M262 1495h129l115 -203l213 203h131l-262 -307h-195z" />
<glyph unicode="&#x2d8;" horiz-adv-x="681" d="M233 1407q0 25 11 74h108v-27q0 -45 46 -73.5t122 -28.5q193 0 225 129h115q-35 -139 -133 -208t-233 -69q-115 0 -188 56.5t-73 146.5z" />
<glyph unicode="&#x2d9;" horiz-adv-x="681" d="M393 1237l45 211h213l-45 -211h-213z" />
<glyph unicode="&#x2da;" horiz-adv-x="681" d="M322 1303q0 88 75.5 161.5t167.5 73.5q70 0 116 -43t46 -106q0 -96 -74.5 -170t-171.5 -74q-68 0 -113.5 46t-45.5 112zM426 1323q0 -35 21.5 -57.5t56.5 -22.5q45 0 83 37t38 80q0 35 -21.5 57.5t-54.5 22.5q-47 0 -85 -37t-38 -80z" />
<glyph unicode="&#x2db;" horiz-adv-x="681" d="M102 -311q0 174 220 311h133q-188 -125 -189 -227q0 -84 66 -84h100l-29 -160h-102q-86 0 -142.5 44t-56.5 116z" />
<glyph unicode="&#x2dc;" horiz-adv-x="681" d="M160 1231q39 113 88 162t125 49q14 0 132 -33t146 -33q31 0 50.5 15.5t48.5 60.5h108q-33 -100 -92 -159.5t-129 -59.5q-55 0 -211 53q-35 12 -55 12q-35 0 -53.5 -13t-49.5 -54h-108z" />
<glyph unicode="&#x2dd;" horiz-adv-x="681" d="M223 1188l262 307h230l-369 -307h-123zM600 1188l262 307h230l-369 -307h-123z" />
<glyph unicode="&#x300;" horiz-adv-x="0" d="M-719 1493h230l133 -303h-123z" />
<glyph unicode="&#x301;" horiz-adv-x="0" d="M-479 1190l262 303h229l-368 -303h-123z" />
<glyph unicode="&#x302;" horiz-adv-x="0" d="M-713 1188l262 307h195l131 -307h-129l-115 203l-213 -203h-131z" />
<glyph unicode="&#x303;" horiz-adv-x="0" d="M-750 1231q39 113 88.5 162t124.5 49q14 0 132 -33t147 -33q31 0 50.5 15.5t47.5 60.5h109q-33 -100 -92.5 -159.5t-128.5 -59.5q-55 0 -211 53q-33 12 -56 12q-35 0 -53 -13t-49 -54h-109z" />
<glyph unicode="&#x304;" horiz-adv-x="0" d="M-686 1272l31 141h563l-31 -141h-563z" />
<glyph unicode="&#x306;" horiz-adv-x="0" d="M-676 1407q0 25 10 74h109v-27q0 -45 46 -73.5t122 -28.5q193 0 225 129h115q-35 -139 -133.5 -208t-233.5 -69q-115 0 -187.5 56.5t-72.5 146.5z" />
<glyph unicode="&#x307;" horiz-adv-x="0" d="M-516 1237l45 211h213l-45 -211h-213z" />
<glyph unicode="&#x308;" horiz-adv-x="0" d="M-668 1237l45 209h187l-45 -209h-187zM-336 1237l45 209h187l-46 -209h-186z" />
<glyph unicode="&#x309;" horiz-adv-x="0" d="M-590 1389q49 209 260 208q84 0 132 -34.5t48 -92.5q0 -92 -139 -176q-45 -27 -60.5 -41t-25.5 -36l-12 -48h-119l19 68q10 35 32.5 56.5t98.5 72.5q86 53 86 94t-78 41q-98 0 -127 -112h-115z" />
<glyph unicode="&#x30a;" horiz-adv-x="0" d="M-588 1303q0 88 76 161.5t168 73.5q70 0 116 -43t46 -106q0 -96 -75 -170t-171 -74q-68 0 -114 46t-46 112zM-483 1323q0 -35 21.5 -57.5t55.5 -22.5q45 0 83 37t38 80q0 35 -21.5 57.5t-53.5 22.5q-47 0 -85 -37t-38 -80z" />
<glyph unicode="&#x30b;" horiz-adv-x="0" d="M-686 1188l262 307h229l-368 -307h-123zM-309 1188l262 307h229l-368 -307h-123z" />
<glyph unicode="&#x30c;" horiz-adv-x="0" d="M-647 1495h129l115 -203l213 203h131l-263 -307h-194z" />
<glyph unicode="&#x30f;" horiz-adv-x="0" d="M-889 1495h230l133 -307h-123zM-512 1495h229l133 -307h-122z" />
<glyph unicode="&#x311;" horiz-adv-x="0" d="M-725 1204q35 139 133 208t234 69q115 0 187.5 -56.5t72.5 -146.5q0 -25 -11 -74h-108v27q0 45 -46 73.5t-122 28.5q-193 0 -225 -129h-115z" />
<glyph unicode="&#x323;" horiz-adv-x="0" d="M-858 -373l45 211h213l-45 -211h-213z" />
<glyph unicode="&#x326;" horiz-adv-x="0" d="M-897 -582l16 78q119 0 152 180h-113l43 201h205l-39 -190q-29 -127 -98.5 -198t-165.5 -71z" />
<glyph unicode="&#x32e;" horiz-adv-x="0" d="M-1083 -203q0 20 12 58h131v-21q0 -39 55.5 -61.5t145.5 -22.5q231 0 270 105h137q-43 -115 -164.5 -179.5t-279.5 -64.5q-135 0 -221 55t-86 131z" />
<glyph unicode="&#x32f;" horiz-adv-x="0" d="M-1124 -389q43 115 164.5 179.5t279.5 64.5q135 0 221 -55.5t86 -131.5q0 -20 -12 -57h-131v20q0 39 -55.5 61.5t-145.5 22.5q-231 0 -270 -104h-137z" />
<glyph unicode="&#x330;" horiz-adv-x="0" d="M-1092 -379q39 113 88.5 162t124.5 49q14 0 132 -32.5t147 -32.5q31 0 50.5 15t47.5 60h109q-33 -100 -92.5 -159.5t-128.5 -59.5q-55 0 -211 53q-35 12 -56 13q-35 0 -53 -13.5t-49 -54.5h-109z" />
<glyph unicode="&#x331;" horiz-adv-x="0" d="M-1028 -338l31 141h563l-31 -141h-563z" />
<glyph unicode="&#x332;" horiz-adv-x="0" d="M-1028 -338l31 141h563l-31 -141h-563z" />
<glyph unicode="&#x391;" horiz-adv-x="1366" d="M-68 0l850 1493h246l207 -1493h-209l-55 449h-584l-252 -449h-203zM477 608h473l-82 682z" />
<glyph unicode="&#x392;" horiz-adv-x="1366" d="M59 0l318 1493h606q172 0 271.5 -81t99.5 -216q0 -137 -73 -243.5t-206 -166.5q109 -47 154 -105t45 -153q0 -225 -159 -376.5t-380 -151.5h-676zM287 168h465q143 0 234 92t91 236q0 186 -217 186h-463zM432 850h369q176 0 266 82t90 217q0 176 -254 176h-368z" />
<glyph unicode="&#x393;" horiz-adv-x="1251" d="M82 0l317 1493h1002l-35 -168h-809l-283 -1325h-192z" />
<glyph unicode="&#x394;" horiz-adv-x="1458" d="M-106 0l968 1464h152l346 -1464h-1466zM188 168h949l-250 1057z" />
<glyph unicode="&#x395;" horiz-adv-x="1366" d="M82 0l317 1493h1037l-35 -168h-844l-102 -477h811l-37 -168h-809l-111 -512h879l-35 -168h-1071z" />
<glyph unicode="&#x396;" horiz-adv-x="1251" d="M-45 0l37 172l1136 1153h-831l35 168h1075l-37 -172l-1139 -1153h897l-34 -168h-1139z" />
<glyph unicode="&#x397;" horiz-adv-x="1478" d="M68 0l317 1493h193l-138 -645h764l137 645h193l-317 -1493h-193l145 680h-763l-146 -680h-192z" />
<glyph unicode="&#x398;" horiz-adv-x="1593" d="M113 549q0 250 116.5 475t322.5 365.5t447 140.5q279 0 437.5 -149.5t158.5 -417.5q0 -260 -108.5 -486.5t-316 -370t-470.5 -143.5q-274 0 -430.5 152.5t-156.5 433.5zM309 565q0 -207 114 -321.5t304.5 -114.5t347 114.5t240.5 296t84 386.5q0 207 -114 322.5 t-310 115.5q-188 0 -343 -114.5t-239 -297t-84 -387.5zM428 664l37 167h815l-37 -167h-815z" />
<glyph unicode="&#x399;" horiz-adv-x="569" d="M102 0l318 1493h192l-317 -1493h-193z" />
<glyph unicode="&#x39a;" horiz-adv-x="1366" d="M59 0l318 1493h192l-161 -764l909 764h246l-740 -610l422 -883h-225l-344 770l-316 -260l-108 -510h-193z" />
<glyph unicode="&#x39b;" horiz-adv-x="1366" d="M-68 0l850 1493h246l207 -1493h-209l-158 1290l-733 -1290h-203z" />
<glyph unicode="&#x39c;" horiz-adv-x="1705" d="M51 0l318 1493h264l164 -1284l708 1284h269l-318 -1493h-182l264 1239l-684 -1239h-199l-157 1239l-265 -1239h-182z" />
<glyph unicode="&#x39d;" horiz-adv-x="1478" d="M53 0l318 1493h213l512 -1225l260 1225h182l-317 -1493h-217l-510 1210l-258 -1210h-183z" />
<glyph unicode="&#x39e;" horiz-adv-x="1478" d="M-23 0l41 188h1319l-41 -188h-1319zM254 1305l41 188h1319l-41 -188h-1319zM311 664l35 167h934l-35 -167h-934z" />
<glyph unicode="&#x39f;" horiz-adv-x="1593" d="M113 549q0 250 116.5 475t322.5 365.5t447 140.5q279 0 437.5 -149.5t158.5 -417.5q0 -260 -108.5 -486.5t-316 -370t-470.5 -143.5q-274 0 -430.5 152.5t-156.5 433.5zM309 565q0 -207 114 -321.5t304.5 -114.5t347 114.5t240.5 296t84 386.5q0 207 -114 322.5 t-310 115.5q-188 0 -343 -114.5t-239 -297t-84 -387.5z" />
<glyph unicode="&#x3a0;" horiz-adv-x="1271" d="M-41 0l317 1493h1149l-317 -1493h-190l282 1325h-768l-282 -1325h-191z" />
<glyph unicode="&#x3a1;" horiz-adv-x="1366" d="M84 0l317 1493h619q379 0 379 -330q0 -215 -147.5 -372.5t-372.5 -157.5h-467l-136 -633h-192zM446 801h398q158 0 258 94t100 231q0 199 -246 199h-397z" />
<glyph unicode="&#x3a3;" horiz-adv-x="1232" d="M-41 0l33 152l721 596l-469 593l32 152h1108l-34 -168h-856l456 -577l-702 -580h856l-35 -168h-1110z" />
<glyph unicode="&#x3a4;" horiz-adv-x="1251" d="M221 1325l35 168h1174l-35 -168h-488l-282 -1325h-193l283 1325h-494z" />
<glyph unicode="&#x3a5;" horiz-adv-x="1366" d="M242 1493h229l279 -731l591 731h228l-754 -907l-125 -586h-192l125 586z" />
<glyph unicode="&#x3a6;" horiz-adv-x="1558" d="M195 748q39 186 222 304.5t417 139.5l63 301h193l-64 -301q223 -20 355 -139t94 -305q-27 -127 -125.5 -225.5t-231.5 -153t-282 -68.5l-64 -301h-192l63 301q-223 20 -355 139.5t-93 307.5zM371 748q-27 -125 62 -199t243 -92l125 579q-164 -18 -283.5 -91.5 t-146.5 -196.5zM868 457q164 18 284 92t146 199q27 123 -62 196.5t-243 91.5z" />
<glyph unicode="&#x3a7;" horiz-adv-x="1366" d="M-57 0l694 766l-342 727h231l256 -584l508 584h234l-662 -727l367 -766h-236l-274 623l-541 -623h-235z" />
<glyph unicode="&#x3a8;" horiz-adv-x="1525" d="M264 1073l90 420h176l-90 -420q-35 -162 38 -288t218 -160l185 868h192l-184 -868q160 35 285.5 160.5t160.5 287.5l88 420h176l-88 -420q-49 -229 -236.5 -400t-420.5 -206l-98 -467h-193l99 467q-217 35 -332 206t-66 400z" />
<glyph unicode="&#x3a9;" horiz-adv-x="1556" d="M-41 0l35 168h407l29 137q-109 66 -169 178.5t-60 249.5q0 201 115.5 384t300 292t380.5 109q229 0 377 -146.5t148 -365.5q0 -217 -134.5 -408.5t-336.5 -292.5l-29 -137h408l-37 -168h-598l88 412q180 49 312 210.5t132 350.5q0 162 -100.5 269.5t-263.5 107.5 q-219 0 -393.5 -179.5t-174.5 -404.5q0 -129 66.5 -224.5t181.5 -129.5l-86 -412h-598z" />
<glyph unicode="&#x3b1;" horiz-adv-x="1576" d="M145 510q51 242 249 415t431 173q287 0 389 -367q184 344 222 387l116 -90q-57 -66 -301 -518q33 -332 92 -465l-155 -90q-41 88 -72 342q-250 -322 -528 -322q-229 0 -359.5 156t-83.5 379zM313 510q-33 -158 57.5 -268.5t250.5 -110.5q137 0 258.5 106.5t214.5 272.5 q-45 432 -301 432q-164 0 -303.5 -128t-176.5 -304z" />
<glyph unicode="&#x3b2;" horiz-adv-x="1124" d="M-53 -471l334 1573q39 182 171 286.5t306 104.5t273 -81t99 -220q0 -123 -63 -219t-182 -148q172 -76 172 -256q0 -262 -169 -431t-431 -169q-141 0 -224 94l-114 -534h-172zM268 233q86 -98 230 -98q162 0 270.5 107.5t108.5 271.5q0 201 -254 201h-64l37 168 q152 0 253 77.5t101 196.5q0 84 -54 131t-148 47q-244 0 -295 -233z" />
<glyph unicode="&#x3b3;" horiz-adv-x="1312" d="M266 1073h178l158 -848l520 848h178l-663 -1087l-98 -457h-168l98 457z" />
<glyph unicode="&#x3b4;" horiz-adv-x="1124" d="M45 354q0 211 161 351.5t400 187.5q-76 76 -115.5 144.5t-39.5 154.5q0 137 110.5 219t265.5 82q188 0 283 -145l-106 -86q-74 94 -205 94q-176 0 -176 -146q0 -39 13 -74.5t35.5 -64.5t52.5 -57.5t60 -51.5l64 -51q217 -176 217 -381q0 -45 -6 -73q-45 -205 -221 -346.5 t-383 -141.5q-180 0 -295 107.5t-115 277.5zM244 383q0 -109 67.5 -176.5t177.5 -67.5q129 0 238 92.5t137 225.5q6 27 6 69q0 172 -137 258q-190 0 -339.5 -113.5t-149.5 -287.5z" />
<glyph unicode="&#x3b5;" horiz-adv-x="1247" d="M111 350q35 170 239 240q-143 72 -108 227q31 147 180 235.5t328 88.5q213 0 440 -117l-76 -115q-154 76 -397 76q-113 0 -202 -42t-105 -126q-8 -37 3 -65.5t29.5 -47t60.5 -30.5t74.5 -18.5t92 -10.5t94.5 -4h100l-26 -125q-96 0 -148.5 -1t-137.5 -9t-132 -24.5 t-89 -50.5t-52 -81q-25 -119 68 -189.5t241 -70.5q236 0 397 74l31 -115q-258 -115 -461 -115q-215 0 -349 116t-95 300z" />
<glyph unicode="&#x3b6;" horiz-adv-x="1069" d="M152 537q55 256 231 474t424 349h-481l26 125h860l-26 -125h-105q-281 -78 -490.5 -308.5t-271.5 -514.5q-33 -152 27 -263.5t191 -111.5h75q131 0 205 -91t47 -223q-27 -129 -139.5 -217t-243.5 -88l29 140q63 0 117.5 49t68.5 116q14 66 -19.5 112t-96.5 46h-76 q-199 0 -299 157t-53 374z" />
<glyph unicode="&#x3b7;" d="M37 0l227 1073h168l-18 -90q152 115 321 115q162 0 254 -112t60 -271l-252 -1186h-168l252 1186q20 94 -32 160.5t-147 66.5q-96 0 -186 -48t-149 -128l-162 -766h-168z" />
<glyph unicode="&#x3b8;" horiz-adv-x="1189" d="M159 448.5q1 129.5 31 272.5q33 154 86.5 290t129 252.5t182 185.5t227.5 69t198 -69t103.5 -185.5t22.5 -253t-37 -289.5q-43 -195 -122 -357.5t-209 -275.5t-284 -113q-117 0 -192.5 63.5t-106 172t-29.5 238zM342 643q-90 -512 178 -512t395 512h-573zM375 799h575 q23 119 30 208t-4 176t-60.5 133t-135.5 46q-70 0 -128 -33t-99 -84t-76 -129t-57 -150.5t-45 -166.5z" />
<glyph unicode="&#x3b9;" horiz-adv-x="724" d="M244 322l159 751h168l-159 -751q-16 -76 10.5 -133.5t89.5 -57.5l-33 -156q-131 0 -198.5 103t-36.5 244z" />
<glyph unicode="&#x3ba;" horiz-adv-x="1024" d="M16 0l228 1073h172l-94 -446l550 446h222l-455 -371l287 -702h-197l-233 596l-220 -180l-88 -416h-172z" />
<glyph unicode="&#x3bb;" horiz-adv-x="1402" d="M37 0l782 973l-12 74q-20 127 -101 209.5t-204 82.5l30 140q174 0 295 -105.5t150 -273.5l186 -1100h-180l-131 776l-623 -776h-192z" />
<glyph unicode="&#x3bc;" horiz-adv-x="1417" d="M76 -471l327 1544h168l-143 -682q4 -117 55.5 -188.5t151.5 -71.5q98 0 182 72.5t135 187.5l144 682h168l-228 -1073h-168l21 94q-135 -119 -289 -119t-235 119l-121 -565h-168z" />
<glyph unicode="&#x3bd;" horiz-adv-x="1169" d="M195 1073h180l190 -911q160 92 270.5 238.5t145.5 314.5q39 176 45 358h170q-6 -172 -47 -358q-51 -240 -221 -442.5t-408 -305.5l-104 43z" />
<glyph unicode="&#x3be;" d="M131 444q25 117 110 210.5t208 150.5q-188 109 -144 309q29 147 182 246h-161l26 125h860l-26 -125h-383q-125 -20 -217 -84t-113 -162q-23 -111 65.5 -175.5t225.5 -64.5l-31 -139q-152 0 -278.5 -81t-155.5 -210q-25 -119 45 -200.5t193 -81.5h75q131 0 205 -91 t47 -223q-27 -129 -139.5 -217t-243.5 -88l29 140q63 0 117.5 49t68.5 116q14 66 -19.5 112t-96.5 46h-76q-190 0 -301 127t-72 311z" />
<glyph unicode="&#x3bf;" d="M63 344q0 205 74 377t217.5 277.5t329.5 105.5q180 0 286.5 -108.5t106.5 -274.5q0 -324 -174 -538t-450 -214q-174 0 -282 102.5t-108 272.5zM244 385q0 -121 63.5 -189.5t173.5 -68.5q180 0 298 162t118 393q0 125 -63.5 194.5t-176.5 69.5q-178 0 -295.5 -167 t-117.5 -394z" />
<glyph unicode="&#x3c0;" horiz-adv-x="1376" d="M109 702q47 215 166.5 293t365.5 78h799l-29 -137h-205l-198 -936h-170l198 936h-340l-198 -936h-170l198 936q-119 0 -186.5 -56.5t-93.5 -177.5h-137z" />
<glyph unicode="&#x3c1;" horiz-adv-x="1302" d="M-63 -471l215 1008q49 229 231 395t399 166t330 -166t63.5 -395.5t-232.5 -395.5t-398 -166q-188 0 -320 125l-121 -571h-167zM266 289q92 -158 312 -158q147 0 271 121t158.5 284.5t-38 284.5t-220 121t-271.5 -121t-159 -284z" />
<glyph unicode="&#x3c2;" d="M154 553q47 221 215 383t366 162q139 0 229.5 -90t88.5 -228l-154 -30q0 84 -55.5 138t-141.5 54q-133 0 -239.5 -115.5t-141 -273.5t23.5 -274.5t192 -116.5h75q131 0 205 -91t47 -223q-27 -129 -139.5 -217t-243.5 -88l29 140q63 0 117.5 49t68.5 116q14 66 -19.5 112 t-96.5 46h-76q-201 0 -299 162t-51 385z" />
<glyph unicode="&#x3c3;" horiz-adv-x="1329" d="M133 344q0 205 74 377t217 277.5t330 105.5q66 0 127 -17q195 14 485 93l10 -152q-156 -39 -315 -55q86 -104 86 -252q0 -324 -174 -538t-451 -214q-174 0 -281.5 102.5t-107.5 272.5zM313 385q0 -121 63.5 -189.5t174.5 -68.5q180 0 298 162t118 393q0 125 -63.5 194.5 t-176.5 69.5q-178 0 -296 -167t-118 -394z" />
<glyph unicode="&#x3c4;" horiz-adv-x="1021" d="M231 911l33 156h744l-35 -156h-287l-125 -589q-16 -76 9.5 -133.5t88.5 -57.5l-32 -156q-129 0 -197 102.5t-37 244.5l125 589h-287z" />
<glyph unicode="&#x3c5;" d="M113 358l151 715h168l-151 -715q-20 -94 34 -160.5t150 -66.5q131 0 235.5 113.5t137.5 267.5q57 264 57 561h170q2 -274 -59 -561q-45 -217 -211 -377t-365 -160q-164 0 -257 111.5t-60 271.5z" />
<glyph unicode="&#x3c6;" horiz-adv-x="1757" d="M152 537q39 180 176 330.5t325 217.5l25 -131q-135 -49 -232.5 -163.5t-126.5 -253.5q-37 -168 82 -274.5t320 -127.5l80 377q51 238 198.5 412t337.5 174q186 0 263 -167t30 -394q-51 -231 -273 -383t-501 -174l-96 -451h-168l96 451q-174 14 -306 83.5t-197.5 193.5 t-32.5 280zM889 135q209 20 372.5 127t200.5 275q18 102 16.5 192t-47 151.5t-126.5 61.5q-86 0 -158 -66.5t-113 -158.5t-65 -205z" />
<glyph unicode="&#x3c7;" horiz-adv-x="1323" d="M-63 -471l591 772l-264 772h189l206 -602l461 602h189l-592 -772l264 -772h-188l-205 602l-463 -602h-188z" />
<glyph unicode="&#x3c8;" horiz-adv-x="1478" d="M113 358l151 715h168l-151 -715q-23 -109 63 -162t238 -63l288 1360h168l-288 -1360q352 25 395 225l151 715h168l-151 -715q-37 -168 -205 -265t-391 -113l-96 -451h-168l96 451q-215 16 -344 113t-92 265z" />
<glyph unicode="&#x3c9;" horiz-adv-x="1550" d="M133 282q-4 130 23 281q49 221 241 510h127q-131 -197 -200 -510q-18 -90 -26.5 -155.5t-5.5 -134t36.5 -105.5t95.5 -37q178 0 272 289q8 137 45 295h168q-16 -74 -24 -117l-20.5 -113.5t-14.5 -112.5t1 -93.5t17.5 -80t41 -48t67.5 -19.5q61 0 110.5 37t81 105.5 t52 134t39.5 155.5q68 307 16 510h129q72 -285 22 -510q-51 -242 -178 -415t-305 -173q-193 0 -237 209q-133 -209 -316 -209q-121 0 -187.5 88.5t-70.5 218.5z" />
<glyph unicode="&#x3d1;" horiz-adv-x="1277" d="M113 358l75 357h168l-75 -357q-20 -96 44 -158.5t171 -62.5q109 0 198.5 62.5t110.5 158.5l94 443q-111 6 -196 17t-165.5 38t-130 66t-71 103.5t-2.5 150.5q33 158 169 268t294 110q182 0 276 -142t51 -339l-30 -151h139l-27 -125h-139l-94 -439q-35 -164 -186.5 -276.5 t-325.5 -112.5q-176 0 -279.5 111.5t-68.5 277.5zM469 1176q-14 -68 15.5 -116t99 -75t150.5 -40t192 -19l30 147q31 145 -18 252t-168 107q-102 0 -190 -76t-111 -180z" />
<glyph unicode="&#x3d5;" horiz-adv-x="1435" d="M151.5 537q45.5 213 220.5 371.5t392 189.5l84 395h172l-84 -395q203 -31 310.5 -189.5t62.5 -371.5t-220.5 -372t-392.5 -190l-94 -446h-172l96 446q-205 31 -312.5 190t-62 372zM319.5 536.5q-30.5 -143.5 39 -253t202.5 -138.5l166 783q-145 -29 -261 -138.5 t-146.5 -253zM733 145q145 29 261 138.5t146.5 253t-39 253t-202.5 138.5z" />
<glyph unicode="&#x3d6;" horiz-adv-x="1550" d="M133 282q-4 130 23 281q49 221 241 510h127q-131 -197 -200 -510q-18 -90 -26.5 -155.5t-5.5 -134t36.5 -105.5t95.5 -37q178 0 272 289q8 137 45 295h168q-16 -74 -24 -117l-20.5 -113.5t-14.5 -112.5t1 -93.5t17.5 -80t41 -48t67.5 -19.5q61 0 110.5 37t81 105.5 t52 134t39.5 155.5q31 145 38 271.5t-13.5 238t-88.5 176t-180 64.5q-238 0 -488 -82l-14 104q262 86 524 86q137 0 234.5 -73.5t138.5 -194.5t48 -274.5t-32 -315.5q-51 -242 -178 -415t-305 -173q-193 0 -237 209q-133 -209 -316 -209q-121 0 -187.5 88.5t-70.5 218.5z " />
<glyph unicode="&#x3f5;" horiz-adv-x="1024" d="M55 356q0 328 172 538t451 210q158 0 255 -88t99 -211h-180q-16 68 -69.5 104.5t-135.5 36.5q-131 0 -229.5 -94t-147.5 -246h439l-29 -139h-440q-4 -57 -4 -88q0 -119 63 -185.5t170 -66.5q176 0 268 141h187q-68 -158 -187 -228.5t-297 -70.5q-176 0 -280.5 108.5 t-104.5 278.5z" />
<glyph unicode="&#x400;" horiz-adv-x="1366" d="M82 0l317 1493h1037l-35 -168h-844l-102 -477h811l-37 -168h-809l-111 -512h879l-35 -168h-1071zM639 1944h217l148 -304h-109z" />
<glyph unicode="&#x401;" horiz-adv-x="1366" d="M82 0l317 1493h1037l-35 -168h-844l-102 -477h811l-37 -168h-809l-111 -512h879l-35 -168h-1071zM674 1661l45 211h213l-45 -211h-213zM1004 1661l45 211h213l-45 -211h-213z" />
<glyph unicode="&#x402;" horiz-adv-x="1404" d="M63 1325l35 168h1008l-35 -168h-407l-86 -410h409q164 0 250 -78.5t86 -207.5q0 -49 -10 -88l-115 -541q-31 -135 -105.5 -211t-230.5 -76h-170l47 168h86q92 0 129 35t54 104l116 527q8 31 9 63q0 137 -183 138h-407l-160 -748h-190l280 1325h-410z" />
<glyph unicode="&#x403;" horiz-adv-x="1251" d="M82 0l317 1493h1002l-35 -168h-811l-283 -1325h-190zM870 1640l263 304h229l-369 -304h-123z" />
<glyph unicode="&#x404;" horiz-adv-x="1468" d="M111 518q0 260 102 473t268 352q205 174 494 175q494 0 493 -484q0 -51 -6 -108h-196q8 143 -19 231q-27 92 -106.5 142.5t-200.5 50.5q-211 0 -374 -150.5t-228 -408.5h749l-34 -168h-746q-4 -31 -4 -93q0 -195 94.5 -302t266.5 -107q195 0 315 94q90 70 156 225h194 q-193 -487 -680 -487q-266 0 -402 149.5t-136 415.5z" />
<glyph unicode="&#x405;" horiz-adv-x="1366" d="M-59 475h180q-33 -131 29 -229q78 -125 317 -125q184 0 289 63q55 35 96 91.5t53 115.5q18 88 -36 146.5t-187 95.5l-348 98q-276 76 -219 348q43 203 210 321t412 118q258 0 376 -122t73 -341h-180q29 145 -50 224t-258 79q-152 0 -258 -69.5t-131 -182.5 q-16 -86 29 -135t172 -86l352 -101q143 -41 204.5 -139t33.5 -235q-20 -96 -84 -189.5t-152 -152.5q-176 -115 -444 -115q-346 0 -457 213q-59 114 -22 309z" />
<glyph unicode="&#x406;" horiz-adv-x="569" d="M102 0l318 1493h192l-317 -1493h-193z" />
<glyph unicode="&#x407;" horiz-adv-x="569" d="M102 0l318 1493h192l-317 -1493h-193zM266 1647l45 211h213l-45 -211h-213zM596 1647l45 211h213l-45 -211h-213z" />
<glyph unicode="&#x408;" horiz-adv-x="1024" d="M-6 250q0 45 12 98l29 131h192l-28 -135q-8 -33 -9 -70q0 -70 51.5 -112.5t133.5 -42.5q121 0 200 90q61 70 97 233l223 1051h192l-237 -1120q-43 -201 -178 -310.5t-338 -109.5q-143 0 -228 65q-112 93 -112 232z" />
<glyph unicode="&#x409;" horiz-adv-x="2226" d="M-90 0l41 193q221 0 364 663l138 637h919l-135 -643h369q467 0 467 -371q0 -117 -46.5 -196.5t-136.5 -157.5q-143 -125 -352 -125h-674l283 1325h-537l-100 -465q-188 -860 -600 -860zM1092 168h464q133 0 213 72q117 100 117 249q0 72 -37 121q-51 72 -184 72h-465z " />
<glyph unicode="&#x40a;" horiz-adv-x="2383" d="M68 0l315 1493h190l-135 -645h766l135 645h191l-135 -643h368q244 0 355.5 -93t111.5 -274q0 -209 -158.5 -346t-373.5 -137h-674l143 680h-764l-143 -680h-192zM1249 168h465q147 0 238.5 92t91.5 225q0 197 -221 197h-465z" />
<glyph unicode="&#x40b;" horiz-adv-x="1323" d="M63 1325l35 168h1008l-35 -168h-407l-86 -410h327q164 0 250 -78.5t86 -207.5q0 -49 -10 -88l-115 -541h-190l116 547q8 31 9 63q0 137 -183 138h-325l-160 -748h-190l280 1325h-410z" />
<glyph unicode="&#x40c;" horiz-adv-x="1359" d="M59 0l318 1493h190l-137 -645l881 645h245l-997 -725l705 -768h-244l-629 664l-141 -664h-191zM938 1640l262 304h230l-369 -304h-123z" />
<glyph unicode="&#x40d;" horiz-adv-x="1497" d="M68 0l317 1493h180l-260 -1221l1041 1221h206l-317 -1493h-180l258 1210l-1030 -1210h-215zM690 1944h217l148 -304h-109z" />
<glyph unicode="&#x40e;" horiz-adv-x="1085" d="M-57 0l370 500l-284 993h231l213 -776l543 776h227l-1069 -1493h-231zM408 1843q0 25 10 74h108v-16v-11q0 -45 46 -73.5t122 -28.5q193 0 226 129h114q-31 -121 -94 -176q-111 -100 -272 -101q-115 0 -187.5 56.5t-72.5 146.5z" />
<glyph unicode="&#x40f;" horiz-adv-x="1478" d="M68 0l317 1493h193l-283 -1325h764l282 1325h193l-317 -1493h-476l-59 -276h-164l60 276h-510z" />
<glyph unicode="&#x410;" horiz-adv-x="1366" d="M-68 0l850 1493h246l207 -1493h-209l-55 449h-584l-252 -449h-203zM477 608h473l-82 682z" />
<glyph unicode="&#x411;" horiz-adv-x="1308" d="M59 0l318 1493h1001l-35 -168h-811l-102 -475h369q467 2 467 -363q0 -205 -181 -362q-143 -125 -352 -125h-674zM285 168h465q135 0 215 72q117 98 116 247q0 72 -39 123q-51 72 -182 72h-465z" />
<glyph unicode="&#x412;" horiz-adv-x="1366" d="M59 0l318 1493h606q199 0 297 -104q74 -80 74 -193q0 -137 -73 -243.5t-206 -166.5q109 -47 154 -105t45 -153q0 -205 -133 -350q-160 -178 -406 -178h-676zM287 168h465q166 0 256 117q70 94 69 211q0 186 -217 186h-463zM432 850h369q190 0 278 94q78 84 78 205 q0 176 -254 176h-368z" />
<glyph unicode="&#x413;" horiz-adv-x="1251" d="M82 0l317 1493h1002l-35 -168h-811l-283 -1325h-190z" />
<glyph unicode="&#x414;" horiz-adv-x="1671" d="M-39 -276l92 428h189q125 53 211 227t157 463l144 651h921l-284 -1341h186l-92 -428h-164l59 276h-1196l-59 -276h-164zM522 168h678l246 1157h-537l-102 -489q-115 -469 -285 -668z" />
<glyph unicode="&#x415;" horiz-adv-x="1366" d="M82 0l317 1493h1037l-35 -168h-844l-102 -477h811l-37 -168h-809l-111 -512h879l-35 -168h-1071z" />
<glyph unicode="&#x416;" horiz-adv-x="1837" d="M-57 0l829 768l-434 725h246l354 -631l133 631h191l-134 -631l621 631h246l-742 -725l502 -768h-225l-445 664l-141 -664h-190l141 664l-727 -664h-225z" />
<glyph unicode="&#x417;" horiz-adv-x="1335" d="M43 332q0 55 16 143h181q-12 -49 -13 -90q0 -131 95.5 -197.5t263.5 -66.5q193 0 317.5 84t124.5 221q0 88 -78 159.5t-202 71.5h-222l35 168h180q141 0 265 104.5t124 227.5q0 92 -76.5 146.5t-209.5 54.5q-178 0 -291 -79t-145 -224h-181q47 219 217 341t428 122 q213 0 331 -89.5t118 -248.5q0 -147 -80 -254t-213 -160q199 -80 199 -274q0 -262 -187.5 -400.5t-500.5 -138.5q-223 0 -359.5 97.5t-136.5 281.5z" />
<glyph unicode="&#x418;" horiz-adv-x="1497" d="M68 0l317 1493h180l-260 -1221l1041 1221h206l-317 -1493h-180l258 1210l-1030 -1210h-215z" />
<glyph unicode="&#x419;" horiz-adv-x="1497" d="M68 0l317 1493h180l-260 -1221l1041 1221h206l-317 -1493h-180l258 1210l-1030 -1210h-215zM739 1827q0 25 11 74h108v-17v-10q0 -45 46 -73.5t122 -28.5q193 0 225 129h115q-31 -121 -94 -177q-111 -100 -273 -100q-115 0 -187.5 56.5t-72.5 146.5z" />
<glyph unicode="&#x41a;" horiz-adv-x="1359" d="M59 0l318 1493h190l-137 -645l881 645h245l-997 -725l705 -768h-244l-629 664l-141 -664h-191z" />
<glyph unicode="&#x41b;" horiz-adv-x="1323" d="M-90 0l41 193q117 0 203 173t161 490l138 637h921l-315 -1493h-193l281 1325h-537l-100 -465q-43 -176 -92 -314t-121 -270.5t-170 -204t-217 -71.5z" />
<glyph unicode="&#x41c;" horiz-adv-x="1705" d="M51 0l318 1493h264l164 -1284l708 1284h269l-318 -1493h-182l264 1239l-684 -1239h-199l-157 1239l-265 -1239h-182z" />
<glyph unicode="&#x41d;" horiz-adv-x="1478" d="M68 0l317 1493h193l-138 -645h764l137 645h193l-317 -1493h-193l145 680h-763l-146 -680h-192z" />
<glyph unicode="&#x41e;" horiz-adv-x="1593" d="M111 539q0 195 76.5 386t213.5 332q248 260 596 261q291 0 449 -158q68 -70 107.5 -179.5t39.5 -230.5q0 -244 -107.5 -473t-287.5 -366q-205 -158 -500 -158q-131 0 -247.5 42t-190.5 116q-149 149 -149 428zM307 555q0 -182 84 -289q53 -68 143.5 -107.5t190.5 -39.5 q150 0 279 67.5t219 192.5q82 111 128 253t46 281q0 182 -84 291q-53 68 -144.5 108t-195.5 40q-143 0 -273.5 -69t-220.5 -191q-172 -238 -172 -537z" />
<glyph unicode="&#x41f;" horiz-adv-x="1478" d="M68 0l317 1493h1149l-317 -1493h-193l283 1325h-764l-283 -1325h-192z" />
<glyph unicode="&#x420;" horiz-adv-x="1366" d="M84 0l317 1493h619q379 0 379 -330q0 -262 -203 -424q-133 -106 -317 -106h-467l-136 -633h-192zM446 801h398q188 0 286 125q72 94 72 200q0 199 -246 199h-397z" />
<glyph unicode="&#x421;" horiz-adv-x="1478" d="M127 496q0 193 70.5 390t191.5 343q240 289 598 289q293 0 422 -220q57 -102 66 -268h-197q-12 166 -91 244t-235 78q-279 0 -463 -273q-166 -248 -165 -547q0 -186 97 -299.5t257 -113.5q121 0 230.5 53t172.5 145q51 68 121 228h201q-111 -266 -205 -369 q-205 -223 -549 -223q-268 0 -405 174q-117 148 -117 369z" />
<glyph unicode="&#x422;" horiz-adv-x="1251" d="M221 1325l35 168h1174l-35 -168h-488l-282 -1325h-193l283 1325h-494z" />
<glyph unicode="&#x423;" horiz-adv-x="1085" d="M-57 0l370 500l-284 993h231l213 -776l543 776h227l-1069 -1493h-231z" />
<glyph unicode="&#x424;" horiz-adv-x="1824" d="M100 594q0 190 62.5 328.5t178.5 220.5t266.5 119.5t342.5 37.5l43 193h193l-41 -193q70 0 112.5 -1t116.5 -8t120 -20.5t103.5 -41t90 -65.5t56 -97t23.5 -135q2 -172 -44 -304t-123.5 -213t-191.5 -132.5t-233.5 -70.5t-265.5 -19l-41 -193h-192l39 193q-96 0 -168 5 t-161 28.5t-147.5 64.5t-98.5 119t-40 184zM311 645q0 -39 7.5 -72.5t19.5 -58.5t30.5 -44t40 -32.5t48 -24t54.5 -15.5t58.5 -8t61.5 -4t62 -1h63l153 723q-598 0 -598 -463zM950 385q68 0 120 4t130 17.5t134.5 45t110.5 81t81.5 132.5t27.5 191q0 53 -16 93t-38.5 66.5 t-63.5 45t-74 28t-87 13.5t-85 5t-86 1z" />
<glyph unicode="&#x425;" horiz-adv-x="1366" d="M-57 0l694 766l-342 727h231l252 -575l512 575h234l-662 -727l367 -766h-225l-287 616l-539 -616h-235z" />
<glyph unicode="&#x426;" horiz-adv-x="1478" d="M68 0l317 1493h193l-283 -1325h764l282 1325h193l-285 -1341h189l-92 -428h-164l59 276h-1173z" />
<glyph unicode="&#x427;" horiz-adv-x="1314" d="M223 864q0 49 10 88l115 541h191l-117 -547q-8 -31 -8 -63q0 -137 182 -138h367l159 748h191l-318 -1493h-190l123 578h-369q-164 0 -250 78.5t-86 207.5z" />
<glyph unicode="&#x428;" horiz-adv-x="1712" d="M20 0l318 1493h192l-282 -1325h397l283 1325h192l-282 -1325h397l283 1325h192l-317 -1493h-1373z" />
<glyph unicode="&#x429;" horiz-adv-x="1714" d="M20 0l318 1493h192l-282 -1325h397l283 1325h192l-282 -1325h397l283 1325h192l-285 -1341h189l-92 -428h-164l59 276h-1397z" />
<glyph unicode="&#x42a;" horiz-adv-x="1773" d="M221 1325l35 168h664l-136 -643h369q244 0 355.5 -91t111.5 -278q0 -119 -45 -197.5t-137 -158.5q-143 -125 -353 -125h-673l280 1325h-471zM639 168h465q133 0 213 72q117 100 117 249q0 72 -37 121q-51 72 -185 72h-464z" />
<glyph unicode="&#x42b;" horiz-adv-x="1814" d="M68 0l317 1493h190l-137 -643h369q467 0 467 -367q0 -117 -46 -199.5t-134 -158.5q-143 -125 -353 -125h-673zM293 168h465q135 0 215 72q117 98 117 247q0 72 -39 123q-51 72 -183 72h-465zM1360 0l317 1493h193l-318 -1493h-192z" />
<glyph unicode="&#x42c;" horiz-adv-x="1429" d="M68 0l317 1493h190l-135 -643h369q467 0 467 -371q0 -117 -46 -196.5t-136 -157.5q-143 -125 -353 -125h-673zM295 168h465q133 0 213 72q117 100 117 249q0 72 -37 121q-51 72 -185 72h-465z" />
<glyph unicode="&#x42d;" horiz-adv-x="1468" d="M111 436q0 51 6 109h196q-8 -143 19 -232q27 -92 106.5 -142t200.5 -50q211 0 374 150.5t228 408.5h-749l34 168h746q4 31 4 92q0 195 -94.5 302.5t-266.5 107.5q-195 0 -315 -95q-90 -70 -156 -225h-194q193 487 680 488q266 0 402 -149.5t136 -416.5q0 -260 -102 -473 t-268 -352q-205 -174 -494 -174q-493 0 -493 483z" />
<glyph unicode="&#x42e;" horiz-adv-x="2148" d="M20 0l318 1493h190l-137 -645h324q96 303 328.5 486.5t525.5 183.5q274 0 426.5 -153t152.5 -421q0 -270 -113.5 -485t-299.5 -348q-217 -158 -496 -158q-270 0 -423.5 154.5t-153.5 418.5q0 74 12 154h-318l-143 -680h-193zM854 559q0 -203 111.5 -320.5t308.5 -117.5 q276 0 478 233.5t202 556.5q0 205 -110.5 322t-309.5 117q-274 0 -477 -234.5t-203 -556.5z" />
<glyph unicode="&#x42f;" horiz-adv-x="1415" d="M-57 0l696 645q-375 16 -375 361q0 205 180 362q143 125 353 125h673l-317 -1493h-190l137 643h-228l-704 -643h-225zM449 1006q0 -72 38 -123q51 -72 183 -72h465l110 514h-465q-135 0 -215 -72q-116 -97 -116 -247z" />
<glyph unicode="&#x430;" d="M31 215q0 188 168 295q76 47 166 68.5t294 39.5q113 10 153 34t54 87l6 37q4 33 5 39q0 57 -62.5 94t-155.5 37q-143 0 -219 -76q-37 -37 -61 -114h-172q29 170 157 259t341 89q162 0 259 -63.5t97 -168.5q0 -20 -12 -75l-131 -617q-2 -6 -3 -20q0 -59 78 -60q16 0 35 4 l-27 -133q-25 -4 -28 -6q-51 -12 -80 -12q-74 0 -115 36t-41 99v8v15q-102 -90 -180 -117q-113 -41 -231 -41q-137 0 -216 69.5t-79 192.5zM211 236q0 -66 47 -101t135 -35q135 0 251 71t136 165l41 192q-88 -31 -299 -59q-145 -20 -211 -61q-45 -27 -72.5 -74t-27.5 -98z " />
<glyph unicode="&#x431;" d="M45 346q0 88 21 182q174 821 507 885q18 4 134 21.5t182 31.5q47 10 89 45t50 76l152 2q-12 -57 -23.5 -89t-39 -74t-83 -69.5t-141.5 -45.5q-236 -51 -258 -60q-47 -16 -84 -46.5t-61 -67.5l-54 -84q113 51 236 51q186 0 285.5 -100.5t99.5 -288.5q0 -201 -80 -375 t-224.5 -280.5t-322.5 -106.5q-186 0 -285.5 102.5t-99.5 290.5zM227 383q0 -129 61.5 -200.5t174.5 -71.5q166 0 288.5 170t122.5 393q0 131 -60 201.5t-173 70.5q-170 0 -292 -170t-122 -393z" />
<glyph unicode="&#x432;" horiz-adv-x="1101" d="M41 0l229 1075h490q123 0 191.5 -54t68.5 -155q0 -102 -57.5 -187t-141.5 -112q74 -18 112 -70.5t38 -119.5q0 -164 -137 -287q-104 -90 -254 -90h-539zM246 156h311q94 0 154 53q78 66 77 168q0 33 -30 55q-53 41 -133 41h-312zM346 629h242q106 0 164 37q86 57 86 139 q0 37 -39 76q-41 39 -148 39h-241z" />
<glyph unicode="&#x433;" horiz-adv-x="880" d="M41 0l227 1073h604l-32 -155h-432l-195 -918h-172z" />
<glyph unicode="&#x434;" horiz-adv-x="1310" d="M-139 -246l80 377h116q125 14 256 479l111 463h694l-198 -942h131l-80 -377h-144l52 246h-824l-51 -246h-143zM299 156h453l161 762h-352l-69 -312q-80 -300 -193 -450z" />
<glyph unicode="&#x435;" d="M70 354q0 125 50 278.5t122 250.5q76 102 197.5 161.5t254.5 59.5q166 0 278.5 -101.5t112.5 -248.5q0 -86 -28 -240l-6 -35h-791q-10 -39 -10 -94q0 -131 66.5 -202.5t187.5 -71.5q207 0 319 215h172q-47 -166 -191.5 -269.5t-328.5 -103.5q-174 0 -278 102 q-127 121 -127 299zM297 627h602q6 49 6 67q0 115 -64.5 183.5t-172.5 68.5q-125 0 -227.5 -89t-143.5 -230z" />
<glyph unicode="&#x436;" horiz-adv-x="1675" d="M-68 0l738 541l-445 532h219l359 -455l96 455h170l-96 -455l551 455h219l-670 -532l508 -541h-211l-434 442l-94 -442h-170l94 442l-623 -442h-211z" />
<glyph unicode="&#x437;" horiz-adv-x="1013" d="M20 223q0 39 11 96h180q-8 -94 20 -137q51 -72 197 -71q115 0 198 55t83 137q0 57 -48.5 103.5t-125.5 46.5h-152l33 155h127q106 0 172.5 57.5t66.5 133.5q0 61 -53 104t-143 43q-209 0 -252 -172h-180q35 158 153.5 244t304.5 86q164 0 257.5 -68.5t93.5 -189.5 q0 -203 -191 -299q131 -63 131 -201q0 -182 -144.5 -287.5t-377.5 -105.5q-361 0 -361 270z" />
<glyph unicode="&#x438;" horiz-adv-x="1146" d="M41 0l227 1073h172l-180 -846l662 846h200l-227 -1073h-170l178 846l-659 -846h-203z" />
<glyph unicode="&#x439;" horiz-adv-x="1146" d="M41 0l227 1073h172l-180 -846l662 846h200l-227 -1073h-170l178 846l-659 -846h-203zM489 1419q0 25 11 74h108v-16v-11q0 -45 46 -73.5t122 -28.5q193 0 225 129h115q-31 -121 -94 -176q-111 -100 -272 -100q-115 0 -188 56t-73 146z" />
<glyph unicode="&#x43a;" horiz-adv-x="1044" d="M41 0l227 1073h170l-96 -455l551 455h219l-670 -532l508 -541h-211l-434 442l-94 -442h-170z" />
<glyph unicode="&#x43b;" d="M-74 0l35 164q131 0 242 414l112 495h695l-230 -1073h-172l197 918h-352l-78 -336q-162 -582 -449 -582z" />
<glyph unicode="&#x43c;" horiz-adv-x="1271" d="M41 0l227 1073h172l183 -637l452 637h172l-227 -1073h-172l151 713l-381 -537h-102l-151 537l-152 -713h-172z" />
<glyph unicode="&#x43d;" horiz-adv-x="1148" d="M41 0l227 1073h172l-94 -440h512l94 440h172l-227 -1073h-172l100 477h-512l-100 -477h-172z" />
<glyph unicode="&#x43e;" d="M61 336q0 131 45.5 281.5t114.5 248.5q78 113 199 175.5t264 62.5q178 0 281 -100q113 -109 112 -283q0 -133 -46 -283.5t-116 -247.5q-172 -238 -466 -237q-172 0 -280 106.5t-108 276.5zM242 377q0 -123 63.5 -194.5t171.5 -71.5q211 0 330 215q90 166 90 356 q0 125 -63.5 194.5t-176.5 69.5q-209 0 -325 -215q-90 -166 -90 -354z" />
<glyph unicode="&#x43f;" horiz-adv-x="1146" d="M41 0l227 1073h854l-227 -1073h-172l195 918h-510l-195 -918h-172z" />
<glyph unicode="&#x440;" d="M-88 -436l321 1509h166l-37 -172q35 72 117 123q123 80 262 80q164 0 260.5 -107.5t96.5 -291.5q0 -152 -49.5 -300.5t-130.5 -248.5q-78 -96 -187.5 -149.5t-230.5 -53.5q-109 0 -177.5 43t-115.5 143l-123 -575h-172zM272 377q0 -123 65.5 -194.5t178.5 -71.5 q199 0 311 206q90 166 91 347q0 133 -65 207.5t-179 74.5q-190 0 -305 -207q-97 -165 -97 -362z" />
<glyph unicode="&#x441;" horiz-adv-x="1024" d="M53 348q0 141 47 292t119 245q168 219 459 219q170 0 264 -96q90 -94 90 -205q0 -2 -1 -10.5t-2 -22.5t-1 -27l-2 -30h-172q2 18 2 45q0 88 -56.5 138t-152.5 50q-188 0 -303 -182q-111 -174 -111 -393q0 -119 62.5 -189.5t169.5 -70.5q227 0 321 258h172 q-47 -162 -118 -246q-145 -170 -404 -170q-193 0 -293 127q-90 112 -90 268z" />
<glyph unicode="&#x442;" horiz-adv-x="819" d="M102 918l33 155h762l-33 -155h-295l-194 -918h-172l194 918h-295z" />
<glyph unicode="&#x443;" horiz-adv-x="1024" d="M-86 -426l33 154q74 -8 90 -9q57 0 90 21.5t74 85.5l106 166l-139 1081h184l94 -833l478 833h182l-754 -1298q-129 -221 -338 -221q-55 0 -100 20z" />
<glyph unicode="&#x444;" horiz-adv-x="1875" d="M43 338q0 317 181.5 541.5t430.5 224.5q104 0 179 -52.5t104 -140.5l100 469h170l-100 -469q133 193 369 193q172 0 265 -103.5t93 -289.5q0 -301 -176 -529.5t-424 -228.5q-199 0 -297 160l-119 -559h-170l121 569q-152 -170 -367 -170q-172 0 -266 102.5t-94 282.5z M229 395q0 -131 63.5 -206.5t176.5 -75.5q158 0 280.5 170t122.5 387q0 129 -58 201.5t-167 72.5q-166 0 -292 -166t-126 -383zM1010 389q0 -129 60 -202.5t167 -73.5q170 0 293 164.5t123 384.5q0 133 -62.5 207.5t-175.5 74.5q-160 0 -282.5 -169t-122.5 -386z" />
<glyph unicode="&#x445;" horiz-adv-x="1024" d="M-68 0l490 547l-242 526h191l180 -393l342 393h199l-478 -526l252 -547h-192l-185 410l-356 -410h-201z" />
<glyph unicode="&#x446;" horiz-adv-x="1146" d="M41 0l227 1073h172l-194 -917h510l194 917h172l-198 -942h163l-79 -377h-144l54 246h-877z" />
<glyph unicode="&#x447;" horiz-adv-x="1017" d="M170 651q0 31 12 105l68 317h172l-72 -338q-6 -27 -6 -53q0 -100 113 -100h260l104 491h172l-227 -1073h-172l90 426h-240q-274 0 -274 225z" />
<glyph unicode="&#x448;" horiz-adv-x="1423" d="M41 0l227 1073h172l-194 -917h307l195 917h172l-195 -917h307l195 917h172l-228 -1073h-1130z" />
<glyph unicode="&#x449;" horiz-adv-x="1423" d="M41 0l227 1073h172l-194 -917h307l195 917h172l-195 -917h307l195 917h172l-201 -942h164l-80 -377h-143l53 246h-1151z" />
<glyph unicode="&#x44a;" horiz-adv-x="1310" d="M100 918l33 155l547 2l-94 -446h241q195 0 288 -60.5t93 -189.5q0 -170 -137 -289q-102 -90 -252 -90h-538l194 918h-375zM485 156h312q102 0 165.5 61.5t63.5 159.5q0 47 -48 71.5t-114 24.5h-311z" />
<glyph unicode="&#x44b;" horiz-adv-x="1503" d="M41 0l227 1075h172l-94 -446h242q201 0 291 -58.5t90 -187.5q0 -174 -138 -293q-102 -90 -251 -90h-539zM246 156h311q100 0 164.5 64.5t64.5 154.5q0 47 -48 72.5t-113 25.5h-312zM1081 0l228 1073h170l-228 -1073h-170z" />
<glyph unicode="&#x44c;" horiz-adv-x="1071" d="M41 0l227 1075h172l-94 -446h242q203 0 292 -58.5t89 -187.5q0 -174 -138 -293q-102 -90 -251 -90h-539zM246 156h311q102 0 165.5 64.5t63.5 156.5q0 47 -48 71.5t-113 24.5h-312z" />
<glyph unicode="&#x44d;" horiz-adv-x="1093" d="M61 285q0 41 7 84h172v-27q0 -231 206 -231q133 0 232.5 97t146.5 269l-463 -2l31 158h459q2 14 2 45q0 129 -58.5 198.5t-168.5 69.5q-219 0 -303 -233h-172q43 143 120 231q154 160 387 160q176 0 274.5 -107.5t98.5 -298.5q0 -86 -20 -180q-55 -260 -216 -412.5 t-380 -152.5q-170 0 -262.5 87t-92.5 245z" />
<glyph unicode="&#x44e;" horiz-adv-x="1572" d="M41 0l229 1073h172l-92 -440h236q8 37 29.5 88t68.5 119.5t108.5 126t160 97.5t210.5 40q186 0 285.5 -100.5t99.5 -288.5q0 -334 -165.5 -548t-462.5 -214q-111 0 -191 35t-120 95t-57 123.5t-17 137.5q0 70 14 133h-232l-104 -477h-172zM719 383q0 -129 61.5 -200.5 t173.5 -71.5q168 0 290 167.5t122 397.5q0 129 -61.5 199.5t-174.5 70.5q-170 0 -290.5 -167t-120.5 -396z" />
<glyph unicode="&#x44f;" horiz-adv-x="1155" d="M-70 0l609 449q-172 6 -254 65t-82 178q0 168 113.5 275.5t275.5 107.5h538l-229 -1075h-172l96 446h-57l-627 -446h-211zM385 698q0 -35 29 -55q53 -41 133 -41h311l68 318h-312q-100 0 -164.5 -66t-64.5 -156z" />
<glyph unicode="&#x450;" d="M70 354q0 125 50 278.5t122 250.5q76 102 197.5 161.5t254.5 59.5q166 0 278.5 -101.5t112.5 -248.5q0 -86 -28 -240l-6 -35h-791q-10 -39 -10 -94q0 -131 66.5 -202.5t187.5 -71.5q207 0 319 215h172q-47 -166 -191.5 -269.5t-328.5 -103.5q-174 0 -278 102 q-127 121 -127 299zM297 627h602q6 49 6 67q0 115 -64.5 183.5t-172.5 68.5q-125 0 -227.5 -89t-143.5 -230zM410 1530h217l147 -303h-108z" />
<glyph unicode="&#x451;" d="M70 354q0 125 50 278.5t122 250.5q76 102 197.5 161.5t254.5 59.5q166 0 278.5 -101.5t112.5 -248.5q0 -86 -28 -240l-6 -35h-791q-10 -39 -10 -94q0 -131 66.5 -202.5t187.5 -71.5q207 0 319 215h172q-47 -166 -191.5 -269.5t-328.5 -103.5q-174 0 -278 102 q-127 121 -127 299zM297 627h602q6 49 6 67q0 115 -64.5 183.5t-172.5 68.5q-125 0 -227.5 -89t-143.5 -230zM459 1253l45 211h213l-45 -211h-213zM788 1253l46 211h213l-46 -211h-213z" />
<glyph unicode="&#x452;" d="M41 0l266 1253h-166l31 142h166l20 98h172l-20 -98h328l-31 -142h-328l-73 -354q96 90 182 127t200 37q129 0 203 -68.5t74 -189.5q0 -41 -8 -76l-156 -729q-29 -139 -103.5 -198.5t-258.5 -59.5l24 113q76 0 113 34.5t53 110.5l141 662q12 55 13 79q0 78 -48.5 126 t-125.5 48q-139 0 -240.5 -97t-138.5 -267l-117 -551h-172z" />
<glyph unicode="&#x453;" horiz-adv-x="880" d="M41 0l227 1073h604l-32 -155h-432l-195 -918h-172zM543 1227l262 303h229l-368 -303h-123z" />
<glyph unicode="&#x454;" horiz-adv-x="1093" d="M61 358q0 86 21 181q55 260 216 412.5t380 152.5q170 0 262 -87t92 -245q0 -41 -6 -84h-172v27q0 231 -207 231q-133 0 -232.5 -97t-146.5 -269l463 2l-31 -158h-458q-2 -14 -2 -45q0 -129 58 -198.5t169 -69.5q219 0 303 233h172q-43 -143 -121 -231 q-154 -160 -387 -160q-176 0 -274.5 107.5t-98.5 297.5z" />
<glyph unicode="&#x455;" horiz-adv-x="1024" d="M-78 319h180q-8 -94 21 -137q51 -72 199 -71q113 0 191.5 46t92.5 122q12 59 -18.5 94t-114.5 55l-151 39q-180 45 -242 113.5t-33 195.5q31 150 162 239t319 89q186 0 268.5 -86t51.5 -244h-180q14 84 -32 128t-149 44q-104 0 -173.5 -44t-86.5 -118q-12 -57 27 -93 t139 -60l156 -39q152 -39 208 -109.5t31 -189.5q-35 -156 -174 -248t-342 -92q-211 0 -297 90t-53 276z" />
<glyph unicode="&#x456;" horiz-adv-x="454" d="M33 0l227 1073h172l-227 -1073h-172zM305 1282l45 211h172l-45 -211h-172z" />
<glyph unicode="&#x457;" horiz-adv-x="569" d="M90 0l229 1079h173l-230 -1079h-172zM168 1239l45 211h213l-45 -211h-213zM498 1239l45 211h213l-45 -211h-213z" />
<glyph unicode="&#x458;" horiz-adv-x="454" d="M-236 -440l31 145q37 -4 51 -4q78 0 110 28.5t50 114.5l260 1229h172l-274 -1296q-29 -127 -106.5 -175t-254.5 -48q-16 0 -39 6zM311 1282l45 211h172l-45 -211h-172z" />
<glyph unicode="&#x459;" horiz-adv-x="1609" d="M-74 0l35 164q74 0 136.5 110.5t105.5 303.5l112 495l693 2l-95 -446h242q203 0 292 -58.5t89 -187.5q0 -174 -137 -293q-102 -90 -252 -90h-539l197 918h-352l-78 -336q-37 -158 -92.5 -282t-149.5 -212t-207 -88zM813 156h311q102 0 166 64.5t64 156.5q0 47 -48.5 71.5 t-113.5 24.5h-311z" />
<glyph unicode="&#x45a;" horiz-adv-x="1630" d="M-74 0l230 1073h172l-95 -440h512l95 440l170 2l-95 -446h242q203 0 292 -58.5t89 -187.5q0 -174 -137 -293q-102 -90 -252 -90h-539l103 477h-512l-103 -477h-172zM815 156h311q102 0 166 64.5t64 156.5q0 47 -48 71.5t-114 24.5h-311z" />
<glyph unicode="&#x45b;" d="M41 0l266 1253h-166l31 142h166l20 98h172l-20 -98h328l-31 -142h-328l-65 -354q96 90 182 127t201 37q129 0 202.5 -68.5t73.5 -189.5q0 -41 -8 -76l-164 -729h-172l150 662q12 55 12 79q0 78 -48 126t-126 48q-139 0 -240.5 -97t-138.5 -267l-125 -551h-172z" />
<glyph unicode="&#x45c;" horiz-adv-x="1044" d="M41 0l227 1073h170l-96 -455l551 455h219l-670 -532l508 -541h-211l-434 442l-94 -442h-170zM662 1227l262 303h229l-369 -303h-122z" />
<glyph unicode="&#x45d;" horiz-adv-x="1146" d="M41 0l227 1073h172l-180 -846l662 846h200l-227 -1073h-170l178 846l-659 -846h-203zM418 1530h217l147 -303h-108z" />
<glyph unicode="&#x45e;" horiz-adv-x="1024" d="M-86 -426l33 154q74 -8 90 -9q57 0 90 21.5t74 85.5l106 166l-139 1081h184l94 -833l478 833h182l-754 -1298q-129 -221 -338 -221q-55 0 -100 20zM410 1430q0 25 10 73h108v-16v-10q0 -45 46.5 -74t121.5 -29q193 0 226 129h114q-31 -121 -94 -176q-111 -100 -272 -100 q-115 0 -187.5 56.5t-72.5 146.5z" />
<glyph unicode="&#x45f;" horiz-adv-x="1146" d="M41 0l227 1073h172l-194 -917h510l194 917h172l-227 -1073h-336l-51 -246h-143l53 246h-377z" />
<glyph unicode="&#x48c;" horiz-adv-x="1429" d="M68 0l235 1108h-180l31 141h180l51 244h190l-51 -244h193l-31 -141h-192l-54 -258h369q264 2 373.5 -106.5t91.5 -317.5q-37 -178 -180 -301q-143 -125 -353 -125h-673zM295 168h465q133 0 213 72q86 74 108 184q25 113 -28 186q-51 72 -185 72h-465z" />
<glyph unicode="&#x48d;" horiz-adv-x="1071" d="M12 778l31 142h193l32 155h172l-32 -155h198l-31 -142h-198l-31 -149h242q227 2 314 -75t61 -247q-29 -127 -131.5 -217t-251.5 -90h-539l164 778h-193zM246 156h311q96 0 152 53q53 43 69 108q10 37 8 66t-28 49q-53 41 -133 41h-312z" />
<glyph unicode="&#x48e;" horiz-adv-x="1366" d="M84 0l317 1493h617q221 0 316.5 -113.5t49.5 -324.5q-37 -172 -151 -279l151 -151l-120 -78l-146 145q-113 -59 -239 -59h-469l-136 -633h-190zM444 801h398q80 0 143 24l-121 121l123 78l119 -121q59 63 82 160q27 123 -34.5 192.5t-199.5 69.5h-397z" />
<glyph unicode="&#x48f;" d="M-88 -446l324 1519h157l-35 -162q162 193 383 193q213 0 304.5 -158t31.5 -428q-41 -193 -141 -328l162 -161l-123 -78l-133 135q-152 -133 -344 -133q-197 0 -295 160l-119 -559h-172zM291 528.5q-39 -188.5 18.5 -302t192.5 -113.5q123 0 223 88l-147 149l120 78 l119 -119q57 94 84 213q39 193 -21.5 307.5t-201.5 114.5q-135 0 -241.5 -113.5t-145.5 -302z" />
<glyph unicode="&#x490;" horiz-adv-x="1251" d="M-98 0l317 1493l811 -2l43 199h191l-78 -365h-811l-283 -1325h-190z" />
<glyph unicode="&#x491;" horiz-adv-x="880" d="M-96 0l229 1073h432l45 215h172l-80 -370h-432l-194 -918h-172z" />
<glyph unicode="&#x492;" horiz-adv-x="1251" d="M82 0l188 891h-184l31 141h184l98 461h1002l-35 -168h-811l-63 -293h188l-31 -141h-186l-191 -891h-190z" />
<glyph unicode="&#x493;" horiz-adv-x="880" d="M-12 598l30 141h179l71 334h604l-32 -155h-432l-37 -179h211l-31 -141h-211l-127 -598h-172l127 598h-180z" />
<glyph unicode="&#x494;" horiz-adv-x="1251" d="M82 0l317 1493h1002l-35 -168h-813l-86 -410h328q164 0 249.5 -78.5t85.5 -207.5q0 -49 -10 -88l-114 -541q-31 -135 -106 -211t-230 -76h-170l47 168h86q92 0 129 35t53 104l117 527q8 31 8 63q0 137 -182 138h-326l-160 -748h-190z" />
<glyph unicode="&#x495;" horiz-adv-x="880" d="M41 0l227 1073h604l-32 -155h-432l-60 -285h184q129 0 203 -68.5t74 -189.5q0 -41 -8 -76l-64 -299q-29 -139 -103.5 -198.5t-258.5 -59.5l24 113q76 0 113 34.5t53 110.5l49 231q12 55 13 80q0 78 -48.5 126t-125.5 48h-138l-102 -485h-172z" />
<glyph unicode="&#x496;" horiz-adv-x="1837" d="M-57 0l829 768l-434 725h246l354 -631l133 631h191l-134 -631l621 631h246l-742 -725l404 -616h131l-92 -428h-164l59 276h-61l-445 664l-141 -664h-190l141 664l-727 -664h-225z" />
<glyph unicode="&#x497;" horiz-adv-x="1675" d="M-68 0l738 541l-445 532h219l359 -455l96 455h170l-96 -455l551 455h219l-670 -532l385 -410h152l-80 -377h-144l54 246h-70l-434 442l-94 -442h-170l94 442l-623 -442h-211z" />
<glyph unicode="&#x498;" horiz-adv-x="1335" d="M43 332q0 55 16 143h181q-12 -49 -13 -90q0 -131 95.5 -197.5t263.5 -66.5q193 0 317.5 84t124.5 221q0 88 -78 159.5t-202 71.5h-222l35 168h180q141 0 265 104.5t124 227.5q0 92 -76.5 146.5t-209.5 54.5q-178 0 -291 -79t-145 -224h-181q47 219 217 341t428 122 q213 0 331 -89.5t118 -248.5q0 -147 -80 -254t-213 -160q199 -80 199 -274q0 -246 -167 -383.5t-452 -153.5l41 -25q121 -80 121 -196q0 -72 -71.5 -113t-202.5 -41q-78 0 -140 21l-18 92q61 -20 143 -21q59 0 97 24.5t38 65.5q0 55 -40.5 102.5t-129.5 92.5 q-186 18 -294.5 113.5t-108.5 261.5z" />
<glyph unicode="&#x499;" horiz-adv-x="1013" d="M20 223q0 39 11 96h180q-8 -94 20 -137q51 -72 197 -71q115 0 198 55t83 137q0 57 -48.5 103.5t-125.5 46.5h-152l33 155h127q106 0 172.5 57.5t66.5 133.5q0 61 -53 104t-143 43q-209 0 -252 -172h-180q35 158 153.5 244t304.5 86q164 0 257.5 -68.5t93.5 -189.5 q0 -203 -191 -299q131 -63 131 -201q0 -166 -123 -270.5t-325 -120.5l43 -25q121 -80 120 -196q0 -72 -71.5 -113t-202.5 -41q-78 0 -139 21l-19 92q61 -20 144 -21q59 0 97 24.5t38 65.5q0 55 -41 102.5t-129 92.5q-275 30 -275 266z" />
<glyph unicode="&#x49a;" horiz-adv-x="1359" d="M59 0l318 1493h190l-137 -645l881 645h245l-997 -725l551 -616h168l-92 -428h-164l59 276h-61l-629 664l-141 -664h-191z" />
<glyph unicode="&#x49b;" horiz-adv-x="1044" d="M41 0l227 1073h170l-96 -455l551 455h219l-670 -532l385 -410h150l-80 -377h-143l53 246h-68l-434 442l-94 -442h-170z" />
<glyph unicode="&#x49c;" horiz-adv-x="1359" d="M59 0l318 1493h190l-137 -645l166 123l72 334h172l-39 -187l510 375h245l-800 -582l-62 -290l570 -621h-244l-373 393l-35 -162h-172l66 312l-115 121l-141 -664h-191z" />
<glyph unicode="&#x49d;" horiz-adv-x="1044" d="M41 0l227 1073h170l-96 -455l88 74l55 258h131l-26 -127l303 250h219l-565 -448l-33 -160l436 -465h-211l-266 270l-22 -106h-132l46 217l-60 61l-94 -442h-170z" />
<glyph unicode="&#x49e;" horiz-adv-x="1359" d="M59 0l248 1165h-188l31 142h188l39 186h190l-39 -186h185l-31 -142h-184l-68 -317l881 645h245l-997 -725l686 -768h-225l-629 664l-141 -664h-191z" />
<glyph unicode="&#x49f;" horiz-adv-x="1044" d="M41 0l172 813h-131l31 121h127l28 139h170l-28 -139h122l-30 -121h-119l-41 -195l551 455h219l-670 -532l508 -541h-211l-434 442l-94 -442h-170z" />
<glyph unicode="&#x4a0;" horiz-adv-x="1441" d="M-51 1325l35 168h663l-135 -645l881 645h245l-997 -725l705 -768h-244l-629 664l-141 -664h-193l281 1325h-471z" />
<glyph unicode="&#x4a1;" horiz-adv-x="1265" d="M82 918l33 155l547 2l-99 -457l551 455h219l-669 -532l507 -541h-210l-435 442l-94 -442h-170l195 918h-375z" />
<glyph unicode="&#x4a2;" horiz-adv-x="1478" d="M68 0l317 1493h190l-137 -645h766l137 645h193l-287 -1341h166l-92 -428h-164l60 276h-193l145 680h-763l-146 -680h-192z" />
<glyph unicode="&#x4a3;" horiz-adv-x="1148" d="M41 0l227 1073h172l-94 -440h512l94 440h172l-200 -942h143l-80 -377h-143l53 246h-172l100 477h-512l-100 -477h-172z" />
<glyph unicode="&#x4a4;" horiz-adv-x="2068" d="M68 0l317 1493h193l-138 -645h764l135 645h879l-35 -168h-688l-283 -1325h-188l145 680h-763l-146 -680h-192z" />
<glyph unicode="&#x4a5;" horiz-adv-x="1542" d="M41 0l227 1073h172l-94 -440h512l92 440h584l-33 -155h-411l-195 -918h-170l100 477h-512l-100 -477h-172z" />
<glyph unicode="&#x4a6;" horiz-adv-x="2172" d="M68 0l317 1493h1149l-119 -578h328q164 0 250 -78.5t86 -207.5q0 -49 -11 -88l-114 -541q-31 -135 -105.5 -211t-230.5 -76h-170l47 168h86q92 0 129 35t53 104l117 527q8 31 8 63q0 137 -182 138h-326l-159 -748h-197l283 1325h-764l-283 -1325h-192z" />
<glyph unicode="&#x4a7;" horiz-adv-x="1644" d="M41 0l227 1073h854l-94 -440h184q129 0 203 -68.5t74 -189.5q0 -41 -8 -76l-64 -299q-29 -139 -103.5 -198.5t-258.5 -59.5l24 113q76 0 113 34.5t53 110.5l49 231q12 55 13 80q0 78 -48.5 126t-125.5 48h-138l-102 -485h-170l195 918h-510l-195 -918h-172z" />
<glyph unicode="&#x4a8;" horiz-adv-x="1478" d="M127 496q0 193 70.5 390t191.5 343q240 289 598 289q293 0 422 -220q57 -102 66 -268h-197q-12 166 -91 244t-235 78q-279 0 -463 -273q-166 -248 -165 -547q0 -186 97 -299.5t257 -113.5q121 0 230.5 53t172.5 145q51 68 121 228h201q-111 -266 -205 -369 q-205 -223 -549 -223q-268 0 -405 174q-117 148 -117 369z" />
<glyph unicode="&#x4a9;" horiz-adv-x="1024" d="M53 348q0 141 47 292t119 245q168 219 459 219q170 0 264 -96q90 -94 90 -205q0 -2 -1 -10.5t-2 -22.5t-1 -27l-2 -30h-172q2 18 2 45q0 88 -56.5 138t-152.5 50q-188 0 -303 -182q-111 -174 -111 -393q0 -119 62.5 -189.5t169.5 -70.5q227 0 321 258h172 q-47 -162 -118 -246q-145 -170 -404 -170q-193 0 -293 127q-90 112 -90 268z" />
<glyph unicode="&#x4aa;" horiz-adv-x="1478" d="M127 496q0 193 70.5 390t191.5 343q240 289 598 289q293 0 422 -220q57 -102 66 -268h-197q-12 166 -91 244t-235 78q-279 0 -463 -273q-166 -248 -165 -547q0 -186 97 -299.5t257 -113.5q121 0 230.5 53t172.5 145q51 68 121 228h201q-111 -266 -205 -369 q-180 -195 -479 -221l43 -25q121 -80 121 -196q0 -72 -72 -113t-203 -41q-78 0 -139 21l-18 92q61 -20 143 -21q59 0 97 24.5t38 65.5q0 55 -41 102.5t-129 92.5q-201 25 -315 170q-117 148 -117 369z" />
<glyph unicode="&#x4ab;" horiz-adv-x="1024" d="M53 348q0 141 47 292t119 245q168 219 459 219q170 0 264 -96q90 -94 90 -205q0 -2 -1 -10.5t-2 -22.5t-1 -27l-2 -30h-172q2 18 2 45q0 88 -56.5 138t-152.5 50q-188 0 -303 -182q-111 -174 -111 -393q0 -119 62.5 -189.5t169.5 -70.5q227 0 321 258h172 q-47 -162 -118 -246q-123 -143 -336 -166q27 -12 45 -27q121 -80 121 -196q0 -72 -72 -113t-203 -41q-78 0 -139 21l-18 92q61 -20 143 -21q59 0 97 24.5t38 65.5q0 55 -41 103q-39 47 -137 96q-119 25 -195 119q-90 112 -90 268z" />
<glyph unicode="&#x4ac;" horiz-adv-x="1251" d="M221 1325l35 168h1171l-34 -168h-490l-250 -1173h164l-92 -428h-164l60 276h-191l283 1325h-492z" />
<glyph unicode="&#x4ad;" horiz-adv-x="819" d="M102 918l33 155h762l-33 -155h-295l-168 -787h144l-80 -377h-143l53 246h-172l194 918h-295z" />
<glyph unicode="&#x4ae;" horiz-adv-x="1366" d="M242 1493h229l279 -731l591 731h228l-754 -907l-125 -586h-192l125 586z" />
<glyph unicode="&#x4af;" horiz-adv-x="1366" d="M219 1073h236l256 -717l444 717h227l-606 -897l-84 -586h-190l84 586z" />
<glyph unicode="&#x4b0;" horiz-adv-x="1366" d="M131 389l29 143h450l11 54l-398 907h236l295 -727l569 727h227l-739 -907l-10 -54h450l-28 -143h-451l-78 -389h-190l78 389h-451z" />
<glyph unicode="&#x4b1;" horiz-adv-x="1366" d="M115 33l20 143h451l-365 897h236l254 -717l446 717h227l-608 -897h451l-21 -143h-450l-64 -443h-190l63 443h-450z" />
<glyph unicode="&#x4b2;" horiz-adv-x="1361" d="M-57 0l692 766l-342 727h231l258 -586l510 586h228l-658 -727l293 -614h105l-93 -428h-163l59 276h-72l-274 623l-543 -623h-231z" />
<glyph unicode="&#x4b3;" horiz-adv-x="1015" d="M-68 0l494 547l-246 526h195l176 -389l340 389h192l-471 -518l195 -424h86l-80 -377h-143l53 246h-55l-183 412l-358 -412h-195z" />
<glyph unicode="&#x4b4;" horiz-adv-x="1800" d="M221 1325l35 168h1092l-35 -168h-447l-250 -1157h764l283 1325h192l-284 -1341h188l-92 -428h-164l60 276h-1172l283 1325h-453z" />
<glyph unicode="&#x4b5;" horiz-adv-x="1288" d="M102 918l33 155h721l-33 -155h-274l-162 -762h510l195 917h172l-199 -942h164l-80 -377h-143l53 246h-877l195 918h-275z" />
<glyph unicode="&#x4b6;" horiz-adv-x="1314" d="M223 864q0 49 10 88l115 541h191l-117 -547q-8 -31 -8 -63q0 -137 182 -138h367l159 748h191l-285 -1341h189l-93 -428h-163l59 276h-215l123 578h-369q-164 0 -250 78.5t-86 207.5z" />
<glyph unicode="&#x4b7;" horiz-adv-x="1017" d="M170 651q0 31 12 105l68 317h172l-72 -338q-6 -27 -6 -53q0 -100 113 -100h260l104 491h172l-198 -942h163l-79 -377h-144l53 246h-194l90 426h-240q-274 0 -274 225z" />
<glyph unicode="&#x4b8;" horiz-adv-x="1314" d="M223 864q0 49 10 88l115 541h191l-117 -547q-8 -31 -8 -63q0 -137 182 -138h20l58 267h172l-58 -267h175l159 748h191l-318 -1493h-190l123 578h-174l-58 -271h-172l58 271h-23q-164 0 -250 78.5t-86 207.5z" />
<glyph unicode="&#x4b9;" horiz-adv-x="1017" d="M170 651q0 31 12 105l68 317h172l-72 -338q-6 -27 -6 -53q0 -98 107 -100l45 211h143l-45 -211h123l104 491h172l-227 -1073h-172l90 426h-123l-41 -195h-143l41 195q-248 10 -248 225z" />
<glyph unicode="&#x4ba;" horiz-adv-x="1314" d="M223 0l318 1493h190l-123 -578h369q164 0 250 -78.5t86 -207.5q0 -49 -10 -88l-115 -541h-191l117 547q8 31 8 63q0 137 -182 138h-367l-159 -748h-191z" />
<glyph unicode="&#x4bb;" horiz-adv-x="1017" d="M170 0l227 1073h172l-90 -426h240q274 0 274 -225q0 -31 -12 -105l-68 -317h-172l72 338q6 27 6 53q0 100 -112 101h-261l-104 -492h-172z" />
<glyph unicode="&#x4bc;" horiz-adv-x="1478" d="M-119 1171q0 84 28 175.5t71 146.5q102 133 276 133q100 0 158 -59q53 -53 53 -123l-2 -35v-18h-105q2 10 2 26q0 51 -33.5 82t-90.5 31q-115 0 -183 -109q-68 -104 -67 -235q0 -72 37.5 -114t101.5 -42h129q57 113 129 199q240 289 598 289q293 0 422 -220 q70 -125 70 -436h-1096q-59 -162 -60 -330q0 -186 97.5 -299.5t257.5 -113.5q121 0 230.5 53t172.5 145q51 68 121 228h201q-111 -266 -205 -369q-205 -223 -549 -223q-268 0 -405 174q-117 147 -117 369q0 176 61 366q-102 4 -202.5 95t-100.5 214zM455 1030h819 q-12 166 -91 244t-235 78q-279 0 -463 -273z" />
<glyph unicode="&#x4bd;" horiz-adv-x="1239" d="M51 809q0 127 68 215q68 86 182 86q70 0 107 -37q37 -41 36 -82q-2 0 -2 -24l-2 -13h-67v19q0 76 -84 76q-76 0 -121 -74q-43 -70 -43 -158q0 -47 24.5 -75.5t69.5 -28.5h131q41 98 94 172q168 219 459 219q170 0 264 -96q90 -94 90 -205q0 -152 -32 -246h-742 q-25 -96 -24 -186q0 -119 62.5 -189.5t168.5 -70.5q227 0 322 258h172q-47 -162 -119 -246q-145 -170 -403 -170q-193 0 -293 127q-90 113 -90 268q0 104 24 209q-111 6 -181.5 91t-70.5 161zM541 713h538q2 18 2 45q0 88 -56 138t-153 50q-188 0 -303 -182q-20 -33 -28 -51 z" />
<glyph unicode="&#x4be;" horiz-adv-x="1478" d="M-119 1171q0 84 28 175.5t71 146.5q102 133 276 133q100 0 158 -59q53 -53 53 -123l-2 -35v-18h-105q2 10 2 26q0 51 -33.5 82t-90.5 31q-115 0 -183 -109q-68 -104 -67 -235q0 -72 37.5 -114t101.5 -42h129q57 113 129 199q240 289 598 289q293 0 422 -220 q70 -125 70 -436h-1096q-59 -162 -60 -330q0 -186 97.5 -299.5t257.5 -113.5q121 0 230.5 53t172.5 145q51 68 121 228h201q-111 -266 -205 -369q-180 -195 -475 -221l43 -25q121 -80 121 -196q0 -72 -72 -113t-203 -41q-78 0 -139 21l-18 92q61 -20 143 -21q59 0 97 24.5 t38 65.5q0 55 -41 102.5t-129 92.5q-205 25 -319 170q-117 147 -117 369q0 176 61 366q-102 4 -202.5 95t-100.5 214zM455 1030h819q-12 166 -91 244t-235 78q-279 0 -463 -273z" />
<glyph unicode="&#x4bf;" horiz-adv-x="1239" d="M51 809q0 127 68 215q68 86 182 86q70 0 107 -37q37 -41 36 -82q-2 0 -2 -24l-2 -13h-67v19q0 76 -84 76q-76 0 -121 -74q-43 -70 -43 -158q0 -47 24.5 -75.5t69.5 -28.5h131q41 98 94 172q168 219 459 219q170 0 264 -96q90 -94 90 -205q0 -152 -32 -246h-742 q-25 -96 -24 -186q0 -119 62.5 -189.5t168.5 -70.5q227 0 322 258h172q-47 -162 -119 -246q-123 -143 -330 -166q27 -12 45 -27q121 -80 121 -196q0 -72 -71.5 -113t-202.5 -41q-78 0 -140 21l-18 92q61 -20 143 -21q59 0 97.5 24.5t38.5 65.5q0 55 -41 103q-37 45 -134 94 q-129 25 -204 121q-90 113 -90 268q0 104 24 209q-111 6 -181.5 91t-70.5 161zM541 713h538q2 18 2 45q0 88 -56 138t-153 50q-188 0 -303 -182q-20 -33 -28 -51z" />
<glyph unicode="&#x4c0;" horiz-adv-x="569" d="M102 0l318 1493h192l-317 -1493h-193z" />
<glyph unicode="&#x4c1;" horiz-adv-x="1837" d="M-57 0l829 768l-434 725h246l354 -631l133 631h191l-134 -631l621 631h246l-742 -725l502 -768h-225l-445 664l-141 -664h-190l141 664l-727 -664h-225zM938 1843q0 25 10 74h109v-16v-11q0 -45 46 -73.5t122 -28.5q193 0 225 129h115q-31 -121 -95 -176 q-111 -100 -272 -101q-115 0 -187.5 56.5t-72.5 146.5z" />
<glyph unicode="&#x4c2;" horiz-adv-x="1675" d="M-68 0l738 541l-445 532h219l359 -455l96 455h170l-96 -455l551 455h219l-670 -532l508 -541h-211l-434 442l-94 -442h-170l94 442l-623 -442h-211zM758 1430q0 25 10 73h109v-16v-10q0 -45 46 -74t121 -29q193 0 226 129h114q-31 -121 -94 -176q-111 -100 -272 -100 q-115 0 -187.5 56.5t-72.5 146.5z" />
<glyph unicode="&#x4c3;" horiz-adv-x="1359" d="M59 0l318 1493h190l-137 -645l881 645h245l-997 -725h320q143 -2 242.5 -96t99.5 -209q0 -31 -4 -45l-68 -418q-29 -135 -104.5 -211t-231.5 -76h-170l47 168h86q92 0 129 35t53 104l82 392q2 6 2 22q0 61 -58 114.5t-146 53.5h-459l-129 -602h-191z" />
<glyph unicode="&#x4c4;" horiz-adv-x="1044" d="M41 0l227 1073h170l-96 -455l551 455h219l-670 -532h185q147 0 203.5 -65.5t56.5 -182.5q0 -41 -8 -76l-39 -217q-29 -139 -103.5 -198.5t-259.5 -59.5l25 113q76 0 112.5 34.5t53.5 110.5l41 190q12 55 12 80q0 131 -160 131h-264l-86 -401h-170z" />
<glyph unicode="&#x4c7;" horiz-adv-x="1478" d="M68 0l317 1493h193l-138 -645h764l137 645h193l-317 -1493q-29 -135 -105 -211t-231 -76h-170l47 168h86q154 0 180 119l145 680h-763l-146 -680h-192z" />
<glyph unicode="&#x4c8;" horiz-adv-x="1148" d="M41 0l227 1073h172l-94 -440h512l94 440h172l-227 -1073q-29 -139 -103.5 -198.5t-258.5 -59.5l24 113q76 0 113 34.5t53 110.5l100 477h-512l-100 -477h-172z" />
<glyph unicode="&#x4cb;" horiz-adv-x="1314" d="M223 864q0 49 10 88l115 541h191l-117 -547q-8 -31 -8 -63q0 -137 182 -138h367l159 748h191l-318 -1493h-213l-61 -276h-164l92 428h189l90 426h-369q-164 0 -250 78.5t-86 207.5z" />
<glyph unicode="&#x4cc;" horiz-adv-x="1017" d="M170 651q0 31 12 105l68 317h172l-72 -338q-6 -27 -6 -53q0 -100 113 -100h260l104 491h172l-227 -1073h-193l-53 -246h-143l80 377h164l63 295h-240q-274 0 -274 225z" />
<glyph unicode="&#x4d0;" horiz-adv-x="1366" d="M-68 0l850 1493h246l207 -1493h-209l-55 449h-584l-252 -449h-203zM477 608h473l-82 682zM678 1843q0 25 10 74h109v-16v-11q0 -45 46 -73.5t122 -28.5q193 0 225 129h115q-31 -121 -95 -176q-111 -100 -272 -101q-115 0 -187.5 56.5t-72.5 146.5z" />
<glyph unicode="&#x4d1;" d="M31 215q0 188 168 295q76 47 166 68.5t294 39.5q113 10 153 34t54 87l6 37q4 33 5 39q0 57 -62.5 94t-155.5 37q-143 0 -219 -76q-37 -37 -61 -114h-172q29 170 157 259t341 89q162 0 259 -63.5t97 -168.5q0 -20 -12 -75l-131 -617q-2 -6 -3 -20q0 -59 78 -60q16 0 35 4 l-27 -133q-25 -4 -28 -6q-51 -12 -80 -12q-74 0 -115 36t-41 99v8v15q-102 -90 -180 -117q-113 -41 -231 -41q-137 0 -216 69.5t-79 192.5zM211 236q0 -66 47 -101t135 -35q135 0 251 71t136 165l41 192q-88 -31 -299 -59q-145 -20 -211 -61q-45 -27 -72.5 -74t-27.5 -98z M471 1430q0 25 10 73h109v-16v-10q0 -45 46 -74t122 -29q193 0 225 129h115q-31 -121 -94 -176q-111 -100 -273 -100q-115 0 -187.5 56.5t-72.5 146.5z" />
<glyph unicode="&#x4d2;" horiz-adv-x="1366" d="M-68 0l850 1493h246l207 -1493h-209l-55 449h-584l-252 -449h-203zM477 608h473l-82 682zM666 1640l45 211h213l-45 -211h-213zM995 1640l45 211h213l-45 -211h-213z" />
<glyph unicode="&#x4d3;" d="M31 215q0 188 168 295q76 47 166 68.5t294 39.5q113 10 153 34t54 87l6 37q4 33 5 39q0 57 -62.5 94t-155.5 37q-143 0 -219 -76q-37 -37 -61 -114h-172q29 170 157 259t341 89q162 0 259 -63.5t97 -168.5q0 -20 -12 -75l-131 -617q-2 -6 -3 -20q0 -59 78 -60q16 0 35 4 l-27 -133q-25 -4 -28 -6q-51 -12 -80 -12q-74 0 -115 36t-41 99v8v15q-102 -90 -180 -117q-113 -41 -231 -41q-137 0 -216 69.5t-79 192.5zM211 236q0 -66 47 -101t135 -35q135 0 251 71t136 165l41 192q-88 -31 -299 -59q-145 -20 -211 -61q-45 -27 -72.5 -74t-27.5 -98z M459 1227l45 211h213l-45 -211h-213zM788 1227l46 211h213l-46 -211h-213z" />
<glyph unicode="&#x4d4;" horiz-adv-x="2048" d="M-80 0l930 1493h1274l-35 -168h-760l-100 -477h719l-37 -168h-719l-109 -512h795l-35 -168h-987l92 438h-551l-266 -438h-211zM498 604h487l152 721h-205z" />
<glyph unicode="&#x4d5;" horiz-adv-x="1820" d="M18 215q0 88 45.5 167t122.5 128q78 47 167 67.5t288 36.5q111 10 149.5 35t55.5 90l10 52q4 29 4 38q0 53 -57.5 85t-155.5 32q-121 0 -188.5 -45t-100.5 -145h-172q43 158 109 223q131 125 395 125q174 0 277 -82q43 -37 49 -51q150 133 373 133q156 0 269.5 -102.5 t113.5 -243.5q0 -90 -29 -244l-6 -35h-791q-10 -45 -10 -108v-25v-12q0 -98 88 -172q59 -51 168 -51q205 0 317 215h172q-49 -168 -192 -270.5t-330 -102.5q-240 0 -356 209q-215 -209 -494 -209q-133 0 -212 70.5t-79 191.5zM199 236q0 -135 184 -136q129 0 242.5 72 t134.5 164l41 190q-55 -20 -96 -27t-195 -30q-143 -18 -211 -61q-100 -63 -100 -172zM983 627h602q6 45 6 67q0 115 -63.5 183.5t-171.5 68.5q-127 0 -226.5 -84.5t-146.5 -234.5z" />
<glyph unicode="&#x4d6;" horiz-adv-x="1366" d="M82 0l317 1493h1037l-35 -168h-844l-102 -477h811l-37 -168h-809l-111 -512h879l-35 -168h-1071zM690 1843q0 25 10 74h109v-16v-11q0 -45 46 -73.5t122 -28.5q193 0 225 129h115q-31 -121 -94 -176q-111 -100 -273 -101q-115 0 -187.5 56.5t-72.5 146.5z" />
<glyph unicode="&#x4d7;" d="M70 354q0 125 50 278.5t122 250.5q76 102 197.5 161.5t254.5 59.5q166 0 278.5 -101.5t112.5 -248.5q0 -86 -28 -240l-6 -35h-791q-10 -39 -10 -94q0 -131 66.5 -202.5t187.5 -71.5q207 0 319 215h172q-47 -166 -191.5 -269.5t-328.5 -103.5q-174 0 -278 102 q-127 121 -127 299zM297 627h602q6 49 6 67q0 115 -64.5 183.5t-172.5 68.5q-125 0 -227.5 -89t-143.5 -230zM461 1430q0 25 10 73h109v-16v-10q0 -45 46 -74t122 -29q193 0 225 129h114q-31 -121 -94 -176q-111 -100 -272 -100q-115 0 -187.5 56.5t-72.5 146.5z" />
<glyph unicode="&#x4d8;" horiz-adv-x="1478" d="M123 608h1096q59 162 59 330q0 186 -97.5 300t-256.5 114q-121 0 -230.5 -53.5t-173.5 -145.5q-51 -68 -121 -227h-200q111 266 204 368q205 223 549 224q268 0 406 -175q117 -147 117 -368q0 -193 -71 -390.5t-192 -342.5q-240 -289 -598 -289q-293 0 -421 219 q-70 125 -70 436zM324 440q12 -166 91 -243.5t234 -77.5q279 0 463 272l31 49h-819z" />
<glyph unicode="&#x4d9;" horiz-adv-x="1013" d="M53 254q0 152 33 246h741q25 94 25 186q0 119 -62.5 189.5t-168.5 70.5q-227 0 -322 -258h-172q47 162 119 246q145 170 403 170q193 0 293 -127q90 -113 90 -268q0 -141 -47 -292t-119 -245q-168 -219 -458 -219q-170 0 -265 96q-90 94 -90 205zM229 299 q0 -88 56.5 -138t152.5 -50q188 0 303 182q20 33 29 51h-539q-2 -18 -2 -45z" />
<glyph unicode="&#x4da;" horiz-adv-x="1478" d="M123 608h1096q59 162 59 330q0 186 -97.5 300t-256.5 114q-121 0 -230.5 -53.5t-173.5 -145.5q-51 -68 -121 -227h-200q111 266 204 368q205 223 549 224q268 0 406 -175q117 -147 117 -368q0 -193 -71 -390.5t-192 -342.5q-240 -289 -598 -289q-293 0 -421 219 q-70 125 -70 436zM324 440q12 -166 91 -243.5t234 -77.5q279 0 463 272l31 49h-819zM707 1640l45 211h213l-45 -211h-213zM1036 1640l45 211h213l-45 -211h-213z" />
<glyph unicode="&#x4db;" horiz-adv-x="1013" d="M53 254q0 152 33 246h741q25 94 25 186q0 119 -62.5 189.5t-168.5 70.5q-227 0 -322 -258h-172q47 162 119 246q145 170 403 170q193 0 293 -127q90 -113 90 -268q0 -141 -47 -292t-119 -245q-168 -219 -458 -219q-170 0 -265 96q-90 94 -90 205zM229 299 q0 -88 56.5 -138t152.5 -50q188 0 303 182q20 33 29 51h-539q-2 -18 -2 -45zM403 1227l46 211h213l-46 -211h-213zM733 1227l45 211h213l-45 -211h-213z" />
<glyph unicode="&#x4dc;" horiz-adv-x="1837" d="M-57 0l829 768l-434 725h246l354 -631l133 631h191l-134 -631l621 631h246l-742 -725l502 -768h-225l-445 664l-141 -664h-190l141 664l-727 -664h-225zM926 1640l45 211h213l-45 -211h-213zM1255 1640l45 211h213l-45 -211h-213z" />
<glyph unicode="&#x4dd;" horiz-adv-x="1675" d="M-68 0l738 541l-445 532h219l359 -455l96 455h170l-96 -455l551 455h219l-670 -532l508 -541h-211l-434 442l-94 -442h-170l94 442l-623 -442h-211zM745 1227l46 211h213l-46 -211h-213zM1075 1227l45 211h213l-45 -211h-213z" />
<glyph unicode="&#x4de;" horiz-adv-x="1335" d="M43 332q0 55 16 143h181q-12 -49 -13 -90q0 -131 95.5 -197.5t263.5 -66.5q193 0 317.5 84t124.5 221q0 88 -78 159.5t-202 71.5h-222l35 168h180q141 0 265 104.5t124 227.5q0 92 -76.5 146.5t-209.5 54.5q-178 0 -291 -79t-145 -224h-181q47 219 217 341t428 122 q213 0 331 -89.5t118 -248.5q0 -147 -80 -254t-213 -160q199 -80 199 -274q0 -262 -187.5 -400.5t-500.5 -138.5q-223 0 -359.5 97.5t-136.5 281.5zM627 1640l45 211h213l-45 -211h-213zM956 1640l45 211h213l-45 -211h-213z" />
<glyph unicode="&#x4df;" horiz-adv-x="1013" d="M20 223q0 39 11 96h180q-8 -94 20 -137q51 -72 197 -71q115 0 198 55t83 137q0 57 -48.5 103.5t-125.5 46.5h-152l33 155h127q106 0 172.5 57.5t66.5 133.5q0 61 -53 104t-143 43q-209 0 -252 -172h-180q35 158 153.5 244t304.5 86q164 0 257.5 -68.5t93.5 -189.5 q0 -203 -191 -299q131 -63 131 -201q0 -182 -144.5 -287.5t-377.5 -105.5q-361 0 -361 270zM367 1227l45 211h213l-45 -211h-213zM696 1227l45 211h213l-45 -211h-213z" />
<glyph unicode="&#x4e0;" horiz-adv-x="1335" d="M43 332q0 55 16 143h181q-12 -49 -13 -90q0 -131 95.5 -197.5t263.5 -66.5q193 0 317.5 84t124.5 221q0 88 -78 159.5t-202 71.5h-222l35 168h180q141 0 265 104.5t124 227.5q0 92 -76.5 146.5t-209.5 54.5q-178 0 -291 -79t-145 -224h-181q47 219 217 341t428 122 q213 0 331 -89.5t118 -248.5q0 -147 -80 -254t-213 -160q199 -80 199 -274q0 -262 -187.5 -400.5t-500.5 -138.5q-223 0 -359.5 97.5t-136.5 281.5z" />
<glyph unicode="&#x4e1;" horiz-adv-x="1013" d="M20 223q0 39 11 96h180q-8 -94 20 -137q51 -72 197 -71q115 0 198 55t83 137q0 57 -48.5 103.5t-125.5 46.5h-152l33 155h127q106 0 172.5 57.5t66.5 133.5q0 61 -53 104t-143 43q-209 0 -252 -172h-180q35 158 153.5 244t304.5 86q164 0 257.5 -68.5t93.5 -189.5 q0 -203 -191 -299q131 -63 131 -201q0 -182 -144.5 -287.5t-377.5 -105.5q-361 0 -361 270z" />
<glyph unicode="&#x4e2;" horiz-adv-x="1497" d="M68 0l317 1493h180l-260 -1221l1041 1221h206l-317 -1493h-180l258 1210l-1030 -1210h-215zM719 1640l31 142h563l-31 -142h-563z" />
<glyph unicode="&#x4e3;" horiz-adv-x="1146" d="M41 0l227 1073h172l-180 -846l662 846h200l-227 -1073h-170l178 846l-659 -846h-203zM446 1227l31 141h563l-30 -141h-564z" />
<glyph unicode="&#x4e4;" horiz-adv-x="1497" d="M68 0l317 1493h180l-260 -1221l1041 1221h206l-317 -1493h-180l258 1210l-1030 -1210h-215zM729 1640l45 211h213l-45 -211h-213zM1059 1640l45 211h213l-45 -211h-213z" />
<glyph unicode="&#x4e5;" horiz-adv-x="1146" d="M41 0l227 1073h172l-180 -846l662 846h200l-227 -1073h-170l178 846l-659 -846h-203zM457 1227l45 211h213l-45 -211h-213zM786 1227l45 211h213l-45 -211h-213z" />
<glyph unicode="&#x4e6;" horiz-adv-x="1593" d="M111 539q0 195 76.5 386t213.5 332q248 260 596 261q291 0 449 -158q68 -70 107.5 -179.5t39.5 -230.5q0 -244 -107.5 -473t-287.5 -366q-205 -158 -500 -158q-131 0 -247.5 42t-190.5 116q-149 149 -149 428zM307 555q0 -182 84 -289q53 -68 143.5 -107.5t190.5 -39.5 q150 0 279 67.5t219 192.5q82 111 128 253t46 281q0 182 -84 291q-53 68 -144.5 108t-195.5 40q-143 0 -273.5 -69t-220.5 -191q-172 -238 -172 -537zM752 1640l45 211h213l-45 -211h-213zM1081 1640l45 211h213l-45 -211h-213z" />
<glyph unicode="&#x4e7;" d="M61 336q0 131 45.5 281.5t114.5 248.5q78 113 199 175.5t264 62.5q178 0 281 -100q113 -109 112 -283q0 -133 -46 -283.5t-116 -247.5q-172 -238 -466 -237q-172 0 -280 106.5t-108 276.5zM242 377q0 -123 63.5 -194.5t171.5 -71.5q211 0 330 215q90 166 90 356 q0 125 -63.5 194.5t-176.5 69.5q-209 0 -325 -215q-90 -166 -90 -354zM438 1227l45 211h213l-45 -211h-213zM768 1227l45 211h213l-45 -211h-213z" />
<glyph unicode="&#x4e8;" horiz-adv-x="1597" d="M133 735q76 350 319.5 566.5t565.5 216.5q330 0 480.5 -217.5t74.5 -577.5q-39 -184 -142.5 -347t-246.5 -265q-217 -158 -496 -158q-322 0 -475.5 216t-79.5 566zM313 672q-37 -250 75 -400.5t335 -150.5t400 151.5t245 399.5h-1055zM344 813h1053q31 248 -80 392.5 t-334 144.5q-219 0 -393 -146.5t-246 -390.5z" />
<glyph unicode="&#x4e9;" horiz-adv-x="1134" d="M82 528.5q57 270.5 218 423t388 152.5q231 0 326.5 -152.5t36.5 -431.5q-55 -264 -218 -415.5t-389 -151.5q-229 0 -324 152.5t-38 423zM248 459q-20 -164 41 -256t190 -92t229.5 93t147.5 255h-608zM279 600h606q20 164 -40.5 255t-189.5 91t-228 -92t-148 -254z" />
<glyph unicode="&#x4ea;" horiz-adv-x="1597" d="M133 735q76 350 319.5 566.5t565.5 216.5q330 0 480.5 -217.5t74.5 -577.5q-39 -184 -142.5 -347t-246.5 -265q-217 -158 -496 -158q-322 0 -475.5 216t-79.5 566zM313 672q-37 -250 75 -400.5t335 -150.5t400 151.5t245 399.5h-1055zM344 813h1053q31 248 -80 392.5 t-334 144.5q-219 0 -393 -146.5t-246 -390.5zM772 1640l45 211h213l-45 -211h-213zM1102 1640l45 211h213l-45 -211h-213z" />
<glyph unicode="&#x4eb;" horiz-adv-x="1134" d="M82 528.5q57 270.5 218 423t388 152.5q231 0 326.5 -152.5t36.5 -431.5q-55 -264 -218 -415.5t-389 -151.5q-229 0 -324 152.5t-38 423zM248 459q-20 -164 41 -256t190 -92t229.5 93t147.5 255h-608zM279 600h606q20 164 -40.5 255t-189.5 91t-228 -92t-148 -254z M442 1227l45 211h213l-45 -211h-213zM772 1227l45 211h213l-45 -211h-213z" />
<glyph unicode="&#x4ec;" horiz-adv-x="1468" d="M111 436q0 51 6 109h196q-8 -143 19 -232q27 -92 106.5 -142t200.5 -50q211 0 374 150.5t228 408.5h-749l34 168h746q4 31 4 92q0 195 -94.5 302.5t-266.5 107.5q-195 0 -315 -95q-90 -70 -156 -225h-194q193 487 680 488q266 0 402 -149.5t136 -416.5q0 -260 -102 -473 t-268 -352q-205 -174 -494 -174q-493 0 -493 483zM684 1640l45 211h213l-45 -211h-213zM1014 1640l45 211h213l-45 -211h-213z" />
<glyph unicode="&#x4ed;" horiz-adv-x="1093" d="M61 285q0 41 7 84h172v-27q0 -231 206 -231q133 0 232.5 97t146.5 269l-463 -2l31 158h459q2 14 2 45q0 129 -58.5 198.5t-168.5 69.5q-219 0 -303 -233h-172q43 143 120 231q154 160 387 160q176 0 274.5 -107.5t98.5 -298.5q0 -86 -20 -180q-55 -260 -216 -412.5 t-380 -152.5q-170 0 -262.5 87t-92.5 245zM414 1227l45 211h213l-45 -211h-213zM743 1227l45 211h213l-45 -211h-213z" />
<glyph unicode="&#x4ee;" horiz-adv-x="1085" d="M-57 0l370 500l-284 993h231l213 -776l543 776h227l-1069 -1493h-231zM385 1640l31 142h563l-31 -142h-563z" />
<glyph unicode="&#x4ef;" horiz-adv-x="1024" d="M-86 -426l33 154q74 -8 90 -9q57 0 90 21.5t74 85.5l106 166l-139 1081h184l94 -833l478 833h182l-754 -1298q-129 -221 -338 -221q-55 0 -100 20zM387 1227l31 141h563l-31 -141h-563z" />
<glyph unicode="&#x4f0;" horiz-adv-x="1085" d="M-57 0l370 500l-284 993h231l213 -776l543 776h227l-1069 -1493h-231zM395 1640l45 211h213l-45 -211h-213zM725 1640l45 211h213l-45 -211h-213z" />
<glyph unicode="&#x4f1;" horiz-adv-x="1024" d="M-86 -426l33 154q74 -8 90 -9q57 0 90 21.5t74 85.5l106 166l-139 1081h184l94 -833l478 833h182l-754 -1298q-129 -221 -338 -221q-55 0 -100 20zM399 1227l45 211h213l-45 -211h-213zM729 1227l45 211h213l-45 -211h-213z" />
<glyph unicode="&#x4f2;" horiz-adv-x="1085" d="M-57 0l370 500l-284 993h231l213 -776l543 776h227l-1069 -1493h-231zM428 1640l262 308h230l-369 -308h-123zM784 1640l263 308h229l-369 -308h-123z" />
<glyph unicode="&#x4f3;" horiz-adv-x="1024" d="M-86 -426l33 154q74 -8 90 -9q57 0 90 21.5t74 85.5l106 166l-139 1081h184l94 -833l478 833h182l-754 -1298q-129 -221 -338 -221q-55 0 -100 20zM430 1227l262 307h230l-369 -307h-123zM786 1227l263 307h229l-369 -307h-123z" />
<glyph unicode="&#x4f4;" horiz-adv-x="1314" d="M223 864q0 49 10 88l115 541h191l-117 -547q-8 -31 -8 -63q0 -137 182 -138h367l159 748h191l-318 -1493h-190l123 578h-369q-164 0 -250 78.5t-86 207.5zM590 1640l45 211h213l-45 -211h-213zM920 1640l45 211h213l-45 -211h-213z" />
<glyph unicode="&#x4f5;" horiz-adv-x="1017" d="M170 651q0 31 12 105l68 317h172l-72 -338q-6 -27 -6 -53q0 -100 113 -100h260l104 491h172l-227 -1073h-172l90 426h-240q-274 0 -274 225zM383 1227l45 211h213l-45 -211h-213zM713 1227l45 211h213l-45 -211h-213z" />
<glyph unicode="&#x4f8;" horiz-adv-x="1814" d="M68 0l317 1493h190l-137 -643h369q467 0 467 -367q0 -117 -46 -199.5t-134 -158.5q-143 -125 -353 -125h-673zM293 168h465q135 0 215 72q117 98 117 247q0 72 -39 123q-51 72 -183 72h-465zM887 1640l45 211h213l-45 -211h-213zM1217 1640l45 211h213l-45 -211h-213z M1360 0l317 1493h193l-318 -1493h-192z" />
<glyph unicode="&#x4f9;" horiz-adv-x="1503" d="M41 0l227 1075h172l-94 -446h242q201 0 291 -58.5t90 -187.5q0 -174 -138 -293q-102 -90 -251 -90h-539zM115 1227l45 211h213l-45 -211h-213zM246 156h311q100 0 164.5 64.5t64.5 154.5q0 47 -48 72.5t-113 25.5h-312zM444 1227l45 211h213l-45 -211h-213zM1081 0 l228 1073h170l-228 -1073h-170z" />
<glyph unicode="&#xe3f;" horiz-adv-x="1366" d="M59 0l318 1493h461l36 170h109l-37 -170h37q172 0 271.5 -81t99.5 -216q0 -137 -73 -243.5t-206 -166.5q109 -47 154 -105t45 -153q0 -225 -159 -376.5t-380 -151.5h-106l-35 -170h-111l37 170h-461zM287 168h268l111 514h-269zM432 850h268l103 475h-268zM666 168h86 q143 0 234 92t91 236q0 186 -217 186h-86zM809 850q172 2 260 84t88 215q0 174 -246 176z" />
<glyph unicode="&#x1e0c;" horiz-adv-x="1478" d="M80 0l317 1493h578q223 0 350 -138t127 -356q0 -422 -230.5 -710.5t-564.5 -288.5h-577zM307 168h352q264 0 430 230.5t166 584.5q0 160 -93 251t-257 91h-350zM434 -373l45 211h213l-45 -211h-213z" />
<glyph unicode="&#x1e0d;" d="M49 356q0 324 168 536t424 212q109 0 176.5 -43t116.5 -143l123 575h172l-318 -1493h-166l35 164q-45 -86 -155.5 -140.5t-223.5 -54.5q-160 0 -256 104.5t-96 282.5zM229 397q0 -131 63.5 -200.5t178.5 -69.5q162 0 278.5 162t116.5 381q0 131 -63.5 203.5t-177.5 72.5 q-166 0 -281 -164t-115 -385zM279 -373l45 211h213l-45 -211h-213z" />
<glyph unicode="&#x1e0e;" horiz-adv-x="1478" d="M80 0l317 1493h578q223 0 350 -138t127 -356q0 -422 -230.5 -710.5t-564.5 -288.5h-577zM266 -338l31 141h563l-31 -141h-563zM307 168h352q264 0 430 230.5t166 584.5q0 160 -93 251t-257 91h-350z" />
<glyph unicode="&#x1e0f;" d="M49 356q0 324 168 536t424 212q109 0 176.5 -43t116.5 -143l123 575h172l-318 -1493h-166l35 164q-45 -86 -155.5 -140.5t-223.5 -54.5q-160 0 -256 104.5t-96 282.5zM111 -338l30 141h564l-31 -141h-563zM229 397q0 -131 63.5 -200.5t178.5 -69.5q162 0 278.5 162 t116.5 381q0 131 -63.5 203.5t-177.5 72.5q-166 0 -281 -164t-115 -385z" />
<glyph unicode="&#x1e24;" horiz-adv-x="1478" d="M68 0l317 1493h193l-138 -645h764l137 645h193l-317 -1493h-193l145 680h-763l-146 -680h-192zM455 -373l45 211h213l-45 -211h-213z" />
<glyph unicode="&#x1e25;" d="M41 0l317 1493h172l-116 -553q96 90 182 127t201 37q129 0 202.5 -68.5t73.5 -189.5q0 -41 -8 -76l-164 -770h-172l150 702q12 55 12 80q0 78 -48 126t-126 48q-139 0 -241.5 -98t-137.5 -266l-125 -592h-172zM283 -373l45 211h213l-45 -211h-213z" />
<glyph unicode="&#x1e26;" horiz-adv-x="1478" d="M68 0l317 1493h193l-138 -645h764l137 645h193l-317 -1493h-193l145 680h-763l-146 -680h-192zM731 1636l45 209h187l-45 -209h-187zM1063 1636l45 209h186l-45 -209h-186z" />
<glyph unicode="&#x1e27;" d="M41 0l317 1493h172l-116 -553q96 90 182 127t201 37q129 0 202.5 -68.5t73.5 -189.5q0 -41 -8 -76l-164 -770h-172l150 702q12 55 12 80q0 78 -48 126t-126 48q-139 0 -241.5 -98t-137.5 -266l-125 -592h-172zM555 1636l45 209h186l-45 -209h-186zM887 1636l45 209h186 l-45 -209h-186z" />
<glyph unicode="&#x1e2a;" horiz-adv-x="1478" d="M68 0l317 1493h193l-138 -645h764l137 645h193l-317 -1493h-193l145 680h-763l-146 -680h-192zM229 -203q0 20 13 58h131v-21q0 -39 55 -61.5t145 -22.5q231 0 271 105h137q-43 -115 -165 -179.5t-279 -64.5q-135 0 -221.5 55t-86.5 131z" />
<glyph unicode="&#x1e2b;" d="M41 0l317 1493h172l-116 -553q96 90 182 127t201 37q129 0 202.5 -68.5t73.5 -189.5q0 -41 -8 -76l-164 -770h-172l150 702q12 55 12 80q0 78 -48 126t-126 48q-139 0 -241.5 -98t-137.5 -266l-125 -592h-172zM57 -203q0 20 13 58h131v-21q0 -39 55 -61.5t145 -22.5 q231 0 271 105h137q-43 -115 -165 -179.5t-279 -64.5q-135 0 -221.5 55t-86.5 131z" />
<glyph unicode="&#x1e36;" d="M61 0l318 1493h192l-282 -1325h737l-35 -168h-930zM338 -373l45 211h213l-45 -211h-213z" />
<glyph unicode="&#x1e37;" horiz-adv-x="454" d="M-63 -373l45 211h213l-45 -211h-213zM37 0l317 1493h172l-317 -1493h-172z" />
<glyph unicode="&#x1e38;" d="M61 0l318 1493h192l-282 -1325h737l-35 -168h-930zM225 1671l31 141h563l-31 -141h-563zM338 -373l45 211h213l-45 -211h-213z" />
<glyph unicode="&#x1e39;" horiz-adv-x="454" d="M-63 -373l45 211h213l-45 -211h-213zM37 0l317 1493h172l-317 -1493h-172zM190 1671l31 141h563l-30 -141h-564z" />
<glyph unicode="&#x1e42;" horiz-adv-x="1705" d="M51 0l318 1493h264l164 -1284l708 1284h269l-318 -1493h-182l264 1239l-684 -1239h-199l-157 1239l-265 -1239h-182zM563 -373l45 211h213l-45 -211h-213z" />
<glyph unicode="&#x1e43;" horiz-adv-x="1705" d="M43 0l227 1073h156l-27 -133q98 92 179 128t186 36q199 0 248 -170q176 170 370 170q125 0 192.5 -68.5t67.5 -158.5q0 -68 -12 -113l-162 -764h-172l148 698q18 70 18 101q0 74 -42 115.5t-113 41.5q-113 0 -205 -80.5t-117 -201.5l-143 -674h-172l157 739q8 35 9 76 q0 63 -46.5 102t-121.5 39q-102 0 -193.5 -82.5t-116.5 -199.5l-143 -674h-172zM563 -373l45 211h213l-45 -211h-213z" />
<glyph unicode="&#x1e44;" horiz-adv-x="1478" d="M53 0l318 1493h213l512 -1225l260 1225h182l-317 -1493h-217l-510 1210l-258 -1210h-183zM877 1636l45 211h213l-45 -211h-213z" />
<glyph unicode="&#x1e45;" d="M41 0l227 1073h156l-27 -133q160 164 398 164q127 0 202.5 -69.5t75.5 -186.5q0 -43 -8 -78l-164 -770h-172l152 715q12 66 12 76q0 72 -51 118.5t-127 46.5q-139 0 -240.5 -98t-136.5 -266l-125 -592h-172zM621 1237l45 211h213l-45 -211h-213z" />
<glyph unicode="&#x1e46;" horiz-adv-x="1478" d="M53 0l318 1493h213l512 -1225l260 1225h182l-317 -1493h-217l-510 1210l-258 -1210h-183zM449 -373l45 211h213l-45 -211h-213z" />
<glyph unicode="&#x1e47;" d="M41 0l227 1073h156l-27 -133q160 164 398 164q127 0 202.5 -69.5t75.5 -186.5q0 -43 -8 -78l-164 -770h-172l152 715q12 66 12 76q0 72 -51 118.5t-127 46.5q-139 0 -240.5 -98t-136.5 -266l-125 -592h-172zM279 -373l45 211h213l-45 -211h-213z" />
<glyph unicode="&#x1e58;" horiz-adv-x="1478" d="M88 0l318 1493h688q197 0 289 -77t92 -238q0 -152 -70 -255.5t-217 -185.5q72 -47 97.5 -88t25.5 -108q0 -57 -43 -283q-12 -66 -13 -102q0 -70 43 -109l-10 -47h-231q-8 57 -8 96q0 49 6 83t43 188q16 72 16 122q0 154 -207 154h-489l-137 -643h-193zM453 811h473 q170 0 261 93t91 239q0 92 -55.5 137t-188.5 45h-471zM840 1636l45 211h213l-45 -211h-213z" />
<glyph unicode="&#x1e59;" horiz-adv-x="681" d="M39 0l227 1073h156l-35 -168q94 109 171 154t167 45q25 0 66 -6l-37 -174h-21q-326 0 -403 -367l-119 -557h-172zM365 1237l45 211h213l-45 -211h-213z" />
<glyph unicode="&#x1e5a;" horiz-adv-x="1478" d="M88 0l318 1493h688q197 0 289 -77t92 -238q0 -152 -70 -255.5t-217 -185.5q72 -47 97.5 -88t25.5 -108q0 -57 -43 -283q-12 -66 -13 -102q0 -70 43 -109l-10 -47h-231q-8 57 -8 96q0 49 6 83t43 188q16 72 16 122q0 154 -207 154h-489l-137 -643h-193zM412 -373l45 211 h213l-45 -211h-213zM453 811h473q170 0 261 93t91 239q0 92 -55.5 137t-188.5 45h-471z" />
<glyph unicode="&#x1e5b;" horiz-adv-x="681" d="M-63 -373l45 211h213l-45 -211h-213zM39 0l227 1073h156l-35 -168q94 109 171 154t167 45q25 0 66 -6l-37 -174h-21q-326 0 -403 -367l-119 -557h-172z" />
<glyph unicode="&#x1e5c;" horiz-adv-x="1478" d="M88 0l318 1493h688q197 0 289 -77t92 -238q0 -152 -70 -255.5t-217 -185.5q72 -47 97.5 -88t25.5 -108q0 -57 -43 -283q-12 -66 -13 -102q0 -70 43 -109l-10 -47h-231q-8 57 -8 96q0 49 6 83t43 188q16 72 16 122q0 154 -207 154h-489l-137 -643h-193zM412 -373l45 211 h213l-45 -211h-213zM453 811h473q170 0 261 93t91 239q0 92 -55.5 137t-188.5 45h-471zM668 1671l30 141h564l-31 -141h-563z" />
<glyph unicode="&#x1e5d;" horiz-adv-x="681" d="M-63 -373l45 211h213l-45 -211h-213zM39 0l227 1073h156l-35 -168q94 109 171 154t167 45q25 0 66 -6l-37 -174h-21q-326 0 -403 -367l-119 -557h-172zM201 1303l30 141h564l-31 -141h-563z" />
<glyph unicode="&#x1e62;" horiz-adv-x="1366" d="M82 356q0 61 18 129h179q-8 -51 -9 -84q0 -139 82 -205.5t256 -66.5q205 0 335 89t130 220q0 72 -54 121t-177 84l-350 100q-102 29 -165 105t-63 172q0 78 42 175t106 161q168 174 487 174q215 0 339 -95.5t124 -252.5q0 -39 -16 -115h-181q8 55 9 74q0 223 -312 223 q-176 0 -288.5 -83t-112.5 -208q0 -68 44 -104.5t163 -71.5l352 -100q115 -33 182.5 -116t67.5 -185q0 -86 -50.5 -187.5t-127.5 -173.5q-184 -172 -517 -172q-231 0 -362 104.5t-131 288.5zM391 -373l45 211h213l-45 -211h-213z" />
<glyph unicode="&#x1e63;" horiz-adv-x="1024" d="M27 231q0 47 12 105h182q-4 -41 -4 -51q0 -76 57.5 -117t163.5 -41q121 0 207 55.5t86 141.5q0 39 -27.5 68.5t-115.5 51.5l-152 39q-158 39 -220 92.5t-62 147.5q0 166 131 273.5t342 107.5q150 0 243 -67.5t93 -174.5q0 -37 -13 -88h-172q2 16 2 45q0 59 -49 93 t-139 34q-117 0 -187.5 -49t-70.5 -129t174 -123l156 -39q135 -33 191 -87t56 -148q0 -182 -137 -292t-366 -110q-178 0 -279.5 69.5t-101.5 192.5zM221 -373l45 211h213l-45 -211h-213z" />
<glyph unicode="&#x1e6c;" horiz-adv-x="1251" d="M221 1325l35 168h1174l-35 -168h-488l-282 -1325h-193l283 1325h-494zM340 -373l45 211h213l-45 -211h-213z" />
<glyph unicode="&#x1e6d;" horiz-adv-x="569" d="M49 -373l45 211h213l-45 -211h-213zM102 147q0 33 7 64l155 725h-145l28 137h146l63 295h172l-63 -295h182l-29 -137h-182l-153 -719q-4 -25 -4 -29q0 -25 20 -40t53 -15q27 0 99 17l-33 -150q-49 -14 -133 -14t-133.5 42.5t-49.5 118.5z" />
<glyph unicode="&#x1e6e;" horiz-adv-x="1251" d="M172 -338l31 141h563l-31 -141h-563zM221 1325l35 168h1174l-35 -168h-488l-282 -1325h-193l283 1325h-494z" />
<glyph unicode="&#x1e6f;" horiz-adv-x="569" d="M-121 -338l31 141h563l-31 -141h-563zM102 147q0 33 7 64l155 725h-145l28 137h146l63 295h172l-63 -295h182l-29 -137h-182l-153 -719q-4 -25 -4 -29q0 -25 20 -40t53 -15q27 0 99 17l-33 -150q-49 -14 -133 -14t-133.5 42.5t-49.5 118.5z" />
<glyph unicode="&#x1e80;" horiz-adv-x="1933" d="M260 0v1493h236v-1212l589 1212h197l84 -1212l539 1212h213l-697 -1493h-209l-84 1212l-593 -1212h-275zM807 1876h274l199 -272h-147z" />
<glyph unicode="&#x1e81;" horiz-adv-x="1478" d="M139 1073h226v-835l387 835h237v-835l402 835h186l-541 -1073h-219v856l-399 -856h-197zM590 1493h229l133 -303h-123z" />
<glyph unicode="&#x1e82;" horiz-adv-x="1933" d="M260 0v1493h236v-1212l589 1212h197l84 -1212l539 1212h213l-697 -1493h-209l-84 1212l-593 -1212h-275zM1133 1604l315 272h274l-442 -272h-147z" />
<glyph unicode="&#x1e83;" horiz-adv-x="1478" d="M139 1073h226v-835l387 835h237v-835l402 835h186l-541 -1073h-219v856l-399 -856h-197zM827 1190l263 303h229l-369 -303h-123z" />
<glyph unicode="&#x1e84;" horiz-adv-x="1933" d="M260 0v1493h236v-1212l589 1212h197l84 -1212l539 1212h213l-697 -1493h-209l-84 1212l-593 -1212h-275zM954 1636l45 209h187l-45 -209h-187zM1286 1636l45 209h187l-45 -209h-187z" />
<glyph unicode="&#x1e85;" horiz-adv-x="1478" d="M139 1073h226v-835l387 835h237v-835l402 835h186l-541 -1073h-219v856l-399 -856h-197zM639 1237l45 209h186l-45 -209h-186zM971 1237l45 209h186l-45 -209h-186z" />
<glyph unicode="&#x1e92;" horiz-adv-x="1251" d="M-45 0l37 172l1136 1153h-831l35 168h1075l-37 -172l-1139 -1153h897l-34 -168h-1139zM365 -373l45 211h213l-45 -211h-213z" />
<glyph unicode="&#x1e93;" horiz-adv-x="1024" d="M-39 0l37 152l809 774h-602l31 147h802l-37 -153l-802 -773h667l-30 -147h-875zM221 -373l45 211h213l-45 -211h-213z" />
<glyph unicode="&#x1e97;" horiz-adv-x="569" d="M102 147q0 33 7 64l155 725h-145l28 137h146l63 295h172l-63 -295h182l-29 -137h-182l-153 -719q-4 -25 -4 -29q0 -25 20 -40t53 -15q27 0 99 17l-33 -150q-49 -14 -133 -14t-133.5 42.5t-49.5 118.5zM213 1511l45 209h186l-45 -209h-186zM545 1511l45 209h186l-45 -209 h-186z" />
<glyph unicode="&#x1ea0;" horiz-adv-x="1366" d="M-68 0l850 1493h246l207 -1493h-209l-55 449h-584l-252 -449h-203zM393 -373l45 211h213l-45 -211h-213zM477 608h473l-82 682z" />
<glyph unicode="&#x1ea1;" d="M33 223q0 182 166 287q74 47 163 67.5t297 40.5q111 10 154 35t53 86l6 37q4 33 5 39q0 57 -62.5 94t-155.5 37q-221 0 -280 -190h-172q29 170 157 259t341 89q162 0 259 -63.5t97 -168.5q0 -20 -12 -75l-125 -588q-2 -6 -2 -21q0 -59 77 -59q16 0 35 4l-26 -133 q-104 -18 -109 -18q-80 0 -121 23.5t-41 82.5l2 31q-109 -90 -202 -120t-207 -30q-139 0 -218 66.5t-79 187.5zM213 244q0 -127 184 -127q135 0 251 70.5t136 164.5l37 176q-88 -31 -299 -59q-164 -23 -236.5 -76t-72.5 -149zM281 -373l45 211h213l-45 -211h-213z" />
<glyph unicode="&#x1ea2;" horiz-adv-x="1366" d="M-68 0l850 1493h246l207 -1493h-209l-55 449h-584l-252 -449h-203zM477 608h473l-82 682zM758 1808q49 209 260 209q84 0 132 -35.5t48 -91.5q0 -92 -139 -176q-45 -27 -60.5 -41t-25.5 -37l-12 -47h-119l18 68q10 35 32.5 56.5t98.5 72.5q86 53 86 94t-78 41 q-98 0 -127 -113h-114z" />
<glyph unicode="&#x1ea3;" d="M33 223q0 182 166 287q74 47 163 67.5t297 40.5q111 10 154 35t53 86l6 37q4 33 5 39q0 57 -62.5 94t-155.5 37q-221 0 -280 -190h-172q29 170 157 259t341 89q162 0 259 -63.5t97 -168.5q0 -20 -12 -75l-125 -588q-2 -6 -2 -21q0 -59 77 -59q16 0 35 4l-26 -133 q-104 -18 -109 -18q-80 0 -121 23.5t-41 82.5l2 31q-109 -90 -202 -120t-207 -30q-139 0 -218 66.5t-79 187.5zM213 244q0 -127 184 -127q135 0 251 70.5t136 164.5l37 176q-88 -31 -299 -59q-164 -23 -236.5 -76t-72.5 -149zM549 1389q49 209 260 208q84 0 132 -34.5 t48 -92.5q0 -92 -139 -176q-45 -27 -60.5 -41t-25.5 -36l-12 -48h-119l18 68q10 35 33 56.5t98 72.5q86 53 86 94t-77 41q-98 0 -127 -112h-115z" />
<glyph unicode="&#x1ea4;" horiz-adv-x="1366" d="M-68 0l850 1493h246l207 -1493h-209l-55 449h-584l-252 -449h-203zM477 608h473l-82 682zM575 1604l316 276h233l156 -276h-154l-137 182l-256 -182h-158zM922 1921l315 272h274l-442 -272h-147z" />
<glyph unicode="&#x1ea5;" d="M33 223q0 182 166 287q74 47 163 67.5t297 40.5q111 10 154 35t53 86l6 37q4 33 5 39q0 57 -62.5 94t-155.5 37q-221 0 -280 -190h-172q29 170 157 259t341 89q162 0 259 -63.5t97 -168.5q0 -20 -12 -75l-125 -588q-2 -6 -2 -21q0 -59 77 -59q16 0 35 4l-26 -133 q-104 -18 -109 -18q-80 0 -121 23.5t-41 82.5l2 31q-109 -90 -202 -120t-207 -30q-139 0 -218 66.5t-79 187.5zM213 244q0 -127 184 -127q135 0 251 70.5t136 164.5l37 176q-88 -31 -299 -59q-164 -23 -236.5 -76t-72.5 -149zM369 1184l315 276h234l155 -276h-153l-138 182 l-256 -182h-157zM715 1501l315 273h275l-443 -273h-147z" />
<glyph unicode="&#x1ea6;" horiz-adv-x="1366" d="M-68 0l850 1493h246l207 -1493h-209l-55 449h-584l-252 -449h-203zM477 608h473l-82 682zM575 1604l316 276h233l156 -276h-154l-137 182l-256 -182h-158zM596 2193h274l199 -272h-147z" />
<glyph unicode="&#x1ea7;" d="M33 223q0 182 166 287q74 47 163 67.5t297 40.5q111 10 154 35t53 86l6 37q4 33 5 39q0 57 -62.5 94t-155.5 37q-221 0 -280 -190h-172q29 170 157 259t341 89q162 0 259 -63.5t97 -168.5q0 -20 -12 -75l-125 -588q-2 -6 -2 -21q0 -59 77 -59q16 0 35 4l-26 -133 q-104 -18 -109 -18q-80 0 -121 23.5t-41 82.5l2 31q-109 -90 -202 -120t-207 -30q-139 0 -218 66.5t-79 187.5zM213 244q0 -127 184 -127q135 0 251 70.5t136 164.5l37 176q-88 -31 -299 -59q-164 -23 -236.5 -76t-72.5 -149zM369 1184l315 276h234l155 -276h-153l-138 182 l-256 -182h-157zM389 1774h275l198 -273h-147z" />
<glyph unicode="&#x1ea8;" horiz-adv-x="1366" d="M-68 0l850 1493h246l207 -1493h-209l-55 449h-584l-252 -449h-203zM477 608h473l-82 682zM575 1604l316 276h233l156 -276h-154l-137 182l-256 -182h-158zM963 2118q49 188 260 188q84 0 132 -31.5t48 -83.5q0 -82 -139 -157q-70 -35 -86 -70l-13 -43h-118l18 61 q10 31 32.5 51.5t98.5 63.5q86 49 86 86t-78 37q-98 0 -127 -102h-114z" />
<glyph unicode="&#x1ea9;" d="M33 223q0 182 166 287q74 47 163 67.5t297 40.5q111 10 154 35t53 86l6 37q4 33 5 39q0 57 -62.5 94t-155.5 37q-221 0 -280 -190h-172q29 170 157 259t341 89q162 0 259 -63.5t97 -168.5q0 -20 -12 -75l-125 -588q-2 -6 -2 -21q0 -59 77 -59q16 0 35 4l-26 -133 q-104 -18 -109 -18q-80 0 -121 23.5t-41 82.5l2 31q-109 -90 -202 -120t-207 -30q-139 0 -218 66.5t-79 187.5zM213 244q0 -127 184 -127q135 0 251 70.5t136 164.5l37 176q-88 -31 -299 -59q-164 -23 -236.5 -76t-72.5 -149zM369 1184l315 276h234l155 -276h-153l-138 182 l-256 -182h-157zM756 1698q49 188 260 188q84 0 132 -31.5t48 -82.5q0 -82 -139 -158q-70 -35 -86 -70l-13 -43h-118l18 62q10 31 32.5 51t98.5 63q86 49 86 86t-78 37q-98 0 -127 -102h-114z" />
<glyph unicode="&#x1eaa;" horiz-adv-x="1366" d="M-68 0l850 1493h246l207 -1493h-209l-55 449h-584l-252 -449h-203zM477 608h473l-82 682zM575 1604l316 276h233l156 -276h-154l-137 182l-256 -182h-158zM659 1942q39 113 88.5 161.5t124.5 48.5q14 0 132 -32.5t147 -32.5q31 0 50.5 15.5t47.5 60.5h109 q-33 -100 -92.5 -159.5t-128.5 -59.5q-55 0 -211 53q-33 12 -56 12q-35 0 -53 -13.5t-49 -53.5h-109z" />
<glyph unicode="&#x1eab;" d="M33 223q0 182 166 287q74 47 163 67.5t297 40.5q111 10 154 35t53 86l6 37q4 33 5 39q0 57 -62.5 94t-155.5 37q-221 0 -280 -190h-172q29 170 157 259t341 89q162 0 259 -63.5t97 -168.5q0 -20 -12 -75l-125 -588q-2 -6 -2 -21q0 -59 77 -59q16 0 35 4l-26 -133 q-104 -18 -109 -18q-80 0 -121 23.5t-41 82.5l2 31q-109 -90 -202 -120t-207 -30q-139 0 -218 66.5t-79 187.5zM213 244q0 -127 184 -127q135 0 251 70.5t136 164.5l37 176q-88 -31 -299 -59q-164 -23 -236.5 -76t-72.5 -149zM369 1184l315 276h234l155 -276h-153l-138 182 l-256 -182h-157zM453 1522q39 113 88 162t125 49q14 0 131.5 -33t146.5 -33q31 0 50.5 15.5t47.5 60.5h109q-33 -100 -92.5 -159.5t-128.5 -59.5q-55 0 -211 53q-35 12 -55 12q-35 0 -53.5 -13t-49.5 -54h-108z" />
<glyph unicode="&#x1eac;" horiz-adv-x="1366" d="M-68 0l850 1493h246l207 -1493h-209l-55 449h-584l-252 -449h-203zM393 -373l45 211h213l-45 -211h-213zM477 608h473l-82 682zM575 1604l316 276h233l156 -276h-154l-137 182l-256 -182h-158z" />
<glyph unicode="&#x1ead;" d="M33 223q0 182 166 287q74 47 163 67.5t297 40.5q111 10 154 35t53 86l6 37q4 33 5 39q0 57 -62.5 94t-155.5 37q-221 0 -280 -190h-172q29 170 157 259t341 89q162 0 259 -63.5t97 -168.5q0 -20 -12 -75l-125 -588q-2 -6 -2 -21q0 -59 77 -59q16 0 35 4l-26 -133 q-104 -18 -109 -18q-80 0 -121 23.5t-41 82.5l2 31q-109 -90 -202 -120t-207 -30q-139 0 -218 66.5t-79 187.5zM213 244q0 -127 184 -127q135 0 251 70.5t136 164.5l37 176q-88 -31 -299 -59q-164 -23 -236.5 -76t-72.5 -149zM281 -373l45 211h213l-45 -211h-213zM426 1188 l262 307h195l131 -307h-129l-115 203l-213 -203h-131z" />
<glyph unicode="&#x1eae;" horiz-adv-x="1366" d="M-68 0l850 1493h246l207 -1493h-209l-55 449h-584l-252 -449h-203zM477 608h473l-82 682zM602 1806q0 20 12 58h131v-21q0 -39 55.5 -61.5t145.5 -22.5q231 0 271 105h137q-43 -115 -165 -179.5t-280 -64.5q-135 0 -221 55t-86 131zM924 1933l315 273h274l-442 -273h-147 z" />
<glyph unicode="&#x1eaf;" d="M33 223q0 182 166 287q74 47 163 67.5t297 40.5q111 10 154 35t53 86l6 37q4 33 5 39q0 57 -62.5 94t-155.5 37q-221 0 -280 -190h-172q29 170 157 259t341 89q162 0 259 -63.5t97 -168.5q0 -20 -12 -75l-125 -588q-2 -6 -2 -21q0 -59 77 -59q16 0 35 4l-26 -133 q-104 -18 -109 -18q-80 0 -121 23.5t-41 82.5l2 31q-109 -90 -202 -120t-207 -30q-139 0 -218 66.5t-79 187.5zM213 244q0 -127 184 -127q135 0 251 70.5t136 164.5l37 176q-88 -31 -299 -59q-164 -23 -236.5 -76t-72.5 -149zM395 1386q0 20 13 58h131v-21q0 -39 55 -61.5 t145 -22.5q231 0 271 105h137q-43 -115 -165 -179.5t-280 -64.5q-135 0 -221 55t-86 131zM717 1513l315 273h275l-443 -273h-147z" />
<glyph unicode="&#x1eb0;" horiz-adv-x="1366" d="M-68 0l850 1493h246l207 -1493h-209l-55 449h-584l-252 -449h-203zM477 608h473l-82 682zM598 2206h274l199 -273h-147zM602 1806q0 20 12 58h131v-21q0 -39 55.5 -61.5t145.5 -22.5q231 0 271 105h137q-43 -115 -165 -179.5t-280 -64.5q-135 0 -221 55t-86 131z" />
<glyph unicode="&#x1eb1;" d="M33 223q0 182 166 287q74 47 163 67.5t297 40.5q111 10 154 35t53 86l6 37q4 33 5 39q0 57 -62.5 94t-155.5 37q-221 0 -280 -190h-172q29 170 157 259t341 89q162 0 259 -63.5t97 -168.5q0 -20 -12 -75l-125 -588q-2 -6 -2 -21q0 -59 77 -59q16 0 35 4l-26 -133 q-104 -18 -109 -18q-80 0 -121 23.5t-41 82.5l2 31q-109 -90 -202 -120t-207 -30q-139 0 -218 66.5t-79 187.5zM213 244q0 -127 184 -127q135 0 251 70.5t136 164.5l37 176q-88 -31 -299 -59q-164 -23 -236.5 -76t-72.5 -149zM391 1786h275l198 -273h-147zM395 1386 q0 20 13 58h131v-21q0 -39 55 -61.5t145 -22.5q231 0 271 105h137q-43 -115 -165 -179.5t-280 -64.5q-135 0 -221 55t-86 131z" />
<glyph unicode="&#x1eb2;" horiz-adv-x="1366" d="M-68 0l850 1493h246l207 -1493h-209l-55 449h-584l-252 -449h-203zM477 608h473l-82 682zM602 1806q0 20 12 58h131v-21q0 -39 55.5 -61.5t145.5 -22.5q231 0 271 105h137q-43 -115 -165 -179.5t-280 -64.5q-135 0 -221 55t-86 131zM807 2040q49 188 260 188 q84 0 132 -31.5t48 -82.5q0 -82 -139 -158q-70 -35 -86 -70l-12 -43h-119l18 62q10 31 33 51t98 63q86 49 86 86t-77 37q-98 0 -127 -102h-115z" />
<glyph unicode="&#x1eb3;" d="M33 223q0 182 166 287q74 47 163 67.5t297 40.5q111 10 154 35t53 86l6 37q4 33 5 39q0 57 -62.5 94t-155.5 37q-221 0 -280 -190h-172q29 170 157 259t341 89q162 0 259 -63.5t97 -168.5q0 -20 -12 -75l-125 -588q-2 -6 -2 -21q0 -59 77 -59q16 0 35 4l-26 -133 q-104 -18 -109 -18q-80 0 -121 23.5t-41 82.5l2 31q-109 -90 -202 -120t-207 -30q-139 0 -218 66.5t-79 187.5zM213 244q0 -127 184 -127q135 0 251 70.5t136 164.5l37 176q-88 -31 -299 -59q-164 -23 -236.5 -76t-72.5 -149zM395 1386q0 20 13 58h131v-21q0 -39 55 -61.5 t145 -22.5q231 0 271 105h137q-43 -115 -165 -179.5t-280 -64.5q-135 0 -221 55t-86 131zM600 1620q49 188 260 188q84 0 132 -31.5t48 -82.5q0 -82 -139 -158q-70 -35 -86 -70l-12 -43h-119l18 62q10 31 33 51t99 63q86 49 86 86t-78 37q-98 0 -127 -102h-115z" />
<glyph unicode="&#x1eb4;" horiz-adv-x="1366" d="M-68 0l850 1493h246l207 -1493h-209l-55 449h-584l-252 -449h-203zM477 608h473l-82 682zM602 1806q0 20 12 58h131v-21q0 -39 55.5 -61.5t145.5 -22.5q231 0 271 105h137q-43 -115 -165 -179.5t-280 -64.5q-135 0 -221 55t-86 131zM664 1956q39 113 88 162t125 49 q14 0 131.5 -33t146.5 -33q31 0 50.5 15.5t47.5 60.5h109q-33 -100 -92.5 -159.5t-128.5 -59.5q-55 0 -211 53q-33 12 -56 12q-35 0 -53 -13t-49 -54h-108z" />
<glyph unicode="&#x1eb5;" d="M33 223q0 182 166 287q74 47 163 67.5t297 40.5q111 10 154 35t53 86l6 37q4 33 5 39q0 57 -62.5 94t-155.5 37q-221 0 -280 -190h-172q29 170 157 259t341 89q162 0 259 -63.5t97 -168.5q0 -20 -12 -75l-125 -588q-2 -6 -2 -21q0 -59 77 -59q16 0 35 4l-26 -133 q-104 -18 -109 -18q-80 0 -121 23.5t-41 82.5l2 31q-109 -90 -202 -120t-207 -30q-139 0 -218 66.5t-79 187.5zM213 244q0 -127 184 -127q135 0 251 70.5t136 164.5l37 176q-88 -31 -299 -59q-164 -23 -236.5 -76t-72.5 -149zM395 1386q0 20 13 58h131v-21q0 -39 55 -61.5 t145 -22.5q231 0 271 105h137q-43 -115 -165 -179.5t-280 -64.5q-135 0 -221 55t-86 131zM457 1536q39 113 88 162t125 49q14 0 132 -33t146 -33q31 0 50.5 15.5t48.5 60.5h108q-33 -100 -92 -159.5t-129 -59.5q-55 0 -211 53q-33 12 -55 13q-35 0 -53.5 -13.5t-49.5 -54.5 h-108z" />
<glyph unicode="&#x1eb6;" horiz-adv-x="1366" d="M-68 0l850 1493h246l207 -1493h-209l-55 449h-584l-252 -449h-203zM393 -373l45 211h213l-45 -211h-213zM477 608h473l-82 682zM602 1806q0 20 12 58h131v-21q0 -39 55.5 -61.5t145.5 -22.5q231 0 271 105h137q-43 -115 -165 -179.5t-280 -64.5q-135 0 -221 55t-86 131z " />
<glyph unicode="&#x1eb7;" d="M33 223q0 182 166 287q74 47 163 67.5t297 40.5q111 10 154 35t53 86l6 37q4 33 5 39q0 57 -62.5 94t-155.5 37q-221 0 -280 -190h-172q29 170 157 259t341 89q162 0 259 -63.5t97 -168.5q0 -20 -12 -75l-125 -588q-2 -6 -2 -21q0 -59 77 -59q16 0 35 4l-26 -133 q-104 -18 -109 -18q-80 0 -121 23.5t-41 82.5l2 31q-109 -90 -202 -120t-207 -30q-139 0 -218 66.5t-79 187.5zM213 244q0 -127 184 -127q135 0 251 70.5t136 164.5l37 176q-88 -31 -299 -59q-164 -23 -236.5 -76t-72.5 -149zM281 -373l45 211h213l-45 -211h-213zM463 1407 q0 25 10 74h109v-27q0 -45 46 -73.5t122 -28.5q193 0 225 129h115q-35 -139 -133.5 -208t-233.5 -69q-115 0 -187.5 56.5t-72.5 146.5z" />
<glyph unicode="&#x1eb8;" horiz-adv-x="1366" d="M82 0l317 1493h1037l-35 -168h-844l-102 -477h811l-37 -168h-809l-111 -512h879l-35 -168h-1071zM393 -373l45 211h213l-45 -211h-213z" />
<glyph unicode="&#x1eb9;" d="M72 362q0 125 49 274.5t121 246.5q76 102 197.5 161.5t254.5 59.5q166 0 278.5 -101.5t112.5 -248.5q0 -86 -28 -240l-4 -27h-791q-12 -49 -10 -94q0 -129 66.5 -197.5t189.5 -68.5q205 0 315 199h172q-47 -164 -188 -260.5t-328 -96.5q-182 0 -294.5 114.5t-112.5 278.5 zM279 -373l45 211h213l-45 -211h-213zM299 635h602q4 49 4 59q0 115 -64.5 183.5t-172.5 68.5q-123 0 -226.5 -88t-142.5 -223z" />
<glyph unicode="&#x1eba;" horiz-adv-x="1366" d="M82 0l317 1493h1037l-35 -168h-844l-102 -477h811l-37 -168h-809l-111 -512h879l-35 -168h-1071zM770 1808q49 209 260 209q84 0 132 -35.5t48 -91.5q0 -92 -139 -176q-45 -27 -60.5 -41t-25.5 -37l-12 -47h-119l18 68q10 35 33 56.5t99 72.5q86 53 86 94t-78 41 q-98 0 -127 -113h-115z" />
<glyph unicode="&#x1ebb;" d="M72 362q0 125 49 274.5t121 246.5q76 102 197.5 161.5t254.5 59.5q166 0 278.5 -101.5t112.5 -248.5q0 -86 -28 -240l-4 -27h-791q-12 -49 -10 -94q0 -129 66.5 -197.5t189.5 -68.5q205 0 315 199h172q-47 -164 -188 -260.5t-328 -96.5q-182 0 -294.5 114.5t-112.5 278.5 zM299 635h602q4 49 4 59q0 115 -64.5 183.5t-172.5 68.5q-123 0 -226.5 -88t-142.5 -223zM547 1389q49 209 260 208q84 0 132 -34.5t48 -92.5q0 -92 -139 -176q-45 -27 -60.5 -41t-25.5 -36l-12 -48h-119l18 68q10 35 33 56.5t98 72.5q86 53 86 94t-78 41q-98 0 -126 -112 h-115z" />
<glyph unicode="&#x1ebc;" horiz-adv-x="1366" d="M82 0l317 1493h1037l-35 -168h-844l-102 -477h811l-37 -168h-809l-111 -512h879l-35 -168h-1071zM606 1630q39 113 88 162t125 49q14 0 132 -32.5t147 -32.5q31 0 50 15t48 60h109q-33 -100 -92.5 -159.5t-129.5 -59.5q-55 0 -211 54q-33 12 -55 12q-35 0 -53.5 -13.5 t-48.5 -54.5h-109z" />
</font>
</defs>
</svg>
