<?xml version="1.0" standalone="no"?>
<!DOCTYPE svg PUBLIC "-//W3C//DTD SVG 1.1//EN" "http://www.w3.org/Graphics/SVG/1.1/DTD/svg11.dtd" >
<svg xmlns="http://www.w3.org/2000/svg">
<metadata>
This is a custom SVG webfont generated by Font Squirrel.
Copyright   : Copyright c 2011 by Sergio Daz All rights reserved
Designer    : Alex Peattie
Foundry     : Sergio Daz
</metadata>
<defs>
<font id="webfontkw9J4lGf" horiz-adv-x="1705" >
<font-face units-per-em="2048" ascent="1536" descent="-512" />
<missing-glyph horiz-adv-x="1024" />
<glyph unicode=" "  horiz-adv-x="1024" />
<glyph unicode="&#x09;" horiz-adv-x="1024" />
<glyph unicode="&#xa0;" horiz-adv-x="1024" />
<glyph unicode="0" d="M1092 102q-18 -20 -39 -39q-139 -123 -332 -122q-195 0 -336 96q-147 96 -223 287l4 2q-4 10 -6 21t-2 22q0 66 51 112.5t123 46.5t123 -47t51 -112q0 -68 -53 -115q102 -113 260 -113q117 0 188 64q74 61 74 157q0 59 -39 113q-43 61 -96 96q-29 18 -75 40t-112 44 q-63 25 -111 46.5t-83 41.5q-68 37 -119 97q-49 55 -74 110q-23 57 -22 117q0 152 131 256q131 106 315 107q123 0 252 -50q104 -43 180 -118q59 -49 60 -121q0 -66 -51.5 -113t-122.5 -47q-72 0 -123 47t-51 113q0 33 16 65q-53 25 -141 25q-111 0 -181 -45 q-70 -51 -69 -121q0 -63 61 -113q55 -47 207 -106q72 -29 128 -55.5t97 -51.5q84 -53 133 -110q27 -31 46.5 -61.5t31.5 -65.5q2 -4 2 -8q-53 -43 -87 -104.5t-34 -133.5q0 -41 12.5 -80t35.5 -74zM1346 442q-84 0 -142.5 -54t-58.5 -132t58.5 -131t142.5 -53t142 53t58 131 t-58 132t-142 54z" />
<glyph unicode="1" d="M492 1104h-259l326 303v-244zM1411 1225q10 -16 31.5 -43t43 -95.5t37 -194.5t15.5 -343q0 -109 -13.5 -193t-36 -146.5t-51 -107.5t-57.5 -75q-68 -72 -155 -90h-174q-41 0 -83 10t-77 35.5t-57.5 69.5t-22.5 112t40 103.5t87 51.5q55 20 127 23v-117q-8 0 -16 2 q-8 0 -19.5 1t-21.5 1q-25 0 -42.5 -14t-17.5 -55q0 -23 8.5 -40.5t18.5 -29.5q12 -14 29 -27h167q29 0 46.5 13.5t25.5 29.5q8 18 12 44v137q0 55 -55 100t-156 45q-51 0 -92 24.5t-69 53.5q-35 35 -62 80q-2 -31 -2 -60v-108q0 -6 -13 -28.5t-51 -45t-109 -34t-183 4.5 q-63 8 -110.5 45t-80 89.5t-53 113t-32 118.5t-15.5 107.5t-4 77.5q0 43 13.5 74t29.5 53q18 23 43 41h305l68 64v211q0 18 1 38.5t12 36t39 25.5t83 10t94 -16t66 -37q29 -23 49 -51h194q27 0 66 -8t75.5 -22.5t65.5 -31t39 -32.5zM1100 707q10 0 45 -6l74 -11 q43 -8 96 -14q-25 35 -49 63q-23 23 -46.5 43.5t-45.5 20.5q-23 0 -37.5 -15.5t-22.5 -33.5q-8 -22 -14 -47z" />
<glyph unicode="2" d="M936 1315q43 47 108.5 77.5t124.5 34.5q8 -66 -16.5 -128t-65.5 -109t-105 -79t-132 -28q-10 66 17.5 127.5t68.5 104.5zM1393 123q-25 -35 -51.5 -66.5t-56.5 -57.5t-63.5 -42t-74.5 -16t-69.5 9t-56.5 20.5t-59.5 20.5t-76.5 9q-47 0 -79 -9t-60.5 -20.5t-57.5 -20.5 t-65 -11q-39 -2 -74 14t-65.5 44t-59.5 61.5t-53 68.5q-51 70 -93 163t-61.5 195.5t-9.5 204t63 187.5t140.5 135t189.5 51q39 0 76 -9.5t70 -21.5l64 -22q30 -10 52 -11q25 0 57.5 12.5t72.5 26t85 23.5t92 6q18 0 53 -6t76 -21.5t84 -44t78 -75.5q-4 -2 -30.5 -19.5 t-58.5 -52.5t-57.5 -88t-25.5 -123q0 -84 34 -142.5t73 -93t72 -50.5l34 -15q0 -2 -6 -21.5t-19.5 -48t-33.5 -66.5t-49 -77z" />
<glyph unicode="3" d="M313 1421q57 6 113.5 4t112.5 0q-57 -66 -100.5 -142.5t-51.5 -164.5q-8 -68 5.5 -133t43 -124.5t74.5 -112t100 -93.5q29 -16 27 -44.5t-2 -55.5q-8 -63 -17.5 -126.5t-13.5 -127.5q88 47 169 102.5t171 98.5q180 -33 365.5 -9.5t343.5 117.5v-295q4 -86 -46.5 -159.5 t-136.5 -108.5q-39 -18 -80.5 -23.5t-82.5 -3.5h-955q-59 0 -113.5 24t-95.5 61.5t-65.5 89t-24.5 106.5q-2 205 -1 408.5t1 408.5q-4 53 15.5 103.5t55.5 91.5t85 69.5t104 38.5zM731 1229q-41 -39 -65.5 -88t-24.5 -105q-4 -74 35 -140.5t100 -111.5q66 -47 144.5 -71.5 t160.5 -28.5t163 13.5t153 54.5q80 41 136 111.5t58 158.5q2 78 -41 145.5t-108 110.5q-74 51 -163 73.5t-181 18.5q-102 -2 -198.5 -36.5t-168.5 -104.5z" />
<glyph unicode="4" d="M715 1317q78 55 178 85t211 30q80 0 156.5 -15.5t142.5 -48.5q18 -6 28.5 -21.5t10.5 -31.5q0 -8 -4 -17q-6 -25 -35 -38q-16 -4 -27 -5q-16 0 -28 7q-41 20 -89.5 32.5t-97.5 16.5q-41 8 -82 11t-82 3q-193 0 -360 -76q33 35 78 68zM1520 358q0 29 -27 50q-20 10 -37 10 q-35 0 -53 -25q-49 -63 -107 -100l-37.5 -22.5l-37.5 -22.5q-23 -12 -41 -27q-29 -16 -29 -49v-80l-199 78q-10 6 -24 6h-4q-10 -2 -22 -2h-21q-82 0 -160 15.5t-145.5 44t-124 68.5t-95.5 91l-6 6l-2 2q-61 86 -61 181q0 86 47 159.5t127 128.5t186.5 87t229.5 32 q180 0 329 -71h4q76 -39 115 -89q43 -49 43 -108q0 -47 -27.5 -90t-78.5 -78q-57 -39 -130 -59.5t-155 -20.5q-43 0 -82 6q-57 8 -109.5 25.5t-99.5 42.5h-2q-90 49 -140 119.5t-50 150.5q0 6 1 12.5t1 12.5q-76 -51 -117 -117q23 -84 85 -156.5t159 -126.5l4 -2h2 q111 -59 248 -78h2q49 -6 98 -6q102 0 194.5 26t165.5 75q78 53 119 119.5t41 144.5q0 92 -60.5 172t-170.5 131l-4 2q-86 41 -183.5 60.5t-201.5 19.5q-141 0 -270.5 -38t-231.5 -110q-104 -76 -160.5 -172t-56.5 -204q0 -139 92 -256q2 -2 3 -4.5t5 -4.5v-2 q98 -121 263 -190.5t360 -69.5h32h2l275 -106q8 -4 24 -4q20 0 35 8q29 18 29 51v135l6 4q18 10 42 25l44 27q78 51 137 129q13 18 13 34zM999 618l-2 -10l2 10q43 -6 86 -6q117 0 215 37q23 35 23 72q0 33 -18 63q-45 -27 -101.5 -40t-118.5 -13h-33q-17 0 -34 4 q-115 16 -199 67.5t-123 123.5q-61 -14 -118 -41q47 -102 158 -174.5t263 -92.5zM1546 936q0 82 -53 152.5t-150 117.5l-4 2q-154 72 -340 72q-125 0 -238.5 -34t-203.5 -97q-29 -23 -54.5 -45.5t-45.5 -48.5q184 94 411 94q61 12 131 12q158 0 285 -61h4q86 -43 119 -111 q80 -68 115 -155q24 49 24 102z" />
<glyph unicode="5" d="M203 -41l708 1477h306l-707 -1477h-307zM1501 182q0 49 -19.5 92t-54 75t-81 50.5t-99.5 18.5t-99 -18.5t-80 -50.5t-54.5 -75t-20.5 -92t20.5 -91t54.5 -73.5t80 -50t99 -18.5t99.5 18.5t81 50t54 73.5t19.5 91z" />
<glyph unicode="6" d="M1653 362q0 -53 -21.5 -99t-58.5 -81t-87 -55.5t-108 -20.5h-45q-57 0 -107 20.5t-87 55.5t-58.5 81t-21.5 99v318q0 37 -26.5 63.5t-67.5 26.5h-371q-41 0 -69.5 -24.5t-28.5 -59.5t29.5 -62.5t70.5 -29.5l57 -2q55 -4 104.5 -24.5t85.5 -54.5t55.5 -78t16.5 -93 q-2 -49 -24.5 -91t-60 -75t-88 -51.5t-105.5 -18.5h-586v166h586q41 0 70.5 22.5t29.5 53.5q2 29 -25.5 52.5t-68.5 25.5l-57 2q-55 2 -104.5 24.5t-85.5 57.5t-57.5 80t-21.5 96t21.5 96t58.5 79t87.5 53.5t107.5 19.5h371q57 0 107 -20.5t87 -54.5t58.5 -81t21.5 -98v-318 q0 -39 27.5 -64.5t68.5 -25.5h45q41 0 69 26t28 64v1068h157q12 0 21 -3v-1065z" />
<glyph unicode="7" d="M1190 473q-8 0 -12 -3t-11 -7l-29 -35q-19 -23 -53 -53q-106 -100 -155 -101l-6 2q-18 4 -22.5 15.5t-4.5 25.5q0 18 5 35t9 33q41 115 96 222l105 218l57 117q29 57 52 117q20 51 20 92q2 39 -21.5 61.5t-58.5 30.5h-6q-8 0 -8 -9t-6 -36q-4 -18 -9.5 -35.5l-11.5 -36.5 q-29 -84 -68 -159l-81 -150l-17 -29v13q-10 41 -50 65.5t-87 24.5q-66 0 -118 -32t-99 -73q-57 -53 -101 -120.5t-67 -133.5q-20 -61 -31.5 -127.5t-1 -122t48 -91t113.5 -37.5q41 0 87 27.5t93 80.5l13 14v-12q-2 -39 21.5 -73.5t68.5 -34.5q53 0 115.5 44t154.5 140 q55 53 82 96l4 11.5t4 9.5q0 16 -14 16zM766 406q-23 -35 -52.5 -67t-51.5 -50q-27 -20 -52 -21q-29 0 -46 24.5t-15 65.5q4 100 50 198.5t120 180.5q23 23 48.5 45.5t61.5 22.5q61 0 62 -66q-4 -90 -39 -172.5t-86 -160.5zM702 1286l89 23q10 2 18 9t10 17l25 82q2 10 5 10 t7 -10l23 -82q8 -23 28 -26l88 -23q10 -2 10.5 -5t-10.5 -7l-88 -21q-23 -8 -28 -28l-23 -82q-4 -10 -7 -10t-5 10l-25 82q-2 10 -10 17t-18 11l-89 21q-10 4 -10 7t10 5zM449 696l-56 195q-8 25 -30.5 46t-49.5 28l-235 57q-27 6 -27 15.5t27 15.5l235 57q27 6 49.5 27.5 t30.5 46.5l62 219q6 25 16 24.5t16 -24.5l62 -219q6 -25 29.5 -46.5t50.5 -27.5l235 -57q27 -6 27 -15.5t-27 -15.5l-235 -57q-27 -6 -50.5 -28t-29.5 -46l-29 -100q-38 -44 -71 -95zM1499 637l139 -35q16 -4 16.5 -9t-16.5 -9l-139 -35q-16 -4 -29.5 -16.5t-17.5 -26.5 l-37 -131q-10 -31 -20 0l-35 131q-4 14 -17.5 26.5t-29.5 16.5l-139 35q-16 4 -16.5 9t16.5 9l139 35q16 4 29.5 16.5t17.5 26.5l35 131q10 31 20 0l37 -131q4 -14 17.5 -26.5t29.5 -16.5z" />
<glyph unicode="8" d="M328 -53v1132q0 98 -3 177t-8 157h162l13 -180h16l8 4q63 98 162.5 148.5t232.5 50.5q104 0 191.5 -39t151 -107.5t98 -165t34.5 -213.5q0 -145 -44 -249.5t-115.5 -173t-163.5 -101.5t-186 -33q-111 0 -202 42t-140 120l-3 4h-18l-4 -10v-563h-182zM510 799 q0 -53 10 -82q29 -104 118 -169t204 -65q82 0 147.5 30t111.5 85t71.5 132t25.5 173q0 88 -25.5 162t-71.5 126t-110.5 82t-142.5 30q-117 0 -206 -68t-118 -176q-14 -45 -14 -78v-182z" />
<glyph unicode="9" d="M1653 100h-1600l43 215q0 47 32 60l75 28l266 99q8 4 12 4v2v2l2 2q37 16 67 35.5t40 36.5q12 23 26 12l2 -2l13 33q6 16 10 32q6 10 10 -4l-4 23l-4 39l-12 12q-12 14 -16.5 42t-10.5 38q-8 10 -19.5 19.5t-25.5 50.5q-6 20 -12 43.5t-9 44t-3 34t8 13.5h8q-2 4 -3 7 t-3 11q-2 16 -9.5 38t-7.5 36q0 16 1 46t6.5 62.5t12.5 61.5t17 45q20 31 52 55.5t79 34.5q20 4 56 8t76 4t76 -2t54 -10q12 -4 27.5 -11t32.5 -18q27 -16 49.5 -34.5t36.5 -38.5q10 -16 16 -43t10.5 -56.5t5.5 -58.5t1 -45q-2 -25 -6.5 -54.5t-8.5 -45.5q8 8 19 8 q8 0 9 -13.5t-2 -34t-10 -43.5l-14 -44q-14 -41 -25.5 -51.5t-17.5 -18.5q-8 -10 -11 -38t-17 -42q-6 -6 -11 -12l-4 -47v-13q0 -2 2 0t4.5 3.5t2.5 -1.5q2 -4 9 -24.5t13 -34.5q2 -4 2 -7t6 1h2q8 2 21 -12v-2q2 -2 2 -5h2q10 -16 40 -34.5t64 -32.5q8 -4 15 -6l266 -99 l74 -28q31 -12 30 -60z" />
<glyph unicode="A" d="M1038 471q61 -29 124 -67.5t118 -87t99 -103.5t71 -115l-56 -41l-42 -32l-46 -36l-65 -50q-78 139 -174 218t-225 109q-37 -45 -87 -93t-115 -91t-143.5 -80t-172.5 -61q-23 41 -37 69l-27 53q-12 25 -22.5 49.5l-24.5 55.5q76 16 130 37.5t97 53.5t78 78t72 114 q0 13 -1 26q0 66 9 132q10 79 34.5 146.5t64.5 122t96 85.5q29 -8 64 -25l71 -33l63 -29q29 -13 43 -18q-4 -16 11.5 -32.5t62.5 -26.5q18 -4 47 -7.5t63.5 2t74.5 20.5t81 50q25 -35 46 -68l38 -61l35 -57q-61 -53 -133 -88q-61 -31 -143 -47q-34 -7 -71 -7q-50 0 -104 13 q0 -23 -1 -36zM1067 1004q-47 0 -88 16t-71.5 45t-49 67.5t-18.5 81.5t18.5 82t49 69t71.5 46t88 16t89 -16t74 -46t50 -69t18 -82t-18 -81.5t-50 -67.5t-74 -45t-89 -16z" />
<glyph unicode="B" d="M51 117l117 108v170l375 -346h-185l-116 -108zM147 954q135 0 262.5 -33.5t238 -94t201.5 -144.5t156.5 -187.5t101.5 -221t36 -244.5h-289q0 131 -52 252.5t-153 216.5q-100 92 -230 141t-272 49v266zM147 1430q207 0 398.5 -50.5t358.5 -142.5t305.5 -220t236.5 -283.5 t152.5 -334t54.5 -370.5h-287q0 156 -44 300t-124 269t-191.5 229.5t-246.5 178t-291 114.5t-322 41v269z" />
<glyph unicode="C" d="M727 457q0 -29 -21.5 -49.5t-52.5 -20.5t-52 20.5t-21 49.5t21.5 48t51.5 19q31 0 52.5 -19t21.5 -48zM1538 530q0 -74 -30.5 -139t-83 -114.5t-124 -78t-151.5 -28.5h-8q-51 -102 -154.5 -165.5t-232.5 -63.5q-88 0 -166 30.5t-135.5 85t-91 126t-33.5 153.5 q0 66 21.5 125t59 108t91 85t116.5 57q0 11 1 21q0 88 -16 161q-17 82 -48 140.5t-73 87.5q-37 26 -77 26h-12q-49 -4 -91 -5h-16q-32 0 -57 3q-31 4 -47 16q-13 10 -13 26q0 30 24 35q19 3 42 3t41.5 6t22.5 35t-1 50t-7 38.5t7 33t44 31.5q20 9 35 9q9 0 15 -3 q19 -8 29.5 -31.5t13.5 -58.5q2 -21 2 -42q0 -14 -1 -29q42 9 82 9q33 0 65 -6q71 -13 133 -46t117.5 -79t100.5 -94.5t77.5 -93.5l51.5 -73q47 10 88 10q80 0 151.5 -28.5t124 -78t83 -115t30.5 -139.5zM715 731h39q35 0 71 -6q66 92 176 137q-80 117 -154.5 187.5 t-140 106.5t-120.5 44q-37 5 -67 6q-15 0 -27 -2q72 -51 114.5 -121.5t66 -140.5t32 -128t10.5 -83zM1087 336q0 104 -64.5 184t-164.5 111v-2q-33 10 -76 14v2q-8 2 -28 2q-70 0 -130.5 -24.5t-106.5 -66.5t-72.5 -99.5t-26.5 -120.5q0 -66 26.5 -122t72.5 -98t106.5 -66.5 t130.5 -24.5q94 0 170.5 44t119.5 115h-2q20 31 31 66h2q12 39 12 86zM1462 530q0 59 -24.5 112.5t-67.5 92.5t-100.5 61.5t-120.5 22.5q-76 0 -139.5 -30.5t-106.5 -81.5q123 -43 200 -142.5t77 -228.5q0 -49 -13 -94q61 2 114.5 26.5t93.5 62.5t63.5 89t23.5 110z" />
<glyph unicode="D" d="M592 1280q150 25 273 26h17q114 0 210 -14q102 -14 184 -39.5t143 -56.5q145 -72 234 -180l-735 -199l-170 324q53 9 100 8h19q56 -2 108 -10l72 -125l249 61q-90 53 -196 88q-92 29 -213 40q-28 3 -58 3q-95 0 -198 -28l203 -383l-736 -199q-48 112 -47 217v25 q2 49 17.5 102t51.5 103.5t96 96.5t151 81l-95 178l230 24l78 -145q8 0 12 2zM543 885l-111 211q-78 -47 -108.5 -94.5t-36.5 -88.5q-3 -14 -3 -28q0 -32 13 -62z" />
<glyph unicode="E" d="M1503 918q15 -111 15 -212q0 -146 -31 -272q-23 -90 -67 -178t-118.5 -156.5t-184 -111.5t-263.5 -43q-30 -2 -60 -3q-128 0 -239 44q-59 23 -117.5 61.5t-108.5 100t-88 148.5t-57 206l127 -53q-22 83 -22 161q0 23 2 45q2 43 13 89.5t34.5 92.5t61.5 87t94 75 q20 29 34 66q12 31 19 70q3 17 2 34q0 23 -4 48l143 -70q57 37 105 82q41 39 74.5 90t37.5 111q82 -47 164 -132q72 -72 157 -193.5t163 -307.5q27 12 49 30q20 16 37.5 38t27.5 53zM831 63q20 -2 39 -1q76 0 142 26q35 14 70.5 36.5t65.5 59.5t53.5 89.5t33.5 123.5 l-76 -30q14 48 14 94q0 15 -2 31q-4 53 -30.5 108t-91.5 96q-12 18 -21 41q-8 18 -12 41t2 49l-86 -43q-37 23 -64 50q-25 23 -44 54.5t-23 67.5q-47 -29 -99 -79q-43 -43 -93 -117t-97 -185q-14 8 -29 19q-12 10 -24.5 22.5t-16.5 30.5q-9 -67 -9 -127q0 -88 20 -164 q12 -55 38.5 -107t71.5 -93t110.5 -67t157.5 -26z" />
<glyph unicode="F" d="M641 1143q0 14 4 60t35 96.5t100.5 90.5t200.5 40h246v-261h-180q-27 0 -49.5 -20.5t-22.5 -38.5v-172h252q-4 -49 -9 -95l-10 -81q-6 -41 -12 -76h-223v-743h-332v743h-162v252h162v205z" />
<glyph unicode="G" d="M1288 1202q-25 -4 -47 -10t-49 -10q19 -50 19 -104q0 -10 -1 -19q-4 -63 -29.5 -121.5t-68.5 -107t-100 -72.5q-31 -12 -68 -18.5t-69.5 -15.5t-55 -26.5t-24.5 -50.5t24.5 -56.5t68.5 -41t94 -31.5l100 -29q48 -14 88 -29.5t59 -35.5q31 -35 43 -84q10 -39 10 -81 q0 -10 -1 -21q-3 -53 -22.5 -104.5t-54.5 -86.5q-33 -33 -89 -56.5t-123.5 -35.5t-142.5 -13h-13q-68 0 -131 10q-70 11 -128.5 34.5t-95.5 60.5q-45 45 -59 115q-6 31 -7 62q0 38 10 75q17 68 67.5 120t134.5 60q-35 12 -55 52q-21 42 -20 95q0 45 14 85q15 43 48 59 q-86 51 -131 123t-53 149q-2 18 -2 37q0 59 21 116q27 75 86 131t149 85q60 19 132 19q36 0 75 -5q39 -4 86 -16t98 -19q28 -4 56 -4q24 0 50 3q54 6 107 36v-223zM711 958q20 -16 51 -24t63.5 -8t62.5 8t52 24q34 65 34 115q0 13 -2 25q-11 57 -52 86.5t-95 32.5h-7 q-49 0 -87 -26q-41 -28 -53 -86q-3 -13 -3 -26q1 -52 36 -121zM1036 258q-4 39 -29.5 62.5t-64.5 32.5q-29 7 -62 7q-11 0 -22 -1q-45 -3 -88 -13q-74 -18 -103 -46q-16 -15 -16 -41q0 -24 13 -56q10 -29 41.5 -46.5t74.5 -24.5q27 -5 57 -4q17 0 33 1q47 4 85 19.5t62 41.5 q20 23 20 56q0 6 -1 12z" />
<glyph unicode="H" d="M1296 1436h111q14 0 30.5 -16.5t30 -39t20.5 -47t1 -41.5q-4 -10 -19.5 -18l-33 -16.5t-35 -14.5t-23.5 -14q-12 -14 -16 -41t-5 -59q-1 -16 -1 -32.5t1 -33.5q1 -35 1 -64v-614v-31v-36q0 -17 2 -30.5t6 -17.5q8 -8 32.5 -6t37.5 -2q14 -4 29.5 -18.5t24.5 -32.5 q12 -23 11 -45q0 -17 -10 -33q-6 -10 -29.5 -17t-44.5 -18q-47 -20 -122 -39q-61 -15 -119 -15q-13 0 -25 1q-18 2 -42 14.5t-43 31t-31.5 40t-8.5 41.5q2 16 15.5 25.5t35.5 19.5q14 4 40 5t38 11q8 8 9 24.5t0 37t-4 42t-3 38.5q0 20 1 36.5t-1 41.5q0 18 1 42.5t-3 30.5 q-6 6 -27.5 7.5t-48 0t-50 -4.5t-34.5 -3l-81 -11q-36 -5 -68.5 -11t-65 -13.5t-69.5 -19.5l-64 -16.5t-55 -30.5q-8 -12 -9 -33.5t0 -47.5t4 -51l5 -42q2 -16 -2 -41t4 -35q6 -6 17.5 -9t23.5 -3h23q11 0 18 -2q23 -8 49 -37q23 -25 23 -54q0 -35 -39 -58 q-35 -19 -83 -32.5t-99.5 -20.5t-88.5 -9q-29 -2 -43 -2t-35 4q-33 10 -64 43q-28 29 -28 56q0 30 32 46l54 25q10 4 22.5 5t16.5 7q10 10 7 47t-7 66q-10 84 -13 178t-5 180q0 51 -2 95l-4 87q-2 43 -3 88.5t-1 98.5v33v35q0 17 -1.5 30.5t-5.5 18.5q-10 10 -33.5 12 t-39.5 10q-31 10 -48.5 30.5t-33.5 55.5v27q27 47 86 64.5t131 29.5q49 8 97 15q34 5 63 5q13 0 25 -1q40 -3 71 -20.5t45 -55.5q6 -16 8 -38t-8 -38q-8 -12 -27.5 -19.5t-40 -11.5t-39 -9t-26.5 -18q-6 -10 -6 -38v-58q0 -43 -2 -82l-5 -76q-2 -37 -3 -75v-16q0 -32 3 -68 q0 -6 1.5 -18.5t3.5 -25t6 -22.5t8 -12q16 -8 37.5 -1t34.5 9l87 19q40 8 79.5 15t81.5 12l96 11q12 2 33 4l43 2q22 1 40.5 4t24.5 9q10 8 13 22.5t2 29.5t-4 32l-5 26q-8 68 -8 122.5t8 119.5q2 12 4 28.5t3 34t-1 31t-8 19.5q-10 10 -35.5 12t-36.5 6q-18 6 -36.5 18.5 t-33 30t-19.5 39t1 45.5q4 12 21.5 22.5t34.5 18.5q55 27 117 36.5t128 21.5z" />
<glyph unicode="I" d="M1622 614q27 -45 31 -91q1 -10 1 -20q0 -36 -12 -73q-33 -100 -124 -145q-52 -27 -111 -27q-43 0 -90 14q-39 8 -74 31q7 -39 7 -75.5t-7 -69.5q-23 -70 -82 -101q-36 -22 -79 -22q-26 0 -54 8q-35 8 -65.5 28.5t-65.5 55.5l-2 -12q-33 -100 -127 -146q-49 -23 -100 -25 q-10 -1 -21 -1q-41 0 -84 10q-66 16 -102 47l-28 32q-13 15 -25 31q-31 55 -32 113q0 37 13 74l12 29l41 61q-43 -12 -83 -13h-8q-35 0 -70 7q-20 2 -38 10t-32 18q-14 8 -23 19l-18 22q-22 35 -22 73q0 19 6 38q10 25 24.5 47.5t38.5 42.5l35 27l-16 4q-61 8 -105 45 q-14 10 -28.5 24.5t-24.5 30.5q-26 45 -26 91q0 38 18 77q39 88 135 137q66 31 135 31q31 0 63 -6l56 -16l-17 20q-40 67 -39 133q0 23 5 45q18 88 88 129q41 19 87 19q23 0 48 -4q86 -23 141 -99l25 -39l10 -14l6 14v4q0 47 40 84t87 60q61 29 126 29q36 0 73 -9 q104 -25 153 -100l8 -10q36 -56 36 -117q0 -37 -13 -76l-27 -53l76 14q27 2 53.5 1t51.5 -5q45 -10 81.5 -30.5t36.5 -53.5v-4q0 -29 14 -57q8 -16 7 -35q0 -14 -4 -29q-39 -88 -142 -133q18 -8 39 -16t37 -19q20 -14 35 -31l29 -36zM1057 788l-10 -10l4 -6l6 -16l282 32 q20 4 40 7.5t36 11.5q84 33 109 90l4 21l-10 28q-18 39 -80 45l-27 2q-49 0 -94 -18l-29 -10zM895 1208l2 -84l23 -237q18 -8 34.5 -16.5t32.5 -20.5l207 231q10 14 18 31l17 33l6 45q0 43 -18 74q-31 53 -103 69q-27 8 -53 8q-40 0 -78 -18q-31 -16 -53.5 -39.5 t-32.5 -54.5zM504 1223q-4 -29 3 -55.5t21 -55.5l13 -22l204 -203l35 10l-47 248q-4 18 -10 34.5t-16 32.5q-39 74 -105 91q-15 7 -27 6q-14 0 -24 -9q-43 -22 -47 -77zM166 778q27 -47 88 -55l22 -4l332 37q8 33 37 63l-203 135l-63 23q-21 5 -41 4q-44 0 -86 -20 q-35 -12 -56.5 -36t-33.5 -53q-10 -23 -11 -45q1 -26 15 -49zM813 242q0 61 -11 118.5t-16 110.5q-20 2 -39.5 8t-35.5 15l-193 -209q-29 -25 -35 -60l-10 -47q0 -37 21 -72q29 -53 98 -69q23 -6 45 -6q42 0 84 20q31 12 52.5 35t33.5 51l6 21v84zM729 578q45 -41 109 -41 q59 0 106 41q45 39 45 98q0 55 -45 100q-43 37 -106 37q-61 0 -109 -37q-23 -23 -34 -47t-11 -53q0 -57 45 -98zM1155 211q1 8 1 17q0 45 -28 91l-12 21l-59 68l-96 90l-31 -15l-39 -12l35 -182l26 -70q41 -78 105 -92q10 -1 18 -1h9q13 1 26 9q39 15 45 76zM1559 498 q0 55 -35 90q-14 25 -37 39t-49 22l-23 2l-92 -2l-260 -20l-6 -25l-17 -33l242 -182q25 -25 61 -33q28 -9 55 -9q39 0 75 20q63 27 77 90z" />
<glyph unicode="J" d="M1290 1434q76 -20 136.5 -58.5t95.5 -107.5q34 -60 34 -130q0 -9 -1 -19q-5 -81 -42.5 -167t-102 -175t-142.5 -173q-76 -84 -143.5 -171t-121 -173t-91.5 -167t-54 -148q-4 6 -11 24l-16 40l-15 40l-9 23q-16 37 -31.5 65.5t-38.5 64.5l-56 86l-89 130 q-23 33 -52.5 71.5t-64.5 79.5l-71 84l-68 84q-33 41 -55.5 77t-42.5 63q-63 90 -78 172q-8 44 -8 77q0 28 6 48q8 59 31.5 103t55 74.5t69.5 48t77 25.5q49 6 86 6.5t66.5 -4t54.5 -11.5t47 -17q37 -18 65.5 -42t52 -52.5t45.5 -64.5l48 -79q37 80 83 141.5t112 92.5 q51 23 102 31q42 8 107 8h30z" />
<glyph unicode="K" d="M1219 936q-55 0 -104.5 19.5t-85.5 53t-57.5 80t-21.5 97.5t21.5 96t57.5 79t85 53.5t105 19.5q55 0 103 -19.5t85 -53.5t57.5 -79t20.5 -96t-20.5 -97.5t-57.5 -80t-85 -53t-103 -19.5zM999 698q0 51 -21.5 96.5t-57 79t-85 53t-104.5 19.5t-103 -19.5t-85 -53 t-57.5 -78.5t-20.5 -97v-16v-430h534v430h-2q2 4 2 16zM731 979q82 0 139.5 53t57.5 129t-57.5 129t-139.5 53t-138 -53t-56 -129t56 -129t138 -53zM1583 553q0 70 -28.5 132.5t-78 107.5t-116 71.5t-141.5 26.5q-76 0 -142.5 -26.5t-116 -71.5t-78 -107.5t-28.5 -132.5v-23 v-585h729v585h-2q2 9 2 23zM342 973q-45 0 -85 -15.5t-69.5 -43t-47 -64.5t-17.5 -80q0 -4 1 -7t1 -7h-2v-350h438v350v14q0 43 -17.5 80t-47 64.5t-69.5 43t-85 15.5zM342 999q68 0 115 44t47 106q0 61 -47 105t-115 44q-66 0 -113 -44t-47 -105t47 -105.5t113 -44.5z" />
<glyph unicode="L" d="M1333 541q-125 0 -197.5 55t-119.5 156l-17 36l-153 326q-37 86 -124 139.5t-194 53.5q-72 0 -134 -26t-109 -70t-75 -102t-28 -126t28 -127t75 -103t109.5 -70t133.5 -26q102 0 183.5 48.5t124.5 125.5l63 -133q-66 -74 -162 -117.5t-209 -43.5q-98 0 -185 34.5 t-151.5 95t-102.5 142.5t-38 174t38 173t102.5 142.5t151.5 96.5t185 35q150 0 265.5 -72t177.5 -205q2 -6 17 -38l37 -80l48 -106l53 -114q16 -35 33 -63.5t38.5 -49t52 -32t75.5 -13.5h15q80 0 129 40q54 44 55 108q0 31 -11.5 51.5t-33 34.5t-51 25.5t-68.5 23.5 q-141 43 -213 97.5t-72 156.5t68.5 163.5t189.5 61.5q154 0 232 -129l-103 -49q-29 39 -61.5 54.5t-73.5 15.5q-55 0 -91 -32t-36 -81q0 -35 15.5 -56.5t44 -35.5t66.5 -26l85 -25q61 -18 107.5 -40t76 -51.5t44 -68.5t14.5 -92q0 -57 -24.5 -105.5t-67.5 -83t-101.5 -54 t-126.5 -19.5z" />
<glyph unicode="M" d="M784 963q-12 0 -16 4q2 16 6 27.5t10 21.5l4.5 9t4.5 11l2 8l2 -8q4 -16 3 -37.5t-7 -35.5h-9zM1452 1085l-2 -2q-35 -29 -50.5 -75.5t-23.5 -92.5q29 8 51.5 30t32.5 48q6 16 8 40t-14 50zM616 977q2 0 4.5 -1t6.5 -1l6 2q6 25 -4 59q-23 -25 -25 -55l-2 -2h8q4 0 6 -2z M1655 590q0 -23 -17.5 -38t-40.5 -15h-1488q-25 0 -41.5 15t-16.5 38v786q0 23 16.5 38.5t41.5 15.5h1488q23 0 40.5 -15.5t17.5 -38.5v-786zM532 879q-12 31 -20 64.5t-14 68.5q-10 43 -21.5 85t-27.5 77q-2 0 -4.5 -1.5t-4.5 -1.5q-6 0 -11 -1t-9 -1q-6 2 -11.5 -2 t-11.5 -4h-2q-2 0 -2 4t-2 4q-27 -35 -39 -76.5t-24 -88.5q-6 10 -12.5 22l-12.5 23q-10 20 -22.5 40.5t-24.5 36.5h-12q-16 0 -28.5 -2t-25.5 -6l-2 -41q-1 -27 -1 -51.5t1 -47.5q2 -46 17 -89q4 -2 10 -2q16 0 30.5 5t22.5 9q0 14 -1 25.5t-3 21.5q-4 12 2 27 q10 -12 18.5 -25.5t18.5 -25.5q4 -10 10 -17.5t11 -15.5h10q16 0 24 2q6 0 12.5 1t14.5 1l4 -2q10 16 11 38.5t1 47.5q0 20 2.5 40.5t12.5 37.5q12 -47 26.5 -94t34.5 -95q20 4 31 9q12 4 18 4q2 0 6 -4zM717 866q-6 12 -23 13q-6 0 -12 -1t-14 -4q-16 -4 -27 -4h-6 q-14 2 -25 17q-9 13 -9 33q0 15 5 34q12 -4 27 -4h31h4q4 0 7 -1t7 -1q6 21 6 46q0 9 -1 19q-3 36 -9 58l-19 6q-12 6 -30 6h-8q-31 -4 -50.5 -36.5t-23.5 -71.5q-1 -10 -1 -20q0 -25 7 -51q10 -36 45 -48q10 -4 37 -4q23 0 44.5 4t37.5 10zM879 877q-2 8 -21 16 q-12 -20 -41 -21q-31 0 -47 23q-16 20 -4 47q10 -2 21.5 -3t21.5 -1q8 0 15 1t14 1q-2 23 0 40t6 34q4 14 5 29.5t3 31.5q-25 18 -61 23q-80 -59 -78 -180q6 -29 37.5 -44.5t66.5 -15.5q39 1 62 19zM1069 991q-12 6 -18 17q-10 10 -18.5 16t-20.5 10q-4 0 -4 -10q0 -4 -1 -9 t-10 -5h-6v2q2 20 1 41.5t-3 46.5q-4 35 -4 68.5t6 62.5q-8 10 -21.5 15t-37.5 5h-2q-2 0 -3 3t-3 6q-10 -29 -10 -61v-16q3 -40 10 -83q4 -25 6 -47.5t-2 -44.5h-21q-6 2 -16 2q-12 0 -19 -6q-4 -8 -4 -19q10 -6 25.5 -7t32.5 -1l12 -4q2 -12 2 -24.5t2 -26.5q2 -18 3 -37 t1 -39h17q6 0 13 1t15 1q0 16 -1 29.5t-1 27.5q-1 17 -1 35.5t1 38.5q8 2 15.5 3t17.5 1q33 0 47 8zM1266 1020l-22 17q-11 9 -25 10h-5q-2 0 -3 -2.5t-3 -0.5v-18q0 -18 -2 -39.5t-7 -40t-15 -34t-31 -21.5q-6 45 -6 92q-2 12 -2 23v18q-8 4 -15 6q-20 14 -43 17 q-3 -31 -2 -58q0 -83 29 -112q16 -16 41 -17q20 0 39 8l4 6l14 18q6 7 17 15q2 8 10 17q12 20 21.5 41.5t5.5 54.5zM1516 1104q-41 23 -76 22q-39 0 -74 -34q-16 -18 -25.5 -43t-15.5 -51.5t-10 -52t-6 -44.5q-4 0 -6 -2l-19 -6q16 -18 21.5 -46t9.5 -56q4 -23 6 -44.5 t10 -37.5q4 0 9.5 -1t13.5 -1h14q16 0 23 -2q-18 40 -18 113q0 20 1 42q47 10 85 38t59 67q12 25 16 60q1 6 1 11q0 32 -19 68z" />
<glyph unicode="N" d="M907 156l142 94q-2 4 -2 12q0 43 33.5 74t80.5 31t80 -31t33 -74q0 -45 -33 -75.5t-80 -30.5q-35 0 -61 16l-193 -129v-102h-4h-96h-10v313l-195 131q-29 -14 -57 -14q-47 0 -80 31.5t-33 74.5t33 74t80 31t80.5 -31t33.5 -74q0 -4 -1 -9t-1 -9l140 -94v313l-195 133 q-23 -14 -57 -14q-47 0 -80 30.5t-33 73.5q0 45 33 76t80 31t80.5 -31t33.5 -76q0 -4 -1 -8t-1 -8l140 -97v295l-197 134q-29 -14 -55 -15q-47 0 -80 31t-33 76q0 43 33 73.5t80 30.5t80.5 -30.5t33.5 -73.5q0 -4 -1 -10.5t-1 -10.5l140 -94v236h110v-447l142 94q-2 6 -2 17 q0 43 33.5 73.5t80.5 30.5t80 -30.5t33 -73.5q0 -45 -33 -76t-80 -31q-33 0 -59 17l-195 -132v-292l142 94q-2 4 -2 12q0 45 33.5 76t80.5 31t80 -31t33 -76q0 -43 -33 -73.5t-80 -30.5q-33 0 -61 16l-193 -131v-311z" />
<glyph unicode="O" d="M1653 999v-274h-451l137 80q-82 35 -160.5 57.5t-150.5 34.5v-674l-244 -145q-295 49 -461.5 137t-229.5 193q-42 71 -42 143q0 35 9 70q30 109 128.5 200.5t253 155t342.5 78.5v235l244 146v-387q115 -14 232.5 -49t236.5 -99zM784 907q-141 -10 -246.5 -59t-166 -117.5 t-72.5 -148.5q-3 -17 -3 -33q0 -62 38 -119q47 -72 157.5 -128t292.5 -79v684z" />
<glyph unicode="P" d="M1083 1438q76 0 155 -27t136.5 -82t82.5 -140q13 -42 13 -91q0 -51 -14 -111q-25 -102 -78 -183t-130 -137.5t-171 -86t-200 -29.5h-293l-101 -438h-411l309 1325h702zM842 1077h202q6 0 12.5 -1t14.5 -3q-14 41 -50 67.5t-89 26.5h-201l-88 -362h133zM1071 987q2 6 2 17 h-182l-47 -199q39 2 75.5 16.5t67.5 39t52.5 57t31.5 69.5zM1569 895q12 57 12 105q0 18 -2 35q-6 62 -29 114q49 -55 71 -136q10 -38 10 -82q0 -50 -13 -108q-25 -102 -78 -183t-130 -137.5t-172 -86t-200 -29.5h-295l-100 -438h-412l19 71h344l102 441h293 q104 0 199.5 29.5t172.5 85t130 136.5t78 183z" />
<glyph unicode="Q" d="M1214 -59q-70 0 -111.5 21.5t-63 57t-26.5 81.5q-3 23 -3 47.5t3 49.5q5 50 15 100t21 93q-39 -23 -76 -53.5t-86 -50.5q-70 -29 -142 -35q-42 -3 -81 -3q-109 0 -198 24q-122 34 -205 101.5t-124 164.5q-36 84 -35 178v28q8 141 66.5 249t150.5 194q61 57 137 104 t171.5 80t210.5 47q73 9 154 9q46 0 95 -3q123 -8 223.5 -43.5t168 -100t100.5 -159.5q25 -72 25 -160q0 -28 -2 -57q-10 -123 -38 -241.5t-51 -239.5l-38.5 -234.5l-40.5 -248.5h-211h-9zM989 602q51 35 89 103.5t51 145.5q6 34 6 67q0 40 -9 78q-16 69 -71 104 q-31 20 -86 28q-37 5 -66 6q-14 0 -26 -1q-47 -4 -81 -17.5t-61 -32.5q-47 -33 -86 -100.5t-54 -141.5q-8 -37 -8 -73.5t8 -71.5q15 -70 81 -106q37 -20 81 -28q28 -5 55 -4q16 0 32 1q43 4 81.5 15.5t63.5 27.5z" />
<glyph unicode="R" d="M1196 745q6 -16 6 -30q0 -31 -18 -56q-25 -27 -51 -32h-3q-16 -6 -28 -6q-37 0 -66 22q-29 18 -35 53v2q-2 6 -2 17q0 31 19 53q18 25 47 35q18 6 35 6q31 0 59 -16q29 -19 37 -48zM1133 506q-16 8 -27 8q-12 0 -25 -6q-109 -61 -237 -62q-96 0 -178 37q-12 4 -29 19 q-4 2 -9 4l-10 4q-12 4 -18 4t-18 -4h-2q-12 -4 -23 -18q-6 -10 -6 -25q0 -12 6 -25q6 -10 18 -16q115 -72 252 -72h15q66 0 128 12.5t120 39.5q8 4 17 8t19 10q10 4 17 12q10 10 12 21q2 4 2 10t-4 18q-6 15 -20 21zM573 627q14 -6 31 -6q39 0 70 26q33 27 33 66v2v4 q0 37 -31 63q-33 27 -72 27q-12 0 -20 -2q-27 -4 -47.5 -21.5t-28.5 -42.5q-4 -6 -4 -13v-13q0 -33 18 -58q20 -24 51 -32zM1653 860v-10q0 -55 -33 -100q-31 -43 -78 -66q2 -10 3 -21.5t1 -23.5q0 -119 -80 -215q-70 -86 -170 -138.5t-209 -78.5q-59 -12 -117.5 -19.5 t-117.5 -7.5q-90 0 -177 15.5t-169 46.5q-86 33 -163 85t-128 130q-27 41 -41 88t-14 94q0 10 1 21.5t3 21.5q-49 27 -76 66q-35 47 -37 98q0 37 16.5 70.5t43.5 60.5q29 27 63.5 42t75.5 15h2h16q41 0 78 -12q35 -12 64 -33q4 2 9 4t11 4q86 47 184.5 68.5t196.5 28.5 q0 45 8 91t33 87q20 35 52 59.5t73 34.5h2q31 6 61 6q80 0 162 -33q33 49 92 72h2q37 10 70 10q41 0 72 -14h2q49 -18 82 -61q33 -45 32 -97q0 -12 -2 -18q-4 -35 -20 -62.5t-41 -48.5q-55 -45 -125 -45h-23q-70 6 -118 55q-23 23 -37 51.5t-14 63.5v6q-33 12 -66 21.5 t-68 9.5h-18q-57 -6 -80 -51q-18 -31 -23.5 -67t-5.5 -72q98 -6 192.5 -29t180.5 -68l2 -2q4 0 8 -4q16 12 27 17q51 33 117 32q25 0 53 -6h2q61 -16 107 -63q45 -46 51 -109zM1274 1251v-4q0 -33 26 -55q27 -23 60 -23h6q33 0 59 23q25 23 29 55v4q0 35 -29 58 q-25 25 -61 24q-14 0 -23 -2q-29 -6 -47 -28q-20 -21 -20 -52zM322 932q-14 4 -26.5 8t-27.5 4h-8h-2q-37 -4 -70 -29q-29 -27 -32 -63v-6q0 -25 14 -41q10 -18 23 -27q23 45 55.5 83t73.5 71zM1444 637q0 41 -14.5 79t-38.5 72q-51 66 -125 109t-156 66l-32 8l-31 8 q-47 10 -96.5 15t-96.5 5q-135 0 -258 -36q-82 -23 -155.5 -67t-125.5 -110q-53 -66 -53 -151q0 -33 8 -57q18 -63 66 -117q47 -47 108 -86l15 -7l14 -8q86 -45 183.5 -65.5t197.5 -20.5h34q17 0 34 2q100 8 196 37t178 84q55 39 90 86q41 51 54 109q4 10 4 21v24zM1550 850 q0 18 -10 39q-14 25 -43 41q-29 14 -59 14q-29 0 -54 -12q41 -33 74 -71t55 -85q14 12 25 29q12 20 12 45z" />
<glyph unicode="S" d="M1534 1184q0 -57 -44 -97t-106 -40q-61 0 -104 39.5t-43 97.5q0 57 43 97t104 40t105.5 -40t44.5 -97zM1475 952l-181 -141q2 -10 3 -18.5t1 -16.5q0 -47 -18 -87t-51 -68.5t-76 -46t-92 -17.5q-86 0 -149.5 48t-80.5 122l-444 139q-55 -39 -127 -39q-43 0 -81 15.5 t-66.5 41t-45 60.5t-16.5 76q0 39 16.5 74.5t45 62.5t66.5 42t81 15q76 0 132.5 -43t72.5 -108l428 -133q31 29 73 46t91 17l63 183v10q0 51 20.5 96t57.5 79t85 53.5t103 19.5t103.5 -19.5t85.5 -53.5t57.5 -79t20.5 -96q0 -82 -50 -145.5t-128 -88.5zM391 1085 q-18 33 -52 52.5t-75 19.5q-59 0 -102 -40t-43 -97q0 -55 43 -95t102 -40q20 0 43 6l-69 22q-41 20 -56 63q-6 16 -5 32q0 25 13 49q23 41 69 53q17 5 34 5q28 0 53 -13zM1178 1186q0 -41 16 -76t45 -60.5t66.5 -41t80.5 -15.5t80 15.5t66 41t45 60.5t16 76q0 39 -16 73.5 t-45 60.5t-65.5 41t-80.5 15q-43 0 -80.5 -15t-66.5 -41t-45 -60.5t-16 -73.5zM1182 756q0 61 -46 104t-112 43q-14 0 -35 -4l88 -29q41 -20 56 -62q6 -16 5 -32q0 -25 -14 -49q-23 -39 -68 -52q-17 -5 -34 -5q-28 0 -53 14l-97 29q16 -45 57.5 -74t94.5 -29q66 0 112 43.5 t46 102.5z" />
<glyph unicode="T" d="M993 217q57 -29 123 -29q123 0 244 74v-235q-51 -23 -98.5 -38.5t-87.5 -25.5q-84 -18 -183 -18q-55 0 -93 7t-81 19q-84 25 -145 74q-59 47 -82 100q-25 55 -25 158v520h-219v211q47 16 97.5 36t84.5 46q35 29 61.5 59.5t47.5 69.5q41 72 57 189h230v-344h374v-267h-374 v-381q0 -66 1 -103.5t7 -55.5q18 -41 61 -66z" />
<glyph unicode="U" d="M954 717l193 -529h-653v166l-443 -123v476l443 -113v123h-11q-80 0 -148.5 28.5t-120.5 76.5t-82 112.5t-30 138.5t31 138.5t83 113.5t123 77t150 28q72 0 137.5 -24t116 -65t84 -97t43.5 -120h13q10 63 44 119.5t85 97.5t115.5 65t138.5 24q80 0 150.5 -28t122.5 -77 t83 -113.5t31 -138.5t-31 -138.5t-83 -113.5t-122.5 -76.5t-150.5 -27.5h-312zM489 973q45 0 77 29.5t32 70.5t-31.5 71t-77.5 30q-47 0 -78.5 -30t-31.5 -71t31.5 -70.5t78.5 -29.5zM1165 1073q0 -41 31 -70.5t78 -29.5q45 0 76.5 29.5t31.5 70.5t-31.5 71t-76.5 30 q-47 0 -78 -30t-31 -71z" />
<glyph unicode="V" d="M799 516h-350l-398 909h340l236 -594l233 594h328zM1653 1268q0 66 -48.5 109.5t-117.5 43.5q-68 0 -117 -44t-49 -109q0 -63 49 -108.5t117 -45.5q70 0 118 45.5t48 108.5z" />
<glyph unicode="W" d="M1655 1427v-28q0 -12 -13 -13q-61 -2 -96 -28q-31 -25 -47 -72l-147 -342l-62 -141l-59 -137l-53 -123l-41 -97q-25 -48 -50 -48h-3q-26 3 -48 51l-36 76l-45 100l-48 108l-47 105l-49 -105l-53 -108l-49 -100l-39 -76q-29 -52 -53 -53h-3q-25 3 -47 50l-85 196l-103 227 l-104 227l-85 194q-27 66 -40 78q-18 16 -76 18q-23 0 -23 11v30l10 3h207h162l14 -3v-28q0 -6 -9 -9.5t-17 -3.5l-49 -2q-47 -4 -47 -28q0 -18 10 -41q12 -35 34 -83l47 -106l53 -118l54 -119l133 -291l9 -2l161 328l-14 28q-6 12 -10 23q-6 10 -8 20l-111 222 q-4 14 -10 24q-4 10 -9.5 19.5t-7.5 15.5l-28 58q-10 22 -19.5 32t-20 14t-28.5 6t-18 11v30v5h280l2 -5v-30q0 -10 -10 -11l-14 -2q-41 -4 -39 -24.5t28 -73.5l107 -221l117 240q16 33 15 44t-7 19q-4 4 -16.5 10t-38.5 6l-13 2l-8 5q-2 2 -2 8v28l2 5h266l2 -5v-28 q0 -12 -12 -13q-33 -2 -44 -7t-24 -23q-6 -10 -18 -28.5t-25 -41.5l-153 -291v-2q0 -4 -4 -8l186 -387l12 -4l291 711q6 19 7 33q0 18 -11 28q-10 8 -21.5 13t-35.5 5l-31 2q-10 0 -14 5q-4 2 -9.5 3t-5.5 5v28l25 7h330z" />
<glyph unicode="X" d="M1036 -55l-358 583l555 906h375l-555 -906l358 -583h-375zM449 395l278 426l-209 340h-352l207 -340l-277 -426h353z" />
<glyph unicode="Y" d="M1341 1212q-10 -2 -43 -23l-77 -53l-96 -70q-50 -38 -93 -74t-73.5 -65.5t-36.5 -45.5q-2 -8 -2 -46t1 -83t2 -85t3 -53q8 -2 41 -2h69q37 0 70 -1t45 -3l-2 -65q-12 0 -54 1t-98 1h-114h-107q-23 0 -67.5 -1t-95 -2t-95.5 -1h-67l12 61h42q30 0 61.5 1t60 6t41.5 18 q6 6 8 40.5t2 77.5t-1 82t-3 52q-4 8 -30 41.5l-64 80.5l-85 101l-92 101l-81 86q-37 38 -58 52h-213v93h715v-7h2l-2 -16v-70h-215l79 -101l82 -101l73 -91l57 -71l288 244h-172l-22 90h625l-5 -6h3l-46 -60h-2l-16 -24h-117q-10 -4 -19.5 -5.5t-17.5 -3.5zM1546 637l-55 2 l-61 6v-98l49 -4l51 -2zM1653 1106q-6 0 -37 2t-67 5t-66.5 6t-38.5 5l2 -413l96 -9z" />
<glyph unicode="Z" d="M1653 1139v-451h-92v-479v-100h-699h-106v555h-303v-175h79v-102h107v-281h-107h-266h-108v281h108v-178h266v178h-266v102h78v175h-188v102h-105v377h105v-375h485v375h111h96v188v99h487h4h109v-291h94h111zM1335 1331h-381v-368h381v368zM1210 209h242v557h90v272h-94 v-178h-109h-4h-381h-106v178h-96v-270h112v-102v-2v-455h250v280h96v-280zM532 1143v98h109v-98h-109zM532 1241h-266v102h266v-102zM266 1143h-110v98h110v-98z" />
<glyph unicode="a" d="M999 1087q0 29 -1 60t-19 55q-16 23 -42 33t-52 10h-13q-45 -4 -81.5 -27.5t-47.5 -70.5q-2 -10 -9 -18.5t-19 -12.5l-168 21q-10 2 -19.5 9t-5.5 23q14 66 49 111t83 73.5t104.5 42t113.5 17.5h35q63 0 135 -17.5t125 -62.5q31 -27 46.5 -58.5t21.5 -66t6 -72.5v-77 v-250q0 -57 20.5 -88t45.5 -59q8 -10 8 -21.5t-10 -19.5q-25 -23 -65 -53.5t-66 -53.5q-18 -12 -44 -2q-41 35 -57 54l-41 50q-41 -41 -80 -65.5t-80 -36.5q-55 -12 -122 -12q-109 0 -182.5 61.5t-73.5 184.5q0 98 50 163.5t134 98.5q43 18 92 27.5t102 15.5q35 4 67 6t60 6 v22zM999 936q-33 0 -65.5 -2t-61.5 -8q-53 -16 -91 -50t-38 -100q0 -53 28 -85t77 -32q8 0 14 1.5t10 1.5q63 14 95 71q29 43 30.5 83t1.5 87v33zM1548 125q-10 -10 -18 -6t-4 16l19 46q11 28 20.5 55.5t12.5 50t-5 32.5q-12 16 -54 18h-17q-34 0 -68 -3q-18 -4 -35 -4 t-31 -4q-12 0 -14 7t10 15q31 20 70 33q35 8 70 11q22 2 41 2q13 0 26 -1q31 -2 51 -7t27 -11q2 -4 4 -10.5t2 -16.5v-8q0 -20 -7.5 -49t-19.5 -58.5t-32.5 -58.5t-47.5 -49zM61 340q-9 7 -9 13q0 4 3 7q5 6 12 6q6 0 13 -4q168 -92 370.5 -144t419.5 -52q137 0 279.5 24.5 t284.5 75.5q10 4 20 7t21 8q10 4 20 2t14 -9q3 -5 4 -11q0 -12 -12 -19q-16 -12 -33.5 -21.5t-33.5 -19.5q-129 -72 -283 -109t-299 -37q-231 0 -432 75t-359 208z" />
<glyph unicode="b" d="M559 -55q-104 0 -197.5 36.5t-162 100t-108.5 149.5t-40 183v549q0 96 40 182t108.5 150.5t162 101.5t197.5 37h354q49 -6 106.5 -28t112 -55.5t100.5 -77.5t73 -95l14 -26q6 -11 11 -26.5t10.5 -40t11.5 -67.5q6 -45 12 -78t29 -51q14 -12 47 -15.5t67.5 -4.5t64.5 -2 t40 -9l22 -16l15 -27l4 -20l-4 -381q0 -96 -40 -182.5t-108.5 -150t-162 -100t-197.5 -36.5h-582zM565 1049q-41 0 -69.5 -27t-28.5 -64t28.5 -63.5t69.5 -26.5h281q41 0 69.5 27t28.5 63q0 37 -28.5 64t-69.5 27h-281zM467 422q0 -37 28.5 -63.5t69.5 -26.5h572 q41 0 68.5 26.5t27.5 63.5t-27.5 62.5t-68.5 25.5h-572q-41 0 -69.5 -25.5t-28.5 -62.5z" />
<glyph unicode="c" d="M1589 977q63 -139 64 -291q0 -117 -37 -221q-16 -53 -42 -101.5t-58 -93.5q-66 -90 -155 -158.5t-198 -111.5q-150 -57 -311 -57q-131 0 -238 32q-57 16 -110 40t-101 55q-96 59 -169.5 142t-118.5 185q-63 137 -64 289q0 113 35 221q37 104 102 195q66 90 154 158.5 t199 111.5q72 29 149.5 44.5t161.5 15.5q121 0 238 -35q57 -16 109 -40t99 -54q197 -121 291 -326zM1489 436q27 57 41 121t14 129h-692v643q-104 0 -207 -29q-98 -29 -180 -79q-84 -53 -147.5 -125t-104.5 -160q-53 -117 -53 -250h692v-643q106 0 205 29q49 14 95 34.5 t87 47.5q84 51 147.5 122.5t102.5 159.5z" />
<glyph unicode="d" d="M852 1434q166 0 311.5 -58.5t255 -160t172 -237.5t62.5 -290t-62.5 -290t-172 -236.5t-255 -158.5t-311.5 -58t-311.5 58t-255 158.5t-172 237t-62.5 289.5q0 154 62.5 290t172 237.5t255 160t311.5 58.5zM1343 1047q-74 -78 -161.5 -133.5t-184.5 -96.5q10 -23 21.5 -44 t21.5 -46q41 8 87.5 11t93.5 3q125 0 256 -26q-4 94 -39.5 178t-94.5 154zM852 1270q-35 0 -66.5 -4t-64.5 -11q41 -49 97 -127.5t118 -189.5q88 35 167 85t140 118q-82 59 -181 94t-210 35zM578 1208q-123 -55 -210 -154.5t-122 -224.5q10 0 22.5 -1t28.5 -1h10 q86 0 218 12.5t274 53.5q-70 123 -129 201.5t-92 113.5zM227 688q0 -106 40 -201.5t108 -171.5q27 35 68.5 84.5t105.5 102.5q66 55 152.5 106t197.5 86q-10 20 -17.5 40t-17.5 38q-84 -25 -166 -40t-155.5 -22.5t-136 -10.5t-109.5 -3h-68q-2 -2 -2 -8zM852 109 q119 0 223 36q-25 121 -56.5 226.5t-68.5 199.5q-104 -33 -184 -82t-139 -102q-57 -49 -93 -94t-53 -72q78 -53 172.5 -82.5t198.5 -29.5zM1206 211q100 66 169 160t91 211q-68 14 -128 21t-117 7h-2q-35 0 -66 -3t-61 -7q33 -86 62 -183t52 -206z" />
<glyph unicode="e" d="M1653 1432l-215 -385v-203h-162v203l-51 96v-111q0 -18 2 -38l4 -40h-115l-6 56h-2q-20 -31 -47 -46.5t-68 -15.5q-20 0 -30 2q-2 -29 -7.5 -58.5t-17.5 -53t-35.5 -38t-62.5 -14.5q-37 0 -62.5 12.5t-42.5 43.5h-2v-45h-117v84q-14 -6 -30.5 -11.5t-34.5 -9.5 q-35 -6 -78 -10t-94 -4q-109 0 -173.5 14t-99 40t-45 61.5t-10.5 78.5q0 37 9.5 71t43 58.5t99 40t176.5 15.5t170 -15q39 -6 67 -18v197h123v-218h2q20 27 43 37.5t58 10.5q51 0 80 -29q33 23 80 28q34 4 72 3h30v34q0 27 -8.5 43.5t-40.5 16.5q-35 0 -41 -19.5t-6 -44.5 h-123q0 76 47 101q20 16 50 22t65 6q16 0 29.5 -1t25.5 -3l-29 56h176l115 -248l125 248h164zM379 1161q-39 0 -59.5 -9t-29.5 -22.5t-10 -28t-1 -24.5h204q0 12 -1 27.5t-10 28t-30.5 20.5t-62.5 8zM616 977v43h-337q0 -16 2 -35.5t11 -36t29.5 -27t57.5 -10.5 q59 0 78.5 21.5t19.5 44.5h72h2h65zM842 1008q0 61 -6.5 100t-47.5 39q-37 0 -43 -39t-6 -100q0 -78 9.5 -114t39.5 -36q35 0 44.5 36t9.5 114zM1042 1020q27 0 40.5 15.5t18.5 36.5q4 18 4 37q0 9 -0.5 26t-0.5 22q-23 -2 -43.5 -3t-34.5 -7t-22.5 -20.5t-8.5 -41.5 q0 -23 8 -44t39 -21z" />
<glyph unicode="f" d="M184 -49l668 1485l668 -1487h-250v2h-348v233l276 129l-31 62l-245 -113v84l161 80l-34 63l-127 -63v152h-174v-238l-130 82l-40 -57l170 -109v-260v-45h-564z" />
<glyph unicode="g" d="M1243 1364h-131l44 -36q26 -22 49.5 -54.5t40 -75.5t16.5 -98q0 -53 -15.5 -94t-40 -74t-56.5 -59l-65 -50l-39.5 -41.5t-19.5 -54.5t19.5 -52.5t35.5 -31.5l76 -55q35 -27 66.5 -54.5t56.5 -59.5t39 -70.5t14 -88.5q0 -70 -35.5 -136t-105.5 -118.5t-173.5 -84 t-238.5 -31.5q-115 0 -199.5 23.5t-141 62.5t-84 89t-27.5 105q0 53 34.5 120t126.5 118q49 27 104.5 44t110 26.5t103.5 13.5t84 6q-23 27 -42.5 56.5t-19.5 76.5q0 25 6.5 42t14.5 34q-16 -2 -33.5 -3t-34.5 -1q-84 0 -148.5 26.5t-109.5 69.5t-67.5 98.5t-22.5 112.5 q0 68 33 137.5t100 124.5q92 70 191.5 88.5t185.5 18.5h434zM1192 238q0 37 -13.5 67.5t-41 59t-71.5 60.5t-103 71q-12 2 -22 2h-26q-8 0 -30.5 -1t-54 -4.5t-67.5 -9.5t-69 -16q-18 -6 -48 -18.5t-59.5 -36t-51 -59.5t-21.5 -87q0 -53 25.5 -96t74 -76t117 -50t152.5 -17 q154 0 231.5 59.5t77.5 151.5zM1024 868q37 35 45 75t8 67q0 53 -16.5 115.5t-50 116.5t-83.5 91t-116 37q-41 0 -81 -18.5t-66 -46.5q-27 -31 -36.5 -68t-9.5 -76q0 -49 15.5 -109.5t48.5 -113.5t82 -89t117 -36q41 0 79.5 15t63.5 40z" />
<glyph unicode="h" d="M852 1421q166 0 311.5 -44t255 -119.5t172 -177t62.5 -216.5q0 -117 -62.5 -218t-172 -177t-255 -120t-311.5 -44q-129 0 -254 29q-47 -23 -102 -46l-107 -44q-51 -20 -95 -32.5t-71 -12.5q41 57 63.5 122.5t35.5 124.5q-125 78 -197 185.5t-72 232.5q0 115 62.5 216.5 t171 177t254 119.5t311.5 44zM1237 856l8 34q4 17 4 36q0 47 -19.5 88t-52 71.5t-76.5 48t-93 17.5q-47 0 -77 -15.5t-47.5 -38t-24.5 -48t-7 -48.5q0 23 -11.5 48.5t-33 48t-50 38t-61.5 15.5q-49 0 -93 -17.5t-75.5 -48t-51 -71.5t-19.5 -88q0 -39 12 -70q2 -14 16 -35 q23 -41 58 -65q41 -41 95 -82l101 -76l113 -76l113 76l101 76q54 41 97 82q37 31 58 65q10 15 16 35z" />
<glyph unicode="i" d="M852 1432q166 0 311.5 -58.5t255 -160t172 -236.5t62.5 -289t-62.5 -290t-172 -237.5t-255 -159.5t-311.5 -58t-311.5 58t-255 159.5t-172 238t-62.5 289.5q0 154 62.5 289t172 236.5t255 160t311.5 58.5zM852 92q133 0 250 47t204 128t137 189.5t50 231.5t-50 231.5 t-137 188.5t-204 127t-250 47t-250 -47t-204 -127t-137 -188.5t-50 -231.5t50 -231.5t137 -189.5t204 -128t250 -47zM1145 487v-10q0 -41 -29 -75q-33 -38 -86 -44q-9 -1 -17 -1q-41 0 -73 25q-43 33 -43 87q0 41 30 75q34 38 85 44q33 2 61 -6v309l-321 -55v-387v-5v-10 q0 -41 -29 -75q-33 -38 -84 -44q-9 -1 -18 -1q-42 0 -73 25q-38 30 -42 77q0 5 -1 10q0 41 30 75q33 38 83 44q33 2 62 -6v446l465 74v-2v-565v-5z" />
<glyph unicode="j" d="M1653 920l-367 -263l49 -47l-497 -448l-435 391q-74 0 -137 25.5t-111.5 69.5t-76 102.5t-27.5 123.5q0 68 29 126.5t77 102.5t113.5 69.5t139.5 25.5q119 0 211 -61.5t127 -157.5l92 82l215 -195l598 570v-516zM1599 1333l-790 -758l-125 185q29 53 29 114 q0 57 -24.5 107.5t-65.5 88.5t-96.5 59.5t-118.5 21.5t-119 -21.5t-97.5 -59.5t-65.5 -88t-24 -108q0 -57 24 -107t65.5 -87t97 -58.5t119.5 -21.5q41 0 88 10l301 -248l802 586v385z" />
<glyph unicode="k" d="M481 1432q8 2 16.5 2t16.5 2q74 -8 80 -105q1 -11 1 -22q0 -28 -4 -56q-5 -39 -14.5 -76.5t-19.5 -71.5t-16 -61q137 -29 245.5 -95t178.5 -181q33 -53 57.5 -114.5t28.5 -139.5q0 -10 -4.5 -25.5t0.5 -25.5q4 -10 17 -24l23 -23q31 -29 71 -60.5t77 -44.5q27 -9 60 -8 h13q40 2 79.5 10.5t78.5 19.5t72 17q25 6 45 6q14 0 26 -3q28 -7 42 -38q0 -8 1 -14t1 -12q-12 -45 -52 -74t-88 -51q-68 -33 -153.5 -56.5t-180 -40t-191.5 -23.5t-185 -7q-35 -29 -81 -46.5t-99 -29.5q-29 -4 -55.5 -6t-53.5 -6q-34 -2 -68 -2t-69 2q-70 4 -109 39 q-18 16 -28.5 44.5t-3.5 57.5q12 47 64 75t112 42q-4 16 -13.5 29.5t-15.5 29.5q-22 53 -22 113v23q5 73 28 122q-14 4 -30.5 7.5t-32.5 7.5q-4 -16 -5.5 -28.5t-11.5 -23.5q-16 -20 -42.5 -26t-52.5 1t-43 28.5t-15 54.5q2 20 16 38.5t34.5 34t43.5 28.5l41 24q18 10 43 22 l47 25q23 12 43 27.5t25 31.5q6 18 -0.5 43t-12.5 37q-10 -2 -15 -9l-9 -13q-18 -18 -40 -37l-44 -37l-62 -46q-33 -24 -71 -34q-19 -5 -38 -5q-25 0 -47 10q-38 17 -55 58q0 10 -1 17.5t-3 15.5q10 47 35 83t59.5 65.5t76.5 52.5l87 45l-43 43q-25 25 -48 54.5t-40.5 65.5 t-21.5 77q-1 8 -1 15q0 26 11 50q14 31 43 47q27 14 50.5 11t45 -14t39.5 -26.5t35 -25.5q16 35 38.5 66t63.5 47zM836 860q-57 53 -132 90t-167 54q-16 2 -28.5 4t-16.5 12q-2 4 2 18.5t8 26.5l33 110q14 50 18 119q0 18 -2 40t-8 37t-20 23q-5 3 -12 3q-10 0 -22 -6 q-35 -16 -53 -49t-30 -62q16 -12 35.5 -47t27.5 -72q3 -15 3 -28q0 -20 -7 -37q-12 -29 -57 -29q-33 0 -46.5 25.5t-16.5 60.5q-1 12 -1 23q0 23 4 47q6 35 12 53q-16 12 -25 24.5t-26 22.5q-10 8 -28.5 19.5t-47.5 0.5q-16 -4 -25 -21t-11 -28q-2 -14 0 -29.5t6 -27.5 q12 -53 53 -102.5t74 -75.5q12 -10 32.5 -18.5t18.5 -24.5q0 -12 -27.5 -20.5t-46.5 -18.5q-45 -20 -74 -41q-35 -23 -66.5 -47.5t-49.5 -52.5q-10 -12 -19 -33q-5 -14 -5 -27q0 -7 1 -14q6 -27 28.5 -39t55.5 -6q35 8 71 33.5t70 54.5l30 25q13 11 30 28q12 14 27.5 34.5 t31.5 20.5q16 -2 30.5 -30.5t18.5 -44.5q5 -21 5 -40q0 -20 -6 -34q-11 -29 -29 -45q-27 -23 -65 -41.5t-79 -40.5q-12 -6 -32.5 -17.5t-39 -24.5t-30.5 -28.5t-12 -29.5q0 -18 11 -27.5t24.5 -11.5t25.5 3t19 17q6 16 -1.5 35.5t5.5 28.5q12 10 31.5 3t29.5 -10 q37 -8 64 -12q12 12 23 28.5t26.5 32t33 27t41.5 11.5q20 0 37 -14.5t25 -34t5 -40t-17 -32.5q-27 -25 -64 -25h-6q-41 2 -78 4q-18 -27 -26 -67q-6 -30 -6 -62v-23q3 -44 17.5 -84t39.5 -67q38 3 71 3q45 0 82 -5q-39 51 -47 111q-3 18 -2 36q0 40 12 77q18 54 62.5 93 t110.5 48q20 2 39 2q35 0 64 -8q46 -11 80 -28.5t53.5 -34.5l25.5 -22q-10 129 -56 216t-118 155zM414 1108q20 2 19 22.5t-7 36.5q-6 18 -15.5 32.5t-15.5 29.5q0 2 -2 2q-4 -10 -6 -30.5t-1 -41t7.5 -36t20.5 -15.5zM457 557h55q29 0 45 16q4 14 -1 27.5t-15 20.5 q-33 0 -51.5 -20.5t-32.5 -43.5zM752 541q-55 -8 -91 -42t-50 -79q-8 -28 -8 -58q0 -18 3 -36q8 -49 41 -88q6 -8 17.5 -17.5t22.5 -17.5t18.5 -15.5t7.5 -13.5q-2 -16 -15.5 -15t-27.5 5q-41 10 -87 15q-26 3 -51 3q-20 0 -38 -2q47 -51 122.5 -75.5t165.5 -28.5 q29 23 38 68q3 13 3 25q0 32 -18 62q-10 16 -20.5 24.5t-6.5 20.5q6 14 23.5 12.5t34.5 0.5q37 2 64.5 16t47 35.5t31.5 48.5t20 53l-50 41q-26 20 -54.5 36t-64.5 22q-18 3 -37 3t-41 -3zM842 250q22 -32 21 -70q0 -9 -1 -18q-6 -49 -20 -76q-2 -4 -2 -6q-4 -4 0 -4 q94 2 195.5 12t198.5 28.5t182 48.5t145 71q16 10 35 29q15 15 15 29q0 4 -1 9q-4 12 -21.5 13t-39 -4t-42 -12t-32.5 -9q-35 -8 -78 -15.5t-82 -11.5q-13 -1 -24 -1q-38 0 -67 10q-38 13 -70 35t-58.5 48.5t-55.5 51.5q-4 4 -6 3q-1 0 -2 -1q-23 -59 -63.5 -103.5 t-126.5 -56.5zM463 147q-12 10 -17 20q-3 6 -11 6q-4 0 -9 -1l-52 -17q-28 -9 -49.5 -21.5t-35 -29t-13.5 -38.5q0 -31 20.5 -47.5t39.5 -22.5q37 -10 90 -10t109 4q57 4 109 17t85 34q-78 10 -147.5 34.5t-118.5 71.5z" />
<glyph unicode="l" d="M1653 555v-551h-344v514q0 98 -40 157.5t-134 59.5q-72 0 -115 -36.5t-62 -80.5q-6 -16 -8 -35.5t-2 -41.5v-537h-344q2 244 2 447v171v155q0 71 -1 121t-1 67h344v-136l-2 -4h2v4q16 25 41 52.5t61.5 51t88 39t118.5 15.5q84 0 157 -25.5t126 -80t83 -135t30 -191.5z M246 1427q88 0 138 -47t54 -118q0 -70 -52 -118t-142 -48h-2q-88 0 -139.5 48t-51.5 118q0 72 52.5 118.5t142.5 46.5zM72 965h342v-961h-342v961z" />
<glyph unicode="m" d="M1507 -51l-235 157l-234 -157l88 256l-233 157h289l90 256l90 -256h291l-236 -157zM1059 184q-6 -20 -27 -79l-43 -123l-938 632h932l289 824l358 -1022h-227q-4 10 -11 31l-17 50l-20 60l-24 66l-59 168l-60 -168l-23 -66l-21 -60q-9 -28 -17 -49.5t-10 -31.5h-424 l151 -105z" />
<glyph unicode="n" d="M1653 1104q0 -68 -29 -128.5t-77 -105.5t-113.5 -71.5t-139.5 -26.5t-139 26.5t-114.5 71.5t-78 105.5t-28.5 128.5t28.5 128t78 105t115 71t138.5 26q74 0 139.5 -26t113.5 -71t77 -105t29 -128zM410 1434q-74 0 -139.5 -26t-115 -71t-77 -105.5t-27.5 -127.5 q0 -68 27.5 -128.5t77 -105.5t115 -71.5t139.5 -26.5t139 26.5t114.5 71.5t77 105.5t27.5 128.5t-27.5 128t-77 105t-114.5 71t-139 26z" />
<glyph unicode="o" d="M1368 451q106 -41 168.5 -96.5t62.5 -118.5q0 -61 -59 -115.5t-160.5 -94.5t-237.5 -62.5t-290 -22.5t-290 22.5t-237.5 62.5t-160 94t-58.5 116q0 66 62.5 120t173.5 95q-23 96 -23 200q0 102 35 217t91.5 222.5t129 197.5t148.5 139q-26 -66 -26 -115q0 -12 1 -24 q8 -57 33 -105t54.5 -94.5t40.5 -105.5q4 -22 4 -46q0 -42 -12 -91q-19 -78 -93 -191q41 -11 79 -11q32 0 62 8q66 17 111 63.5t62 119.5q8 35 9 75q0 42 -10 89q66 -35 126.5 -75.5t107.5 -96t74.5 -131t27.5 -180.5q0 -32 -6 -65zM567 805q-59 -90 -85.5 -169t-30.5 -151 h2q0 -8 -1 -15q0 -117 60 -199q63 -87 166 -124h2q20 -8 31 -10h4q12 -4 33 -8h4q8 -2 14 -2t14 -2h8q8 0 16.5 -1t16.5 -1q12 2 24.5 2t22.5 2h15q8 2 16 3t16 3q8 0 13 2q23 4 42 9.5t38 13.5q2 0 4 1t4 1q8 4 15 7l16 7q2 0 3 1t3 1q37 20 63 41h2q68 53 100 125 q28 63 28 129q0 8 -1 16q-4 66 -37.5 126.5t-99.5 107.5q-16 -70 -43 -129.5t-64.5 -103.5t-86 -68.5t-109.5 -24.5q-55 0 -106.5 32t-87.5 86t-50 129q-6 31 -6 64q0 47 12 99z" />
<glyph unicode="p" d="M524 362h1049q-47 -88 -114.5 -161.5t-151.5 -127t-180.5 -87t-200.5 -41.5h-148q-66 4 -129 20.5t-125 40.5v356zM1184 868q-6 6 -54 45l-113 95l-141 119l-141 120l-111 94q-46 39 -51 43q68 23 137.5 36.5t141.5 13.5q174 0 332 -68v-498zM487 1350q2 -2 25 -21 l55 -46l71 -59l71 -60l55 -48q23 -20 27 -22q-4 -2 -57 -47l-129 -110l-167 -140l-167 -142l-131 -111q-54 -46 -58 -50q-31 94 -31 192q0 106 31 204.5t87 184.5t137 157t181 118zM440 49q-113 63 -197.5 156.5t-131.5 206.5q2 2 25 21l58 49l74 64l77 64l63 54 q27 23 32 28v-643zM1268 1323q88 -51 159.5 -119.5t121.5 -151.5t77 -175.5t27 -190.5q0 -61 -11.5 -122.5t-33.5 -121.5h-340v881z" />
<glyph unicode="q" d="M852 1440q166 0 311.5 -58.5t255 -160t172 -236.5t62.5 -289t-62.5 -290t-172 -237t-255 -159.5t-311.5 -58.5t-311.5 58.5t-255 159.5t-172 237.5t-62.5 289.5q0 154 62.5 289t172 236.5t255 160t311.5 58.5zM1282 467q23 0 45.5 27.5t39.5 65.5t27.5 76t10.5 60 q-4 106 -47 199.5t-118 163t-174 110.5t-214 41t-215 -41t-176 -110.5t-119 -162.5t-43 -200q0 -98 32 -166q30 -64 82 -63h7q18 2 47 0h11q23 0 48 6q31 8 59.5 30.5t50 74t31.5 134.5q5 44 5 100q0 51 -4 112q152 -23 248 -78t149 -115q63 -68 94 -149q18 -33 39 -58 q16 -23 38.5 -40t45.5 -17z" />
<glyph unicode="r" d="M416 281q61 -57 61 -140q0 -84 -61 -139q-61 -57 -152 -57q-88 0 -149 57q-29 27 -46.5 62.5t-17.5 76.5t17.5 76t46.5 64q29 27 67.5 42t81.5 15q45 0 84 -15t68 -42zM53 924q219 0 410.5 -76t335.5 -211q143 -135 226 -312.5t83 -381.5h-307q0 141 -56.5 268 t-162.5 225t-242.5 151.5t-286.5 53.5v283zM53 1432q332 0 622 -117t509 -322q219 -203 344 -472t125 -578h-305q0 166 -47.5 319.5t-131.5 287.5t-202.5 243.5t-262 188.5t-308.5 122t-343 43v285z" />
<glyph unicode="s" d="M1585 573q33 -47 50.5 -103t17.5 -116q0 -86 -35 -161.5t-96.5 -133t-143.5 -90t-174 -32.5q-131 0 -235 63q-29 -4 -58.5 -6t-58.5 -2q-154 0 -289 54t-236.5 147.5t-159.5 219.5t-58 269q0 29 3 54.5t7 51.5q-68 102 -68 220q0 86 35 162.5t96.5 133t143.5 89t174 32.5 q66 0 125 -16t110 -45q29 4 58.5 6t58.5 2q154 0 289 -54t236.5 -148.5t159.5 -219.5t58 -268q0 -52 -10 -109zM1204 367q47 61 47 143q0 66 -26 111q-27 45 -76 75q-45 29 -117 52q-72 18 -153 36l-59 14q-24 5 -38 9q-16 4 -29.5 9t-27.5 11q-27 12 -45 31q-14 16 -14 43 q0 39 45 70q51 29 125 28q86 0 120 -26q41 -31 64 -76q20 -33 41 -49q20 -16 55 -17q39 0 66 27q27 25 26 57q0 37 -20 72q-20 33 -66 70q-23 16 -50.5 29.5t-61.5 23.5q-35 10 -74 15t-86 5q-119 0 -201 -30q-88 -31 -133 -86q-45 -53 -45 -127q0 -78 43 -127 q43 -53 117 -80q70 -29 180 -51q41 -10 72.5 -16.5t56.5 -14.5q47 -12 76 -41q31 -25 31 -65q0 -55 -56 -89q-53 -35 -143 -34q-72 0 -105 16q-41 18 -61 45q-25 31 -41 68q-14 35 -39 53q-23 18 -55 18q-41 0 -68 -22q-27 -25 -26 -58q0 -57 43 -114q43 -59 110 -92 q98 -49 246 -50q121 0 215 35q92 40 137 99z" />
<glyph unicode="t" d="M1470 977q33 -14 86 -20q24 -2 47 -2q27 0 50 3q-29 -27 -74 -47t-117 -20q-33 -123 -122 -220.5t-211.5 -161t-269.5 -88.5q-83 -15 -166 -15q-63 0 -126 9q-145 19 -280 88.5t-236 198.5q57 -51 133 -78.5t158 -27.5t161 29.5t142 91.5q-12 -2 -24 -2q-23 0 -42 8 q-30 12 -41.5 32.5t0 45t58.5 43.5q-16 -2 -31 -2q-23 0 -43 4q-33 6 -57.5 20.5t-40.5 31.5t-27 36q20 18 45 27.5t66 11.5q-92 20 -131 59t-49 90q27 4 54.5 9.5t43.5 1.5q-78 39 -109 91q-27 46 -27 86q0 5 1 11q141 -49 237.5 -90t171.5 -80q29 -12 58 -36l63 -54 q20 53 46 105.5t55.5 100.5t66.5 88t84 66q-2 -23 -24 -45q27 23 58.5 37t66.5 19q-4 -23 -33 -37.5t-51 -22.5q8 2 31.5 10.5t50 15.5t48 9t25.5 -8q6 -12 -7 -20.5t-31.5 -14.5t-37 -10t-24.5 -6l-37 -13q11 1 22 1q46 0 90 -14q54 -17 99 -52t79 -82t50 -101l4 -16 q2 -8 4 -18q20 -6 48 -7.5t55.5 3t50 11.5t35.5 13q-16 -39 -61.5 -65.5t-113.5 -30.5z" />
<glyph unicode="u" d="M457 1366q31 23 72.5 37t83.5 21.5t81 8.5h15q29 0 49 -3q47 -8 71.5 -31t24.5 -53l4 -517q0 -31 -14.5 -55t-36.5 -29q-20 -4 -48 12.5t-44 43.5l-291 442q-8 12 -18.5 23.5t-11.5 24t12.5 29.5t50.5 46zM360 385l293 96q31 10 54.5 35t27.5 49q4 23 -16.5 48.5 t-48.5 37.5l-312 113q-29 12 -58.5 -11.5t-39.5 -66.5q-4 -55 -4 -104q-1 -27 -1 -55v-26q1 -40 5 -57q6 -31 38 -50q21 -13 41 -13q10 0 21 4zM872 336q0 31 -15 53.5t-38 24.5q-23 4 -52.5 -12.5t-49.5 -39.5l-205 -227q-10 -12 -13 -30q-1 -7 -2 -15q0 -10 3 -20 q4 -18 13 -32.5t26 -21.5l213 -67q9 -4 19 -4q7 0 15 2q20 4 37 14t29 24.5t12 30.5zM1380 389l-256 70q-29 7 -56 7h-7q-31 -1 -41 -11q-12 -10 -10 -35t18 -51l162 -277q8 -12 25 -18q15 -5 32 -6q3 0 5 1q19 1 38 9t27 20q29 37 51 72q20 29 38.5 60.5t27.5 50.5 q6 17 6 32q0 20 -10 37q-19 31 -50 39zM1444 776q-4 12 -21 36l-35 50q-19 27 -42 50.5t-39 35.5q-30 26 -60 26h-6q-33 -3 -55 -26l-164 -182q-23 -23 -28 -54q-1 -8 -1 -16q0 -22 11 -39q16 -23 48 -32q20 -6 40 -7q12 0 24 3l285 49q39 10 45 45q3 15 3 28q0 18 -5 33z " />
<glyph unicode="v" d="M1419 1434q232 -6 233 -264q0 -17 -1 -35q-10 -219 -326 -596q-326 -395 -553 -396q-141 0 -235 242l-66 221l-65 221q-72 240 -154 240q-18 0 -125 -70l-76 90l118 98l116 97q156 125 237 135q11 1 22 1q167 0 208 -240l38 -222.5t25 -119.5q55 -227 119 -228 q49 0 151 148q100 152 107 225q2 15 2 28q0 99 -109 99q-55 0 -118 -23q113 348 434 349h18z" />
<glyph unicode="w" d="M51 688q0 154 62.5 289t172 236.5t255 160t311.5 58.5t311.5 -58.5t255 -160t172 -236.5t62.5 -289t-62.5 -290t-172 -237.5t-255 -159.5t-311.5 -58t-311.5 58t-255 159.5t-172 237.5t-62.5 290zM113 688q0 -102 30.5 -196.5t85 -174t131 -143t168.5 -104.5l-352 897 q-63 -134 -63 -279zM852 0q66 0 126 10t120 29q-2 4 -3 5t-3 5l-228 578l-221 -598q103 -29 209 -29zM1223 94q82 45 149.5 107.5t116.5 139.5t75.5 164t26.5 183q0 178 -92 330q6 -35 6 -72q0 -53 -12 -112.5t-45 -133.5zM1290 911q-29 43 -51 81t-22 81q0 47 34.5 84 t89.5 37h9q-98 86 -225.5 133t-272.5 47q-195 0 -356.5 -84t-262.5 -225q14 0 26.5 -1t23.5 -1q29 0 63.5 1t63.5 3q35 2 69 6q14 0 22.5 -8t9.5 -18.5t-6 -19.5t-22 -11q-12 0 -24 -2t-27.5 -3t-32.5 -1l269 -744l161 451l-114 293q-16 0 -30.5 1t-25.5 3q-12 2 -22 2 q-14 0 -21.5 9t-6.5 20.5t9.5 19.5t22.5 8q35 -4 70 -6q29 -2 62.5 -3t62.5 -1t63.5 1t65.5 3q35 2 69 6q14 0 22.5 -8t9.5 -18.5t-6 -19.5t-22 -11q-12 0 -26 -2q-12 -2 -26.5 -3t-31.5 -1l267 -740l73 230q55 135 56 223q0 63 -20 108t-40 80z" />
<glyph unicode="x" d="M645 1434l213 -672l213 672h154h364v-68l-188 -348q57 -16 107.5 -48t78.5 -77q29 -45 47.5 -98.5t18.5 -112.5q0 -76 -19.5 -138.5t-62.5 -115.5q-86 -102 -219 -102q-102 0 -178 61t-113 164l121 47q25 -61 69 -98q43 -37 103 -37q63 0 102 63q43 63 43 156 q0 49 -11 97t-34 77q-27 33 -67.5 58.5t-98.5 25.5h-100v25l248 346h-248h-14l-302 -928h-14l-221 686l-219 -686h-15l-352 1051h156l211 -674l143 454l-69 220h153z" />
<glyph unicode="y" d="M1313 346h-88l2 49q0 16 12 26.5t29 10.5h4q18 0 30.5 -10t12.5 -27zM983 449q16 0 28.5 -9.5t12.5 -21.5v-232q0 -12 -12.5 -21t-28.5 -9t-28.5 9t-12.5 21v232q0 12 12.5 21.5t28.5 9.5zM1520 578v-439q0 -41 -17.5 -75.5t-47.5 -60.5t-69.5 -41t-85.5 -15h-897 q-45 0 -84.5 15t-69.5 41t-47.5 60.5t-17.5 75.5v439q0 39 17.5 74.5t47.5 61t69.5 41t84.5 15.5h897q45 0 85 -15.5t70 -41t47.5 -61t17.5 -74.5zM463 90v463h110v70h-297v-68h95v-465h92zM797 485h-92v-247q0 -27 1 -41.5t-4 -18.5q-4 -16 -23.5 -23.5t-29.5 21.5 q-2 4 -1 19.5t1 40.5l-2 249h-92l2 -245q0 -29 -1 -48.5t1 -29.5q2 -16 4 -34.5t19 -29.5q16 -10 37.5 -10t42 7t38 19.5t25.5 26.5l-2 -49l76 -2v395zM1094 203v205q0 59 -42 84q-14 8 -32 8q-33 0 -76 -31v154h-92v-529l76 2l6 33q37 -31 66.5 -38t50 5.5t32 41t11.5 65.5 zM1384 229h-69v-10v-35q0 -16 -11.5 -25t-27.5 -9h-14q-16 0 -26.5 9t-10.5 25v4v39v52h159v55q0 31 -1 59.5t-5 44.5q-4 27 -24.5 43.5t-48 22.5t-56 2t-49.5 -19q-27 -18 -39 -49t-12 -86v-123q0 -78 41 -111q38 -31 80 -31h8q47 3 83 40q27 27 27 71q-1 14 -4 31z M1026 895q-4 8 -5 16.5t-3 16.5q-2 10 -2 27v44v275h86v-318q0 -12 9 -21t24 -9q14 0 24 9t10 21v318h80v-408h-102l2 33q-14 -20 -27 -31q-16 -10 -35 -10q-23 0 -38 10q-13 9 -23 27zM713 1126q0 55 10 91q12 37 39 53q27 20 69 20q37 0 62 -12q25 -10 41 -35 q12 -18 18 -41q6 -25 6 -67v-105q0 -57 -6 -82q-2 -23 -20 -51q-18 -25 -39 -33q-25 -12 -57 -12q-33 0 -60 10q-25 8 -37 29q-12 16 -20 45q-6 27 -6 82v108zM795 963q0 -16 12 -28.5t29 -12.5q16 0 28.5 12t12.5 29v217q0 18 -12.5 30.5t-28.5 12.5t-28.5 -12.5 t-12.5 -30.5v-217zM508 1167l-123 269h107l61 -201l61 201h107l-115 -269v-313h-98v313z" />
<glyph unicode="z" d="M1350 272q16 -10 30.5 -32.5t14.5 -53.5q0 -43 -32 -86t-84 -78.5t-118.5 -57t-134.5 -21.5q-63 0 -112.5 18.5t-101.5 71.5t-115.5 152.5t-155.5 263.5q-35 -29 -83 -51.5t-83 -22.5q-29 0 -47.5 26.5t-18.5 104.5q0 37 12.5 83t38 86t66.5 66.5t98 26.5 q35 0 62.5 -12.5t66.5 -42.5q51 37 109 87l112 102q55 52 101.5 102.5t75.5 87.5q-111 31 -197 51t-141 20q-23 0 -55.5 -9t-73.5 -32q-70 16 -70 109q0 39 16.5 75.5t44 64.5t65.5 44.5t81 16.5q45 0 91 -6.5t101.5 -19.5t121.5 -35l157 -52q25 35 44 54.5t42 19.5 q25 0 45 -12.5t35.5 -31t25 -41t9.5 -42.5q0 -47 -40 -99.5t-136 -111.5q-55 -74 -107.5 -132.5t-106 -111.5t-113 -104.5t-132.5 -108.5q96 -133 156.5 -210t100.5 -117t67.5 -50t58.5 -10q92 0 209 61z" />
<glyph unicode="&#xaa;" d="M999 1087q0 29 -1 60t-19 55q-16 23 -42 33t-52 10h-13q-45 -4 -81.5 -27.5t-47.5 -70.5q-2 -10 -9 -18.5t-19 -12.5l-168 21q-10 2 -19.5 9t-5.5 23q14 66 49 111t83 73.5t104.5 42t113.5 17.5h35q63 0 135 -17.5t125 -62.5q31 -27 46.5 -58.5t21.5 -66t6 -72.5v-77 v-250q0 -57 20.5 -88t45.5 -59q8 -10 8 -21.5t-10 -19.5q-25 -23 -65 -53.5t-66 -53.5q-18 -12 -44 -2q-41 35 -57 54l-41 50q-41 -41 -80 -65.5t-80 -36.5q-55 -12 -122 -12q-109 0 -182.5 61.5t-73.5 184.5q0 98 50 163.5t134 98.5q43 18 92 27.5t102 15.5q35 4 67 6t60 6 v22zM999 936q-33 0 -65.5 -2t-61.5 -8q-53 -16 -91 -50t-38 -100q0 -53 28 -85t77 -32q8 0 14 1.5t10 1.5q63 14 95 71q29 43 30.5 83t1.5 87v33zM1548 125q-10 -10 -18 -6t-4 16l19 46q11 28 20.5 55.5t12.5 50t-5 32.5q-12 16 -54 18h-17q-34 0 -68 -3q-18 -4 -35 -4 t-31 -4q-12 0 -14 7t10 15q31 20 70 33q35 8 70 11q22 2 41 2q13 0 26 -1q31 -2 51 -7t27 -11q2 -4 4 -10.5t2 -16.5v-8q0 -20 -7.5 -49t-19.5 -58.5t-32.5 -58.5t-47.5 -49zM61 340q-9 7 -9 13q0 4 3 7q5 6 12 6q6 0 13 -4q168 -92 370.5 -144t419.5 -52q137 0 279.5 24.5 t284.5 75.5q10 4 20 7t21 8q10 4 20 2t14 -9q3 -5 4 -11q0 -12 -12 -19q-16 -12 -33.5 -21.5t-33.5 -19.5q-129 -72 -283 -109t-299 -37q-231 0 -432 75t-359 208z" />
<glyph unicode="&#xb2;" d="M936 1315q43 47 108.5 77.5t124.5 34.5q8 -66 -16.5 -128t-65.5 -109t-105 -79t-132 -28q-10 66 17.5 127.5t68.5 104.5zM1393 123q-25 -35 -51.5 -66.5t-56.5 -57.5t-63.5 -42t-74.5 -16t-69.5 9t-56.5 20.5t-59.5 20.5t-76.5 9q-47 0 -79 -9t-60.5 -20.5t-57.5 -20.5 t-65 -11q-39 -2 -74 14t-65.5 44t-59.5 61.5t-53 68.5q-51 70 -93 163t-61.5 195.5t-9.5 204t63 187.5t140.5 135t189.5 51q39 0 76 -9.5t70 -21.5l64 -22q30 -10 52 -11q25 0 57.5 12.5t72.5 26t85 23.5t92 6q18 0 53 -6t76 -21.5t84 -44t78 -75.5q-4 -2 -30.5 -19.5 t-58.5 -52.5t-57.5 -88t-25.5 -123q0 -84 34 -142.5t73 -93t72 -50.5l34 -15q0 -2 -6 -21.5t-19.5 -48t-33.5 -66.5t-49 -77z" />
<glyph unicode="&#xb3;" d="M313 1421q57 6 113.5 4t112.5 0q-57 -66 -100.5 -142.5t-51.5 -164.5q-8 -68 5.5 -133t43 -124.5t74.5 -112t100 -93.5q29 -16 27 -44.5t-2 -55.5q-8 -63 -17.5 -126.5t-13.5 -127.5q88 47 169 102.5t171 98.5q180 -33 365.5 -9.5t343.5 117.5v-295q4 -86 -46.5 -159.5 t-136.5 -108.5q-39 -18 -80.5 -23.5t-82.5 -3.5h-955q-59 0 -113.5 24t-95.5 61.5t-65.5 89t-24.5 106.5q-2 205 -1 408.5t1 408.5q-4 53 15.5 103.5t55.5 91.5t85 69.5t104 38.5zM731 1229q-41 -39 -65.5 -88t-24.5 -105q-4 -74 35 -140.5t100 -111.5q66 -47 144.5 -71.5 t160.5 -28.5t163 13.5t153 54.5q80 41 136 111.5t58 158.5q2 78 -41 145.5t-108 110.5q-74 51 -163 73.5t-181 18.5q-102 -2 -198.5 -36.5t-168.5 -104.5z" />
<glyph unicode="&#xb9;" d="M492 1104h-259l326 303v-244zM1411 1225q10 -16 31.5 -43t43 -95.5t37 -194.5t15.5 -343q0 -109 -13.5 -193t-36 -146.5t-51 -107.5t-57.5 -75q-68 -72 -155 -90h-174q-41 0 -83 10t-77 35.5t-57.5 69.5t-22.5 112t40 103.5t87 51.5q55 20 127 23v-117q-8 0 -16 2 q-8 0 -19.5 1t-21.5 1q-25 0 -42.5 -14t-17.5 -55q0 -23 8.5 -40.5t18.5 -29.5q12 -14 29 -27h167q29 0 46.5 13.5t25.5 29.5q8 18 12 44v137q0 55 -55 100t-156 45q-51 0 -92 24.5t-69 53.5q-35 35 -62 80q-2 -31 -2 -60v-108q0 -6 -13 -28.5t-51 -45t-109 -34t-183 4.5 q-63 8 -110.5 45t-80 89.5t-53 113t-32 118.5t-15.5 107.5t-4 77.5q0 43 13.5 74t29.5 53q18 23 43 41h305l68 64v211q0 18 1 38.5t12 36t39 25.5t83 10t94 -16t66 -37q29 -23 49 -51h194q27 0 66 -8t75.5 -22.5t65.5 -31t39 -32.5zM1100 707q10 0 45 -6l74 -11 q43 -8 96 -14q-25 35 -49 63q-23 23 -46.5 43.5t-45.5 20.5q-23 0 -37.5 -15.5t-22.5 -33.5q-8 -22 -14 -47z" />
<glyph unicode="&#xba;" d="M1368 451q106 -41 168.5 -96.5t62.5 -118.5q0 -61 -59 -115.5t-160.5 -94.5t-237.5 -62.5t-290 -22.5t-290 22.5t-237.5 62.5t-160 94t-58.5 116q0 66 62.5 120t173.5 95q-23 96 -23 200q0 102 35 217t91.5 222.5t129 197.5t148.5 139q-26 -66 -26 -115q0 -12 1 -24 q8 -57 33 -105t54.5 -94.5t40.5 -105.5q4 -22 4 -46q0 -42 -12 -91q-19 -78 -93 -191q41 -11 79 -11q32 0 62 8q66 17 111 63.5t62 119.5q8 35 9 75q0 42 -10 89q66 -35 126.5 -75.5t107.5 -96t74.5 -131t27.5 -180.5q0 -32 -6 -65zM567 805q-59 -90 -85.5 -169t-30.5 -151 h2q0 -8 -1 -15q0 -117 60 -199q63 -87 166 -124h2q20 -8 31 -10h4q12 -4 33 -8h4q8 -2 14 -2t14 -2h8q8 0 16.5 -1t16.5 -1q12 2 24.5 2t22.5 2h15q8 2 16 3t16 3q8 0 13 2q23 4 42 9.5t38 13.5q2 0 4 1t4 1q8 4 15 7l16 7q2 0 3 1t3 1q37 20 63 41h2q68 53 100 125 q28 63 28 129q0 8 -1 16q-4 66 -37.5 126.5t-99.5 107.5q-16 -70 -43 -129.5t-64.5 -103.5t-86 -68.5t-109.5 -24.5q-55 0 -106.5 32t-87.5 86t-50 129q-6 31 -6 64q0 47 12 99z" />
<glyph unicode="&#x152;" horiz-adv-x="3411" d="M3209 918q15 -111 15 -212q0 -146 -31 -272q-23 -90 -67 -178t-118.5 -156.5t-184 -111.5t-263.5 -43q-30 -2 -60 -3q-128 0 -239 44q-59 23 -117.5 61.5t-108.5 100t-88 148.5t-57 206l127 -53q-22 83 -22 161q0 23 2 45q2 43 13 89.5t34.5 92.5t61.5 87t94 75 q20 29 34 66q12 31 19 70q3 17 2 34q0 23 -4 48l143 -70q57 37 105 82q41 39 74.5 90t37.5 111q82 -47 164 -132q72 -72 157 -193.5t163 -307.5q27 12 49 30q20 16 37.5 38t27.5 53zM2537 63q20 -2 39 -1q76 0 142 26q35 14 70.5 36.5t65.5 59.5t53.5 89.5t33.5 123.5 l-76 -30q14 48 14 94q0 15 -2 31q-4 53 -30.5 108t-91.5 96q-12 18 -21 41q-8 18 -12 41t2 49l-86 -43q-37 23 -64 50q-25 23 -44 54.5t-23 67.5q-47 -29 -99 -79q-43 -43 -93 -117t-97 -185q-14 8 -29 19q-12 10 -24.5 22.5t-16.5 30.5q-9 -67 -9 -127q0 -88 20 -164 q12 -55 38.5 -107t71.5 -93t110.5 -67t157.5 -26zM1653 999v-274h-451l137 80q-82 35 -160.5 57.5t-150.5 34.5v-674l-244 -145q-295 49 -461.5 137t-229.5 193q-42 71 -42 143q0 35 9 70q30 109 128.5 200.5t253 155t342.5 78.5v235l244 146v-387q115 -14 232.5 -49 t236.5 -99zM784 907q-141 -10 -246.5 -59t-166 -117.5t-72.5 -148.5q-3 -17 -3 -33q0 -62 38 -119q47 -72 157.5 -128t292.5 -79v684z" />
<glyph unicode="&#x153;" horiz-adv-x="3411" d="M3359 1432l-215 -385v-203h-162v203l-51 96v-111q0 -18 2 -38l4 -40h-115l-6 56h-2q-20 -31 -47 -46.5t-68 -15.5q-20 0 -30 2q-2 -29 -7.5 -58.5t-17.5 -53t-35.5 -38t-62.5 -14.5q-37 0 -62.5 12.5t-42.5 43.5h-2v-45h-117v84q-14 -6 -30.5 -11.5t-34.5 -9.5 q-35 -6 -78 -10t-94 -4q-109 0 -173.5 14t-99 40t-45 61.5t-10.5 78.5q0 37 9.5 71t43 58.5t99 40t176.5 15.5t170 -15q39 -6 67 -18v197h123v-218h2q20 27 43 37.5t58 10.5q51 0 80 -29q33 23 80 28q34 4 72 3h30v34q0 27 -8.5 43.5t-40.5 16.5q-35 0 -41 -19.5t-6 -44.5 h-123q0 76 47 101q20 16 50 22t65 6q16 0 29.5 -1t25.5 -3l-29 56h176l115 -248l125 248h164zM2085 1161q-39 0 -59.5 -9t-29.5 -22.5t-10 -28t-1 -24.5h204q0 12 -1 27.5t-10 28t-30.5 20.5t-62.5 8zM2322 977v43h-337q0 -16 2 -35.5t11 -36t29.5 -27t57.5 -10.5 q59 0 78.5 21.5t19.5 44.5h72h2h65zM2548 1008q0 61 -6.5 100t-47.5 39q-37 0 -43 -39t-6 -100q0 -78 9.5 -114t39.5 -36q35 0 44.5 36t9.5 114zM2748 1020q27 0 40.5 15.5t18.5 36.5q4 18 4 37q0 9 -0.5 26t-0.5 22q-23 -2 -43.5 -3t-34.5 -7t-22.5 -20.5t-8.5 -41.5 q0 -23 8 -44t39 -21zM1368 451q106 -41 168.5 -96.5t62.5 -118.5q0 -61 -59 -115.5t-160.5 -94.5t-237.5 -62.5t-290 -22.5t-290 22.5t-237.5 62.5t-160 94t-58.5 116q0 66 62.5 120t173.5 95q-23 96 -23 200q0 102 35 217t91.5 222.5t129 197.5t148.5 139q-26 -66 -26 -115 q0 -12 1 -24q8 -57 33 -105t54.5 -94.5t40.5 -105.5q4 -22 4 -46q0 -42 -12 -91q-19 -78 -93 -191q41 -11 79 -11q32 0 62 8q66 17 111 63.5t62 119.5q8 35 9 75q0 42 -10 89q66 -35 126.5 -75.5t107.5 -96t74.5 -131t27.5 -180.5q0 -32 -6 -65zM567 805q-59 -90 -85.5 -169 t-30.5 -151h2q0 -8 -1 -15q0 -117 60 -199q63 -87 166 -124h2q20 -8 31 -10h4q12 -4 33 -8h4q8 -2 14 -2t14 -2h8q8 0 16.5 -1t16.5 -1q12 2 24.5 2t22.5 2h15q8 2 16 3t16 3q8 0 13 2q23 4 42 9.5t38 13.5q2 0 4 1t4 1q8 4 15 7l16 7q2 0 3 1t3 1q37 20 63 41h2 q68 53 100 125q28 63 28 129q0 8 -1 16q-4 66 -37.5 126.5t-99.5 107.5q-16 -70 -43 -129.5t-64.5 -103.5t-86 -68.5t-109.5 -24.5q-55 0 -106.5 32t-87.5 86t-50 129q-6 31 -6 64q0 47 12 99z" />
<glyph unicode="&#x2000;" horiz-adv-x="718" />
<glyph unicode="&#x2001;" horiz-adv-x="1439" />
<glyph unicode="&#x2002;" horiz-adv-x="718" />
<glyph unicode="&#x2003;" horiz-adv-x="1439" />
<glyph unicode="&#x2004;" horiz-adv-x="479" />
<glyph unicode="&#x2005;" horiz-adv-x="358" />
<glyph unicode="&#x2006;" horiz-adv-x="239" />
<glyph unicode="&#x2007;" horiz-adv-x="239" />
<glyph unicode="&#x2008;" horiz-adv-x="178" />
<glyph unicode="&#x2009;" horiz-adv-x="286" />
<glyph unicode="&#x200a;" horiz-adv-x="79" />
<glyph unicode="&#x2013;" horiz-adv-x="1024" d="M205 512v205h614v-205h-614z" />
<glyph unicode="&#x2014;" horiz-adv-x="2048" d="M205 512v205h1638v-205h-1638z" />
<glyph unicode="&#x202f;" horiz-adv-x="286" />
<glyph unicode="&#x205f;" horiz-adv-x="358" />
<glyph unicode="&#x2122;" horiz-adv-x="3411" d="M2490 963q-12 0 -16 4q2 16 6 27.5t10 21.5l4.5 9t4.5 11l2 8l2 -8q4 -16 3 -37.5t-7 -35.5h-9zM3158 1085l-2 -2q-35 -29 -50.5 -75.5t-23.5 -92.5q29 8 51.5 30t32.5 48q6 16 8 40t-14 50zM2322 977q2 0 4.5 -1t6.5 -1l6 2q6 25 -4 59q-23 -25 -25 -55l-2 -2h8 q4 0 6 -2zM3361 590q0 -23 -17.5 -38t-40.5 -15h-1488q-25 0 -41.5 15t-16.5 38v786q0 23 16.5 38.5t41.5 15.5h1488q23 0 40.5 -15.5t17.5 -38.5v-786zM2238 879q-12 31 -20 64.5t-14 68.5q-10 43 -21.5 85t-27.5 77q-2 0 -4.5 -1.5t-4.5 -1.5q-6 0 -11 -1t-9 -1 q-6 2 -11.5 -2t-11.5 -4h-2q-2 0 -2 4t-2 4q-27 -35 -39 -76.5t-24 -88.5q-6 10 -12.5 22l-12.5 23q-10 20 -22.5 40.5t-24.5 36.5h-12q-16 0 -28.5 -2t-25.5 -6l-2 -41q-1 -27 -1 -51.5t1 -47.5q2 -46 17 -89q4 -2 10 -2q16 0 30.5 5t22.5 9q0 14 -1 25.5t-3 21.5 q-4 12 2 27q10 -12 18.5 -25.5t18.5 -25.5q4 -10 10 -17.5t11 -15.5h10q16 0 24 2q6 0 12.5 1t14.5 1l4 -2q10 16 11 38.5t1 47.5q0 20 2.5 40.5t12.5 37.5q12 -47 26.5 -94t34.5 -95q20 4 31 9q12 4 18 4q2 0 6 -4zM2423 866q-6 12 -23 13q-6 0 -12 -1t-14 -4 q-16 -4 -27 -4h-6q-14 2 -25 17q-9 13 -9 33q0 15 5 34q12 -4 27 -4h31h4q4 0 7 -1t7 -1q6 21 6 46q0 9 -1 19q-3 36 -9 58l-19 6q-12 6 -30 6h-8q-31 -4 -50.5 -36.5t-23.5 -71.5q-1 -10 -1 -20q0 -25 7 -51q10 -36 45 -48q10 -4 37 -4q23 0 44.5 4t37.5 10zM2585 877 q-2 8 -21 16q-12 -20 -41 -21q-31 0 -47 23q-16 20 -4 47q10 -2 21.5 -3t21.5 -1q8 0 15 1t14 1q-2 23 0 40t6 34q4 14 5 29.5t3 31.5q-25 18 -61 23q-80 -59 -78 -180q6 -29 37.5 -44.5t66.5 -15.5q39 1 62 19zM2775 991q-12 6 -18 17q-10 10 -18.5 16t-20.5 10 q-4 0 -4 -10q0 -4 -1 -9t-10 -5h-6v2q2 20 1 41.5t-3 46.5q-4 35 -4 68.5t6 62.5q-8 10 -21.5 15t-37.5 5h-2q-2 0 -3 3t-3 6q-10 -29 -10 -61v-16q3 -40 10 -83q4 -25 6 -47.5t-2 -44.5h-21q-6 2 -16 2q-12 0 -19 -6q-4 -8 -4 -19q10 -6 25.5 -7t32.5 -1l12 -4 q2 -12 2 -24.5t2 -26.5q2 -18 3 -37t1 -39h17q6 0 13 1t15 1q0 16 -1 29.5t-1 27.5q-1 17 -1 35.5t1 38.5q8 2 15.5 3t17.5 1q33 0 47 8zM2972 1020l-22 17q-11 9 -25 10h-5q-2 0 -3 -2.5t-3 -0.5v-18q0 -18 -2 -39.5t-7 -40t-15 -34t-31 -21.5q-6 45 -6 92q-2 12 -2 23v18 q-8 4 -15 6q-20 14 -43 17q-3 -31 -2 -58q0 -83 29 -112q16 -16 41 -17q20 0 39 8l4 6l14 18q6 7 17 15q2 8 10 17q12 20 21.5 41.5t5.5 54.5zM3222 1104q-41 23 -76 22q-39 0 -74 -34q-16 -18 -25.5 -43t-15.5 -51.5t-10 -52t-6 -44.5q-4 0 -6 -2l-19 -6q16 -18 21.5 -46 t9.5 -56q4 -23 6 -44.5t10 -37.5q4 0 9.5 -1t13.5 -1h14q16 0 23 -2q-18 40 -18 113q0 20 1 42q47 10 85 38t59 67q12 25 16 60q1 6 1 11q0 32 -19 68zM993 217q57 -29 123 -29q123 0 244 74v-235q-51 -23 -98.5 -38.5t-87.5 -25.5q-84 -18 -183 -18q-55 0 -93 7t-81 19 q-84 25 -145 74q-59 47 -82 100q-25 55 -25 158v520h-219v211q47 16 97.5 36t84.5 46q35 29 61.5 59.5t47.5 69.5q41 72 57 189h230v-344h374v-267h-374v-381q0 -66 1 -103.5t7 -55.5q18 -41 61 -66z" />
<glyph unicode="&#xe000;" horiz-adv-x="1435" d="M0 1435h1435v-1435h-1435v1435z" />
<glyph unicode="&#xfb01;" horiz-adv-x="3411" d="M2558 1432q166 0 311.5 -58.5t255 -160t172 -236.5t62.5 -289t-62.5 -290t-172 -237.5t-255 -159.5t-311.5 -58t-311.5 58t-255 159.5t-172 238t-62.5 289.5q0 154 62.5 289t172 236.5t255 160t311.5 58.5zM2558 92q133 0 250 47t204 128t137 189.5t50 231.5t-50 231.5 t-137 188.5t-204 127t-250 47t-250 -47t-204 -127t-137 -188.5t-50 -231.5t50 -231.5t137 -189.5t204 -128t250 -47zM2851 487v-10q0 -41 -29 -75q-33 -38 -86 -44q-9 -1 -17 -1q-41 0 -73 25q-43 33 -43 87q0 41 30 75q34 38 85 44q33 2 61 -6v309l-321 -55v-387v-5v-10 q0 -41 -29 -75q-33 -38 -84 -44q-9 -1 -18 -1q-42 0 -73 25q-38 30 -42 77q0 5 -1 10q0 41 30 75q33 38 83 44q33 2 62 -6v446l465 74v-2v-565v-5zM184 -49l668 1485l668 -1487h-250v2h-348v233l276 129l-31 62l-245 -113v84l161 80l-34 63l-127 -63v152h-174v-238l-130 82 l-40 -57l170 -109v-260v-45h-564z" />
<glyph unicode="&#xfb02;" horiz-adv-x="3411" d="M3359 555v-551h-344v514q0 98 -40 157.5t-134 59.5q-72 0 -115 -36.5t-62 -80.5q-6 -16 -8 -35.5t-2 -41.5v-537h-344q2 244 2 447v171v155q0 71 -1 121t-1 67h344v-136l-2 -4h2v4q16 25 41 52.5t61.5 51t88 39t118.5 15.5q84 0 157 -25.5t126 -80t83 -135t30 -191.5z M1952 1427q88 0 138 -47t54 -118q0 -70 -52 -118t-142 -48h-2q-88 0 -139.5 48t-51.5 118q0 72 52.5 118.5t142.5 46.5zM1778 965h342v-961h-342v961zM184 -49l668 1485l668 -1487h-250v2h-348v233l276 129l-31 62l-245 -113v84l161 80l-34 63l-127 -63v152h-174v-238 l-130 82l-40 -57l170 -109v-260v-45h-564z" />
<glyph unicode="&#xfb03;" horiz-adv-x="5117" d="M4264 1432q166 0 311.5 -58.5t255 -160t172 -236.5t62.5 -289t-62.5 -290t-172 -237.5t-255 -159.5t-311.5 -58t-311.5 58t-255 159.5t-172 238t-62.5 289.5q0 154 62.5 289t172 236.5t255 160t311.5 58.5zM4264 92q133 0 250 47t204 128t137 189.5t50 231.5t-50 231.5 t-137 188.5t-204 127t-250 47t-250 -47t-204 -127t-137 -188.5t-50 -231.5t50 -231.5t137 -189.5t204 -128t250 -47zM4557 487v-10q0 -41 -29 -75q-33 -38 -86 -44q-9 -1 -17 -1q-41 0 -73 25q-43 33 -43 87q0 41 30 75q34 38 85 44q33 2 61 -6v309l-321 -55v-387v-5v-10 q0 -41 -29 -75q-33 -38 -84 -44q-9 -1 -18 -1q-42 0 -73 25q-38 30 -42 77q0 5 -1 10q0 41 30 75q33 38 83 44q33 2 62 -6v446l465 74v-2v-565v-5zM1890 -49l668 1485l668 -1487h-250v2h-348v233l276 129l-31 62l-245 -113v84l161 80l-34 63l-127 -63v152h-174v-238l-130 82 l-40 -57l170 -109v-260v-45h-564zM184 -49l668 1485l668 -1487h-250v2h-348v233l276 129l-31 62l-245 -113v84l161 80l-34 63l-127 -63v152h-174v-238l-130 82l-40 -57l170 -109v-260v-45h-564z" />
<glyph unicode="&#xfb04;" horiz-adv-x="5117" d="M5065 555v-551h-344v514q0 98 -40 157.5t-134 59.5q-72 0 -115 -36.5t-62 -80.5q-6 -16 -8 -35.5t-2 -41.5v-537h-344q2 244 2 447v171v155q0 71 -1 121t-1 67h344v-136l-2 -4h2v4q16 25 41 52.5t61.5 51t88 39t118.5 15.5q84 0 157 -25.5t126 -80t83 -135t30 -191.5z M3658 1427q88 0 138 -47t54 -118q0 -70 -52 -118t-142 -48h-2q-88 0 -139.5 48t-51.5 118q0 72 52.5 118.5t142.5 46.5zM3484 965h342v-961h-342v961zM1890 -49l668 1485l668 -1487h-250v2h-348v233l276 129l-31 62l-245 -113v84l161 80l-34 63l-127 -63v152h-174v-238 l-130 82l-40 -57l170 -109v-260v-45h-564zM184 -49l668 1485l668 -1487h-250v2h-348v233l276 129l-31 62l-245 -113v84l161 80l-34 63l-127 -63v152h-174v-238l-130 82l-40 -57l170 -109v-260v-45h-564z" />
</font>
</defs>
</svg>
